osu file format v14

[General]
AudioFilename: audio.mp3
AudioLeadIn: 0
PreviewTime: 55462
Countdown: 0
SampleSet: Soft
StackLeniency: 0.3
Mode: 0
LetterboxInBreaks: 0
WidescreenStoryboard: 1

[Editor]
Bookmarks: 25384,45646,65593,83184
DistanceSpacing: 0.9
BeatDivisor: 4
GridSize: 32
TimelineZoom: 2.4

[Metadata]
Title:ADAMAS (TV Size)
TitleUnicode:ADAMAS (TV Size)
Artist:LiSA
ArtistUnicode:LiSA
Creator:Xahlt
Version:XAHJINN'S UNDERWORLD
Source:ソードアート・オンライン アリシゼーション
Tags:adinda sajinn wanpachi cycopton kuon- sao sword art online III 3 alicization season female vocal japanese jrock j-rock rock pop j-pop jpop opening op anime ost original soundtrack 草野華余子 kayoko kusano 赤い罠 Akai Wana (who loves it?)
BeatmapID:3119606
BeatmapSetID:1505910

[Difficulty]
HPDrainRate:5.4
CircleSize:4.2
OverallDifficulty:8.8
ApproachRate:9.2
SliderMultiplier:1.92
SliderTickRate:1

[Events]
//Background and Video events
0,0,"ALIIIIIIICE.jpg",0,0
Video,-7,"VD.mp4"
//Break Periods
//Storyboard Layer 0 (Background)
//Storyboard Layer 1 (Fail)
//Storyboard Layer 2 (Pass)
//Storyboard Layer 3 (Foreground)
//Storyboard Layer 4 (Overlay)
//Storyboard Sound Samples

[TimingPoints]
412,314.13612565445,4,2,1,40,1,0
412,-312.5,4,2,1,40,0,0
5281,314.13612565445,4,2,1,70,1,0
5281,-75.7575757575758,4,2,1,70,0,0
5437,314.13612565445,4,2,1,70,1,0
5515,-75.7575757575758,4,2,1,5,0,0
5594,-75.7575757575758,4,2,1,70,0,0
5751,-89.2857142857143,4,2,1,70,0,0
5986,-89.2857142857143,4,2,1,5,0,0
6065,-89.2857142857143,4,2,1,70,0,0
6300,-89.2857142857143,4,2,1,5,0,0
6379,-89.2857142857143,4,2,1,70,0,0
6615,-89.2857142857143,4,2,1,5,0,0
6693,-89.2857142857143,4,2,1,70,0,0
8499,-89.2857142857143,4,2,1,5,0,0
8578,-89.2857142857143,4,2,1,70,0,0
8813,-89.2857142857143,4,2,1,5,0,0
8892,-89.2857142857143,4,2,1,70,0,0
9128,-89.2857142857143,4,2,1,5,0,0
9206,-89.2857142857143,4,2,1,70,0,0
10306,-75.7575757575758,4,2,1,70,0,0
10541,-75.7575757575758,4,2,1,5,0,0
10620,-75.7575757575758,4,2,1,70,0,0
11012,-75.7575757575758,4,2,1,5,0,0
11091,-75.7575757575758,4,2,1,70,0,0
11327,-75.7575757575758,4,2,1,5,0,0
11405,-75.7575757575758,4,2,1,70,0,0
11641,-75.7575757575758,4,2,1,5,0,0
11719,-75.7575757575758,4,2,1,70,0,0
12662,-121.951219512195,4,2,1,70,0,0
12819,-75.7575757575758,4,2,1,70,0,0
13054,-75.7575757575758,4,2,1,5,0,0
13133,-75.7575757575758,4,2,1,70,0,0
13290,-89.2857142857143,4,2,1,70,0,0
13526,-89.2857142857143,4,2,1,5,0,0
13604,-89.2857142857143,4,2,1,70,0,0
13840,-89.2857142857143,4,2,1,5,0,0
13918,-89.2857142857143,4,2,1,70,0,0
14546,-161.290322580645,4,2,1,70,0,0
15332,-138.888888888889,4,2,1,50,0,0
24128,-98.0392156862746,4,2,1,50,0,0
24442,-98.0392156862746,4,2,1,5,0,0
25384,-98.0392156862745,4,2,1,60,0,0
26091,-98.0392156862745,4,2,1,5,0,0
26169,-98.0392156862745,4,2,1,60,0,0
28604,-98.0392156862745,4,2,1,5,0,0
28683,-98.0392156862745,4,2,1,60,0,0
33080,-138.888888888889,4,2,1,60,0,0
33316,-138.888888888889,4,2,1,5,0,0
33395,-108.695652173913,4,2,1,60,0,0
33630,-108.695652173913,4,2,1,5,0,0
33709,-89.2857142857143,4,2,1,60,0,0
33944,-89.2857142857143,4,2,1,5,0,0
34023,-75.7575757575758,4,2,1,60,0,0
34258,-75.7575757575758,4,2,1,5,0,0
34337,-98.0392156862745,4,2,1,60,0,0
35594,-161.290322580645,4,2,1,50,0,0
40855,-161.290322580645,4,2,1,5,0,0
40934,-161.290322580645,4,2,1,50,0,0
45646,-108.695652173913,4,2,1,60,0,0
45882,-108.695652173913,4,2,1,5,0,0
45960,-108.695652173913,4,2,1,60,0,0
50672,-108.695652173913,4,2,1,70,0,0
54599,-108.695652173913,4,2,1,40,0,0
55227,-454.545454545455,4,2,1,40,0,0
55541,314.13612565445,4,2,1,80,1,1
55541,-75.7575757575758,4,2,1,80,0,1
55698,314.13612565445,4,2,1,80,1,1
55776,-75.7575757575758,4,2,1,5,0,1
55855,-75.7575757575758,4,2,1,80,0,1
56247,-75.7575757575758,4,2,1,5,0,1
56326,-75.7575757575758,4,2,1,80,0,1
56561,-75.7575757575758,4,2,1,5,0,1
56640,-75.7575757575758,4,2,1,80,0,1
56876,-75.7575757575758,4,2,1,5,0,1
56954,-89.2857142857143,4,2,1,80,0,1
59467,-161.290322580645,4,2,1,80,0,1
59703,-161.290322580645,4,2,1,5,0,1
59781,-98.0392156862745,4,2,1,80,0,1
60017,-98.0392156862745,4,2,1,5,0,1
60095,-75.7575757575758,4,2,1,80,0,1
60331,-75.7575757575758,4,2,1,5,0,1
60410,-75.7575757575758,4,2,1,80,0,1
60959,-75.7575757575758,4,2,1,5,0,1
61038,-75.7575757575758,4,2,1,80,0,1
61273,-75.7575757575758,4,2,1,5,0,1
61352,-75.7575757575758,4,2,1,80,0,1
61588,-75.7575757575758,4,2,1,5,0,1
61666,-75.7575757575758,4,2,1,80,0,1
61902,-75.7575757575758,4,2,1,5,0,1
61980,-75.7575757575758,4,2,1,80,0,1
62216,-75.7575757575758,4,2,1,5,0,1
62294,-89.2857142857143,4,2,1,80,0,1
64376,-89.2857142857143,4,2,1,5,0,1
64650,-89.2857142857143,4,2,1,80,0,1
64690,-89.2857142857143,4,2,1,5,0,1
64965,-89.2857142857143,4,2,1,80,0,1
65004,-89.2857142857143,4,2,1,5,0,1
65279,-89.2857142857143,4,2,1,80,0,1
65318,-89.2857142857143,4,2,1,5,0,1
65593,-121.951219512195,4,2,1,70,0,0
66614,-121.951219512195,4,2,1,5,0,0
66692,-121.951219512195,4,2,1,70,0,0
67163,-238.095238095238,4,2,1,70,0,0
67556,-238.095238095238,4,2,1,5,0,0
67635,-238.095238095238,4,2,1,70,0,0
68106,-108.695652173913,4,2,1,70,0,0
68341,-108.695652173913,4,2,1,5,0,0
68420,-121.951219512195,4,2,1,70,0,0
73211,-121.951219512195,4,2,1,5,0,0
73289,-121.951219512195,4,2,1,70,0,0
75645,-98.0392156862744,4,2,1,80,0,0
76980,-98.0392156862744,4,2,1,5,0,0
77059,-98.0392156862744,4,2,1,80,0,0
79493,-98.0392156862744,4,2,1,5,0,0
79572,-98.0392156862744,4,2,1,80,0,0
82006,-98.0392156862744,4,2,1,5,0,0
82085,-98.0392156862744,4,2,1,80,0,0
83184,-81.9672131147541,4,2,1,85,0,0
83891,-81.9672131147541,4,2,1,5,0,0
83970,-81.9672131147541,4,2,1,85,0,0
84205,-81.9672131147541,4,2,1,5,0,0
84284,-81.9672131147541,4,2,1,85,0,0
84834,-81.9672131147541,4,2,1,5,0,0
84912,-81.9672131147541,4,2,1,85,0,0
85148,-81.9672131147541,4,2,1,5,0,0
85226,-81.9672131147541,4,2,1,85,0,0
88250,-81.9672131147541,4,2,1,5,0,0

[Colours]
Combo1 : 0,119,190
Combo2 : 255,238,88

[HitObjects]
81,172,412,5,2,0:0:0:0:
144,141,569,1,2,0:0:0:0:
215,189,726,1,2,1:3:0:0:
119,319,883,5,2,0:0:0:0:
142,253,1040,1,2,0:0:0:0:
114,333,1197,1,2,0:0:0:0:
229,195,1354,5,2,1:2:0:0:
301,236,1511,1,2,0:0:0:0:
306,239,1590,1,2,0:0:0:0:
310,241,1668,1,2,0:0:0:0:
453,169,1825,5,2,0:0:0:0:
399,119,1982,1,2,1:2:0:0:
317,138,2139,1,2,0:0:0:0:
411,272,2296,5,2,0:0:0:0:
465,196,2453,1,2,0:0:0:0:
392,103,2610,5,2,1:2:0:0:
357,36,2768,1,2,0:0:0:0:
352,31,2846,1,2,0:0:0:0:
347,26,2925,5,2,0:0:0:0:
265,52,3082,1,2,0:0:0:0:
176,62,3239,1,2,1:2:0:0:
276,68,3396,5,2,0:0:0:0:
236,135,3553,1,2,0:0:0:0:
152,172,3710,1,2,0:0:0:0:
89,36,3867,5,2,1:2:0:0:
164,58,4024,1,2,0:0:0:0:
169,60,4103,1,2,0:0:0:0:
176,62,4181,2,0,L|201:55,3,15.36,2|2|2|2,0:0|0:0|0:0|0:0,0:0:0:0:
142,191,4495,5,2,1:2:0:0:
220,277,4652,1,2,1:2:0:0:
452,241,5281,6,0,B|401:226|361:267|361:267|353:329|282:343,1,190.079999419922,6|0,3:2|0:0,0:0:0:0:
237,281,5594,1,0,3:2:0:0:
176,148,5751,2,0,P|251:161|279:93,1,161.28000196875,10|0,0:0|0:0,0:0:0:0:
164,63,6065,2,0,B|105:80|105:80|85:115|85:115|-3:149,1,161.28000196875,2|0,3:2|0:0,0:0:0:0:
148,255,6379,2,0,B|102:205|102:205|144:174|192:134,1,161.28000196875,10|0,0:0|0:0,0:0:0:0:
279,94,6693,5,2,3:2:0:0:
389,125,6850,1,0,0:0:0:0:
257,170,7007,5,10,0:0:0:0:
427,54,7164,1,0,0:0:0:0:
362,267,7321,5,2,3:2:0:0:
240,25,7478,1,2,3:2:0:0:
178,194,7635,1,8,0:0:0:0:
5,172,7793,6,0,B|73:172|114:131|114:131|69:173|103:255,1,215.040002625,2|0,3:2|3:2,0:0:0:0:
341,348,8264,2,0,P|271:333|171:312,1,161.28000196875,10|0,0:0|0:0,0:0:0:0:
276,194,8578,2,0,P|348:192|355:275,1,161.28000196875,2|0,3:2|0:0,0:0:0:0:
263,182,8892,2,0,P|231:129|311:80,1,161.28000196875,10|0,0:0|0:0,0:0:0:0:
414,117,9206,5,2,3:2:0:0:
361,266,9363,1,0,0:0:0:0:
296,75,9520,5,10,0:0:0:0:
439,247,9677,1,0,0:0:0:0:
263,182,9834,5,10,0:0:0:0:
213,163,9912,1,8,0:0:0:0:
165,182,9991,1,10,0:0:0:0:
141,229,10069,1,8,0:0:0:0:
140,238,10149,2,0,P|159:268|177:313,1,53.76000065625,8|8,0:0|0:0,0:0:0:0:
352,272,10306,6,0,B|301:260|265:302|265:302|260:360|197:379,1,190.079999419922,6|0,3:2|0:0,0:0:0:0:
126,361,10620,1,0,3:2:0:0:
58,95,10777,2,0,B|80:145|144:146|144:146|83:146|51:227,1,190.079999419922,10|0,0:0|0:0,0:0:0:0:
134,60,11091,2,0,B|220:19|220:19|284:53|234:114,1,190.079999419922,2|0,3:2|0:0,0:0:0:0:
369,214,11405,2,0,B|258:187|258:187|322:178|330:104,1,190.079999419922,10|0,0:0|0:0,0:0:0:0:
378,230,11719,5,2,3:2:0:0:
472,120,11876,1,8,0:0:0:0:
512,331,12033,5,10,0:0:0:0:
466,294,12112,1,8,0:0:0:0:
413,296,12190,1,8,0:0:0:0:
372,332,12269,1,8,0:0:0:0:
363,342,12347,5,10,2:3:0:0:
351,345,12426,1,8,2:3:0:0:
338,339,12505,1,6,2:3:0:0:
330,331,12583,1,4,2:3:0:0:
321,323,12662,2,0,P|295:317|266:305,1,39.3600006005859,4|4,2:3|2:3,0:0:0:0:
100,299,12819,6,0,B|152:289|152:289|195:312|195:312|193:372|269:399,1,190.079999419922,4|0,3:2|0:0,0:0:0:0:
250,384,13133,1,0,3:2:0:0:
233,216,13290,2,0,P|247:156|353:181,1,161.28000196875,10|0,0:0|0:0,0:0:0:0:
220,219,13604,2,0,B|168:198|168:198|150:164|150:164|72:131,1,161.28000196875,2|0,3:2|0:0,0:0:0:0:
14,163,13918,5,8,0:0:0:0:
100,299,14075,1,0,0:0:0:0:
187,94,14232,5,10,0:0:0:0:
191,83,14311,2,0,P|229:76|261:67,1,53.76000065625,8|8,0:0|0:0,0:0:0:0:
362,18,14468,1,8,0:0:0:0:
373,21,14546,6,0,P|384:38|382:60,1,29.759998819336,10|8,2:3|2:3,0:0:0:0:
323,92,14704,2,0,P|312:109|314:131,1,29.759998819336,4|4,2:3|2:3,0:0:0:0:
363,331,14861,5,2,3:2:0:0:
474,184,15018,1,2,3:2:0:0:
480,177,15096,1,2,3:2:0:0:
480,166,15175,1,10,0:0:0:0:
414,232,15332,6,0,P|368:243|271:271,1,138.240003375,6|2,3:2|3:2,0:0:0:0:
211,349,15803,1,10,0:0:0:0:
200,354,15855,2,0,P|163:346|141:343,1,46.080001125,8|2,0:0|0:0,0:0:0:0:
64,291,16117,1,10,0:0:0:0:
56,283,16169,2,0,P|93:275|102:198,1,115.2000028125,8|10,0:0|0:0,0:0:0:0:
96,198,16484,1,8,0:0:0:0:
12,72,16745,5,10,0:0:0:0:
22,60,16798,2,0,P|52:71|83:79,1,46.080001125,8|2,0:0|0:0,0:0:0:0:
143,125,17060,1,10,0:0:0:0:
153,137,17113,2,0,P|183:126|214:118,1,46.080001125,8|2,0:0|3:2,0:0:0:0:
321,22,17374,1,10,0:0:0:0:
385,50,17531,1,2,3:2:0:0:
331,94,17688,1,8,0:0:0:0:
266,67,17845,1,2,3:2:0:0:
421,133,18002,5,8,0:0:0:0:
429,141,18054,2,0,P|419:172|415:193,1,46.080001125,8|2,0:0|0:0,0:0:0:0:
434,293,18316,1,10,0:0:0:0:
439,304,18368,2,0,B|398:286|398:286|383:265|383:265|342:247,1,115.2000028125,8|10,0:0|0:0,0:0:0:0:
325,254,18683,2,0,P|340:290|293:340,1,115.2000028125,8|10,0:0|0:0,0:0:0:0:
278,338,18997,1,8,0:0:0:0:
64,244,19258,5,10,0:0:0:0:
51,236,19311,2,0,P|101:221|170:199,1,115.2000028125,8|10,0:0|0:0,0:0:0:0:
259,145,19730,1,2,3:2:0:0:
132,71,19887,1,10,0:0:0:0:
190,24,20044,1,2,3:2:0:0:
198,22,20122,1,2,3:2:0:0:
205,20,20201,1,10,0:0:0:0:
301,73,20358,1,0,3:2:0:0:
403,10,20515,5,8,0:0:0:0:
414,1,20567,2,0,P|400:64|388:122,1,115.2000028125,8|10,0:0|0:0,0:0:0:0:
398,132,20882,2,0,P|422:148|466:127,1,69.1200016875,8|0,0:0|0:0,0:0:0:0:
340,210,21143,1,10,0:0:0:0:
333,222,21196,2,0,P|303:228|269:236,1,46.080001125,8|2,0:0|0:0,0:0:0:0:
401,319,21457,1,10,0:0:0:0:
410,330,21510,2,0,P|380:324|346:316,1,46.080001125,8|2,0:0|0:0,0:0:0:0:
236,363,21772,5,10,0:0:0:0:
174,326,21929,1,2,0:0:0:0:
71,377,22086,1,10,0:0:0:0:
159,334,22243,1,2,3:2:0:0:
26,289,22400,1,10,0:0:0:0:
80,194,22557,1,2,3:2:0:0:
36,124,22714,1,10,0:0:0:0:
74,66,22871,1,2,3:2:0:0:
196,149,23028,5,8,0:0:0:0:
206,157,23080,2,0,B|249:144|249:144|264:126|264:126|312:113,1,115.2000028125,8|10,0:0|0:0,0:0:0:0:
452,53,23499,2,0,P|440:80|434:107,1,34.56000084375,2|2,3:2|3:2,0:0:0:0:
393,168,23656,1,8,0:0:0:0:
393,168,23813,2,0,P|405:195|411:222,1,34.56000084375,6|4,2:3|2:3,0:0:0:0:
438,338,23971,1,8,0:0:0:0:
341,239,24128,6,0,B|437:247|437:247|483:307|415:357,1,195.840001195313,6|0,3:2|0:0,0:0:0:0:
20,366,25384,6,0,B|18:266|110:307|102:187,1,195.840001195313,6|2,3:2|3:2,0:0:0:0:
46,91,25855,2,0,P|118:105|190:115,1,146.880000896484,10|0,0:0|0:0,0:0:0:0:
206,106,26169,5,2,3:2:0:0:
296,207,26327,1,2,0:0:0:0:
405,63,26484,1,10,0:0:0:0:
300,115,26641,1,2,0:0:0:0:
465,257,26798,5,2,3:2:0:0:
387,148,26955,1,2,0:0:0:0:
325,312,27112,1,10,0:0:0:0:
384,137,27269,1,2,0:0:0:0:
475,275,27426,5,2,3:2:0:0:
312,219,27583,1,2,0:0:0:0:
188,325,27740,1,10,0:0:0:0:
128,177,27897,6,0,B|132:165|143:152|143:152|54:191|54:191|46:219|87:255,1,195.840001195313,2|2,3:2|3:2,0:0:0:0:
188,325,28368,2,0,P|118:348|48:371,1,146.880000896484,10|0,0:0|0:0,0:0:0:0:
40,357,28683,5,2,3:2:0:0:
160,247,28840,1,2,0:0:0:0:
276,323,28997,1,10,0:0:0:0:
406,239,29154,1,2,0:0:0:0:
432,384,29311,5,2,3:2:0:0:
293,321,29468,1,2,0:0:0:0:
467,304,29625,1,10,0:0:0:0:
274,311,29782,1,2,0:0:0:0:
341,132,29939,5,2,3:2:0:0:
382,312,30096,1,2,0:0:0:0:
473,136,30253,1,10,0:0:0:0:
273,218,30410,5,2,3:2:0:0:
247,202,30489,1,2,3:2:0:0:
217,195,30567,1,6,3:2:0:0:
29,281,30724,5,2,0:0:0:0:
121,146,30882,1,10,0:0:0:0:
159,308,31039,1,2,0:0:0:0:
11,171,31196,5,2,3:2:0:0:
141,41,31353,1,2,0:0:0:0:
217,195,31510,5,10,0:0:0:0:
121,146,31667,1,2,0:0:0:0:
343,36,31824,5,2,3:2:0:0:
217,96,31981,1,2,0:0:0:0:
321,176,32138,5,10,0:0:0:0:
241,0,32295,1,2,0:0:0:0:
467,59,32452,5,2,3:2:0:0:
451,154,32609,1,2,0:0:0:0:
435,249,32766,1,10,0:0:0:0:
431,263,33080,6,0,B|381:246|381:246|338:285,1,103.68000253125,6|0,3:2|0:0,0:0:0:0:
261,350,33395,6,0,P|325:364|390:379,1,132.479995552735,10|0,0:0|0:0,0:0:0:0:
243,254,33709,6,0,P|168:269|70:299,1,161.28000196875,6|0,3:2|0:0,0:0:0:0:
15,352,34023,6,0,B|15:368|13:379|13:379|67:318|67:318|0:225,1,190.079999419922,10|0,0:0|0:0,0:0:0:0:
9,149,34337,5,6,3:2:0:0:
40,162,34416,1,8,0:0:0:0:
73,155,34494,1,8,0:0:0:0:
95,128,34573,1,8,0:0:0:0:
90,113,34651,5,10,0:0:0:0:
126,72,34730,1,8,0:0:0:0:
177,59,34808,1,8,0:0:0:0:
229,72,34887,1,8,0:0:0:0:
237,83,34965,6,0,P|228:110|218:139,1,48.9600002988281,10|8,2:3|2:3,0:0:0:0:
340,58,35122,6,0,P|332:34|324:11,1,48.9600002988281,8|8,2:3|2:3,0:0:0:0:
397,173,35279,6,0,P|373:180|350:187,1,48.9600002988281,6|4,2:3|2:3,0:0:0:0:
214,261,35436,6,0,P|237:268|260:276,1,48.9600002988281,4|4,2:3|2:3,0:0:0:0:
418,365,35594,6,0,B|403:341|382:320|382:320|419:271,1,119.039995277344,6|0,3:2|3:2,0:0:0:0:
400,154,36222,2,0,P|424:161|523:198,1,119.039995277344,2|0,3:2|3:2,0:0:0:0:
458,45,36850,6,0,P|371:65|286:92,2,178.559992916016,2|2|2,3:2|0:0|3:2,0:0:0:0:
299,187,37950,5,8,0:0:0:0:
274,174,38028,1,8,0:0:0:0:
247,173,38107,2,0,P|280:215|243:282,1,119.039995277344,6|0,3:2|3:2,0:0:0:0:
291,367,38578,2,0,P|233:352|165:339,1,119.039995277344,2|0,0:0|0:0,0:0:0:0:
27,319,39049,6,0,P|37:346|47:385,1,59.519997638672,2|0,3:2|0:0,0:0:0:0:
129,223,39363,2,0,P|118:250|109:289,1,59.519997638672,2|0,3:2|0:0,0:0:0:0:
13,194,39677,1,2,3:2:0:0:
119,116,39834,1,8,0:0:0:0:
202,157,39991,5,2,3:2:0:0:
115,210,40149,1,10,0:0:0:0:
12,91,40306,1,2,3:2:0:0:
161,13,40463,5,8,2:3:0:0:
185,18,40541,1,8,2:3:0:0:
212,28,40620,2,0,P|253:44|295:60,1,89.279996458008,6|0,3:2|0:0,0:0:0:0:
306,75,40934,5,2,3:2:0:0:
420,6,41091,2,0,B|457:49|457:49|410:103,1,119.039995277344,2|0,0:0|0:0,0:0:0:0:
456,190,41562,5,2,3:2:0:0:
348,248,41719,2,0,P|389:264|477:304,1,119.039995277344,2|0,0:0|0:0,0:0:0:0:
347,160,42190,5,2,3:2:0:0:
253,290,42347,2,0,B|216:247|216:247|263:193,1,119.039995277344,2|0,0:0|0:0,0:0:0:0:
337,341,42819,5,2,3:2:0:0:
198,383,42976,5,8,0:0:0:0:
168,373,43054,1,8,0:0:0:0:
142,355,43133,2,0,P|115:366|88:378,1,59.519997638672,2|0,3:2|0:0,0:0:0:0:
19,243,43447,2,0,P|46:254|73:266,1,59.519997638672,2|0,3:2|0:0,0:0:0:0:
177,180,43761,2,0,P|121:201|64:218,1,119.039995277344,2|0,3:2|3:2,0:0:0:0:
118,119,44232,1,2,0:0:0:0:
257,215,44389,5,2,3:2:0:0:
361,141,44546,1,8,0:0:0:0:
461,243,44704,1,2,3:2:0:0:
463,120,44861,5,4,2:3:0:0:
348,259,45018,1,6,2:3:0:0:
238,92,45175,5,8,0:0:0:0:
211,60,45253,1,8,0:0:0:0:
177,35,45332,1,10,0:0:0:0:
136,24,45410,1,8,0:0:0:0:
94,25,45489,1,8,0:0:0:0:
55,40,45567,1,8,0:0:0:0:
48,53,45646,6,0,B|89:78|89:78|103:105|103:105|154:146,1,132.479995552735,6|0,3:2|0:0,0:0:0:0:
215,167,45960,2,0,P|202:213|187:263,1,88.3199970351563,8|0,0:0|3:2,0:0:0:0:
1,348,46274,2,0,P|31:303|72:309,1,88.3199970351563,2|0,3:2|3:2,0:0:0:0:
149,349,46588,1,8,0:0:0:0:
354,261,46745,1,0,3:2:0:0:
363,257,46824,1,0,3:2:0:0:
371,254,46902,6,0,B|317:244|289:283|289:283|280:339|212:350,1,176.639994070313,2|10,3:2|0:0,0:0:0:0:
113,221,47374,1,0,3:2:0:0:
215,167,47531,2,0,P|202:213|187:263,1,88.3199970351563,2|0,3:2|3:2,0:0:0:0:
10,89,47845,2,0,P|44:118|88:110,1,88.3199970351563,10|0,0:0|3:2,0:0:0:0:
97,100,48080,1,0,3:2:0:0:
104,91,48159,5,2,3:2:0:0:
208,40,48316,1,0,3:2:0:0:
294,80,48473,1,8,0:0:0:0:
194,31,48630,5,2,3:2:0:0:
307,89,48787,1,0,3:2:0:0:
198,177,48944,1,0,3:2:0:0:
350,263,49101,5,10,0:0:0:0:
395,171,49258,1,0,3:2:0:0:
390,165,49337,1,0,3:2:0:0:
382,160,49416,6,0,P|328:177|280:190,1,88.3199970351563,0|0,3:2|3:2,0:0:0:0:
152,290,49730,5,10,0:0:0:0:
239,316,49887,1,0,3:2:0:0:
101,226,50044,5,10,0:0:0:0:
294,186,50201,1,0,3:2:0:0:
39,67,50358,5,10,0:0:0:0:
235,130,50515,1,0,3:2:0:0:
241,122,50594,1,0,3:2:0:0:
241,112,50672,5,6,3:2:0:0:
83,219,50829,1,0,3:2:0:0:
307,202,50986,1,0,3:2:0:0:
83,138,51143,5,14,0:0:0:0:
233,302,51300,1,2,3:2:0:0:
245,91,51457,1,0,3:2:0:0:
133,312,51615,5,14,0:0:0:0:
258,68,51772,1,0,3:2:0:0:
346,324,51929,5,14,0:0:0:0:
218,203,52086,1,0,3:2:0:0:
333,41,52243,1,2,3:2:0:0:
402,218,52400,5,12,0:0:0:0:
204,189,52557,1,2,3:2:0:0:
143,30,52714,1,0,3:2:0:0:
359,43,52871,5,14,0:0:0:0:
122,27,53028,1,0,3:2:0:0:
310,131,53185,5,12,3:2:0:0:
319,144,53264,1,0,3:2:0:0:
340,150,53342,2,0,P|358:146|407:135,1,44.1599985175782,0|0,3:2|3:2,0:0:0:0:
221,314,53499,2,0,P|242:318|264:323,1,44.1599985175782,0|0,3:2|3:2,0:0:0:0:
496,249,53656,5,12,3:2:0:0:
456,212,53735,1,0,3:2:0:0:
403,216,53813,1,0,3:2:0:0:
360,251,53892,1,0,3:2:0:0:
307,256,53971,1,0,3:2:0:0:
257,226,54049,1,0,3:2:0:0:
251,214,54128,5,12,3:2:0:0:
503,262,54285,1,4,3:2:0:0:
512,274,54599,5,2,0:0:0:0:
396,208,54756,5,2,0:0:0:0:
312,276,54913,5,2,0:0:0:0:
170,177,55070,5,2,0:0:0:0:
96,296,55227,6,0,B|91:296|80:297|80:297|90:298|96:303,1,31.6800009667969,2|0,0:0|0:0,0:0:0:0:
150,352,55541,6,0,B|96:267|232:252|156:156,1,190.079999419922,6|0,3:2|0:0,0:0:0:0:
94,133,55855,1,0,0:0:0:0:
319,109,56012,2,0,B|271:94|271:94|229:110|229:110|218:171|157:178,1,190.079999419922,10|0,3:2|0:0,0:0:0:0:
335,105,56326,2,0,B|408:77|375:0|375:0|357:36|311:41,1,190.079999419922,2|0,3:2|0:0,0:0:0:0:
323,190,56640,2,0,B|366:200|399:166|399:166|458:186|437:251,1,190.079999419922,10|0,0:0|0:0,0:0:0:0:
369,317,56954,6,0,B|328:332|328:332|316:354|316:354|261:376,1,107.5200013125,2|0,3:2|0:0,0:0:0:0:
91,151,57268,1,10,0:0:0:0:
221,265,57425,2,0,B|166:249|102:231|102:231|162:220|176:152,1,215.040002625,2|0,0:0|0:0,0:0:0:0:
335,105,57896,1,8,0:0:0:0:
145,27,58054,5,2,0:0:0:0:
274,154,58211,1,2,3:2:0:0:
449,22,58368,1,2,0:0:0:0:
275,51,58525,1,10,0:0:0:0:
338,230,58682,1,2,0:0:0:0:
512,201,58839,1,2,3:2:0:0:
461,147,58996,2,0,P|417:137|336:102,1,107.5200013125,2|8,0:0|0:0,0:0:0:0:
221,265,59310,5,2,0:0:0:0:
309,384,59467,2,0,P|302:333|289:282,1,89.279996458008,6|0,3:2|0:0,0:0:0:0:
145,112,59781,6,0,B|98:156|98:156|180:231,1,146.880000896484,10|0,0:0|0:0,0:0:0:0:
461,147,60095,6,0,B|411:126|354:102|354:102|383:144|341:209,1,190.079999419922,6|0,3:2|0:0,0:0:0:0:
293,296,60410,5,10,0:0:0:0:
145,112,60567,1,8,0:0:0:0:
138,108,60645,1,8,0:0:0:0:
133,102,60724,6,0,B|163:93|172:41|172:41|160:124|215:150,1,190.079999419922,6|0,3:2|0:0,0:0:0:0:
227,252,61038,2,0,B|142:276|142:276|84:233|143:176,1,190.079999419922,10|0,0:0|0:0,0:0:0:0:
236,262,61352,2,0,B|279:239|279:239|323:251|323:251|343:318|434:306,1,190.079999419922,2|0,3:2|0:0,0:0:0:0:
509,216,61666,2,0,B|461:218|401:227|401:227|441:196|427:141,1,190.079999419922,10|0,0:0|0:0,0:0:0:0:
250,136,61980,2,0,P|323:159|351:63,1,190.079999419922,2|0,3:2|0:0,0:0:0:0:
272,19,62294,6,0,P|231:30|132:49,1,107.5200013125,8|0,0:0|0:0,0:0:0:0:
8,2,62608,1,2,3:2:0:0:
108,114,62766,1,2,0:0:0:0:
18,278,62923,5,10,0:0:0:0:
97,97,63080,1,14,0:0:0:0:
210,240,63237,1,0,0:0:0:0:
45,165,63394,5,14,0:0:0:0:
224,250,63551,1,8,0:0:0:0:
271,270,63629,1,8,0:0:0:0:
324,262,63708,1,10,0:0:0:0:
354,212,63787,1,8,0:0:0:0:
359,204,63865,6,0,B|349:175|349:175|346:174|346:174|332:131,1,53.76000065625,8|8,0:0|0:0,0:0:0:0:
381,14,64022,1,10,0:0:0:0:
445,24,64101,1,8,0:0:0:0:
469,85,64179,1,8,0:0:0:0:
45,165,64336,6,0,P|71:170|93:177,1,26.880000328125,6|0,3:2|0:0,0:0:0:0:
34,169,64650,6,0,P|60:174|82:181,1,26.880000328125,6|0,3:2|0:0,0:0:0:0:
23,177,64965,6,0,P|49:182|71:189,1,26.880000328125,6|0,3:2|0:0,0:0:0:0:
15,185,65279,6,0,P|41:190|63:197,1,26.880000328125,6|0,3:2|0:0,0:0:0:0:
7,194,65593,6,0,P|84:207|161:221,1,157.440002402344,6|0,3:2|3:2,0:0:0:0:
284,197,66064,1,0,3:2:0:0:
284,197,66378,2,0,B|296:227|325:239|325:239|292:242|270:282,1,118.080001801758,2|0,3:2|0:0,0:0:0:0:
269,279,66692,1,2,3:2:0:0:
320,370,66849,6,0,P|281:376|242:384,1,78.7200012011719,2|0,0:0|3:2,0:0:0:0:
389,303,67163,2,0,P|428:309|491:324,1,100.799996923828,2|0,0:0|0:0,0:0:0:0:
505,317,67635,5,10,2:3:0:0:
463,237,67792,1,6,2:3:0:0:
512,141,67949,1,2,3:2:0:0:
454,68,68106,6,0,B|394:36|394:36|340:103,1,132.479995552735,14|0,0:0|0:0,0:0:0:0:
334,88,68420,6,0,P|345:125|352:164,1,78.7200012011719,2|0,3:2|0:0,0:0:0:0:
227,23,68734,2,0,P|208:56|193:93,1,78.7200012011719,2|0,3:2|0:0,0:0:0:0:
140,235,69048,2,0,P|174:216|213:213,1,78.7200012011719,2|0,3:2|0:0,0:0:0:0:
318,292,69362,5,2,3:2:0:0:
140,369,69519,5,8,0:0:0:0:
106,347,69598,1,8,0:0:0:0:
66,347,69677,1,10,0:0:0:0:
32,366,69755,1,8,0:0:0:0:
21,357,69834,6,0,P|14:334|7:307,1,39.3600006005859,10|8,0:0|0:0,0:0:0:0:
151,197,69991,2,0,P|145:215|140:234,1,39.3600006005859,10|8,0:0|0:0,0:0:0:0:
10,124,70148,5,10,0:0:0:0:
41,88,70226,1,8,0:0:0:0:
85,71,70305,1,8,0:0:0:0:
131,75,70383,1,8,0:0:0:0:
139,84,70462,6,0,P|159:88|208:101,1,39.3600006005859,10|8,0:0|2:3,0:0:0:0:
324,4,70619,5,4,2:3:0:0:
286,13,70697,5,4,2:3:0:0:
258,36,70776,5,12,0:0:0:0:
371,107,70933,1,0,3:2:0:0:
487,171,71090,1,2,3:2:0:0:
341,257,71247,5,12,0:0:0:0:
475,175,71404,2,0,B|481:214|481:214|435:252,1,78.7200012011719,2|0,3:2|3:2,0:0:0:0:
285,167,71718,5,14,0:0:0:0:
195,355,71876,2,0,P|233:344|282:334,1,78.7200012011719,2|0,3:2|3:2,0:0:0:0:
156,267,72190,5,14,0:0:0:0:
28,356,72347,1,2,3:2:0:0:
148,254,72504,5,2,3:2:0:0:
0,169,72661,1,14,0:0:0:0:
48,258,72818,1,2,3:2:0:0:
82,41,72975,6,0,B|100:73|115:118|115:118|119:97|130:76,1,118.080001801758,14|0,0:0|0:0,0:0:0:0:
136,70,73289,5,0,3:2:0:0:
170,43,73368,1,0,3:2:0:0:
212,34,73446,1,0,3:2:0:0:
252,50,73525,1,0,3:2:0:0:
259,64,73603,6,0,P|249:87|243:110,3,39.3600006005859,10|0|0|0,3:2|3:2|3:2|3:2,0:0:0:0:
393,160,73917,2,0,P|386:141|379:123,3,39.3600006005859,10|8|8|8,0:0|0:0|0:0|0:0,0:0:0:0:
222,215,74232,6,0,P|240:220|259:227,1,39.3600006005859,10|8,0:0|0:0,0:0:0:0:
388,316,74389,2,0,P|369:321|350:328,1,39.3600006005859,10|8,0:0|0:0,0:0:0:0:
488,359,74546,5,8,0:0:0:0:
505,319,74624,1,8,2:3:0:0:
495,276,74703,1,10,2:3:0:0:
462,247,74781,1,8,2:3:0:0:
446,243,74860,5,8,2:3:0:0:
427,228,74938,1,8,2:3:0:0:
416,206,75017,1,10,2:3:0:0:
415,182,75095,1,8,2:3:0:0:
425,160,75174,6,0,P|444:156|476:148,1,39.3600006005859,6|4,2:3|2:3,0:0:0:0:
512,32,75331,2,0,P|492:27|473:23,1,39.3600006005859,6|4,2:3|2:3,0:0:0:0:
275,1,75488,6,0,P|283:23|292:47,1,39.3600006005859,6|4,2:3|2:3,0:0:0:0:
149,166,75645,6,0,P|142:87|38:93,1,195.840001195313,6|0,3:2|3:2,0:0:0:0:
16,296,76116,6,0,P|63:283|110:271,1,97.9200005976563,8|0,0:0|0:0,0:0:0:0:
243,190,76430,2,0,P|195:177|148:165,1,97.9200005976563,0|0,3:2|0:0,0:0:0:0:
220,335,76745,2,0,P|290:317|363:304,1,146.880000896484,8|0,0:0|0:0,0:0:0:0:
381,303,77059,5,0,3:2:0:0:
493,347,77216,1,0,0:0:0:0:
512,169,77373,2,0,P|461:182|390:207,1,97.9200005976563,8|0,0:0|0:0,0:0:0:0:
289,86,77687,5,2,3:2:0:0:
412,86,77844,1,0,3:2:0:0:
267,221,78001,1,8,0:0:0:0:
171,39,78158,6,0,B|179:26|208:16|208:16|139:10|154:84|53:74,1,195.840001195313,10|0,0:0|0:0,0:0:0:0:
0,179,78629,2,0,P|47:190|88:216,1,97.9200005976563,8|0,0:0|0:0,0:0:0:0:
191,311,78944,2,0,P|143:322|102:348,1,97.9200005976563,0|0,3:2|0:0,0:0:0:0:
293,363,79258,2,0,P|319:299|263:218,1,146.880000896484,8|0,0:0|0:0,0:0:0:0:
267,221,79572,5,0,3:2:0:0:
197,117,79729,1,0,0:0:0:0:
342,26,79886,2,0,P|325:72|311:118,1,97.9200005976563,8|0,0:0|0:0,0:0:0:0:
495,224,80200,5,2,3:2:0:0:
407,118,80357,1,0,0:0:0:0:
512,23,80514,1,10,0:0:0:0:
386,228,80671,6,0,B|337:249|337:249|297:319|297:319|209:347,1,195.840001195313,6|0,3:2|3:2,0:0:0:0:
114,301,81143,2,0,P|145:336|139:384,1,97.9200005976563,8|0,0:0|0:0,0:0:0:0:
0,288,81457,2,0,P|-5:240|25:204,1,97.9200005976563,0|0,3:2|0:0,0:0:0:0:
213,165,81771,2,0,P|141:151|80:111,1,146.880000896484,8|0,0:0|0:0,0:0:0:0:
68,97,82085,5,8,0:0:0:0:
71,48,82163,1,8,0:0:0:0:
106,14,82242,1,8,0:0:0:0:
155,12,82321,1,8,0:0:0:0:
167,24,82399,6,0,P|190:30|214:36,1,48.9600002988281,8|8,2:3|2:3,0:0:0:0:
343,98,82556,2,0,P|319:104|295:110,1,48.9600002988281,8|8,2:3|2:3,0:0:0:0:
427,8,82713,5,6,2:3:0:0:
464,31,82792,1,4,2:3:0:0:
483,70,82870,1,4,2:3:0:0:
482,114,82949,1,4,2:3:0:0:
466,155,83027,1,4,2:3:0:0:
138,291,83184,6,0,B|196:258|196:258|250:280|250:280|266:354|358:359,1,234.23999034961,6|0,3:2|3:2,0:0:0:0:
512,306,83656,2,0,P|446:289|324:259,1,175.679992762207,10|0,0:0|0:0,0:0:0:0:
189,156,83970,2,0,B|224:157|243:111|243:111|230:192|324:205,1,175.679992762207,2|0,3:2|0:0,0:0:0:0:
341,263,84284,5,8,0:0:0:0:
175,162,84441,1,0,0:0:0:0:
26,244,84598,6,0,B|92:217|92:217|112:185|112:185|174:162,1,175.679992762207,2|0,3:2|0:0,0:0:0:0:
97,17,84912,2,0,B|159:40|159:40|179:72|179:72|245:99,1,175.679992762207,10|0,0:0|0:0,0:0:0:0:
358,47,85226,5,2,3:2:0:0:
258,186,85383,1,2,3:2:0:0:
455,330,85540,5,10,0:0:0:0:
390,169,85697,1,2,3:2:0:0:
333,268,85855,5,8,3:2:0:0:
326,278,85933,1,0,3:2:0:0:
319,291,86012,1,0,3:2:0:0:
311,303,86090,1,0,3:2:0:0:
307,313,86169,2,0,P|265:323|234:334,1,58.5599975874024,8|0,3:2|3:2,0:0:0:0:
57,227,86326,5,0,3:2:0:0:
38,206,86404,1,0,3:2:0:0:
44,181,86483,2,0,P|86:171|117:160,1,58.5599975874024,8|0,3:2|3:2,0:0:0:0:
302,122,86640,5,0,3:2:0:0:
276,164,86718,1,0,3:2:0:0:
232,167,86797,2,0,P|218:133|197:101,1,58.5599975874024,8|0,3:2|3:2,0:0:0:0:
384,12,86954,5,0,3:2:0:0:
443,51,87033,1,0,3:2:0:0:
437,126,87111,5,8,0:0:0:0:
437,126,88211,6,0,L|429:170,1,29.2799987937012,12|0,0:0|0:0,0:0:0:0:
