osu file format v14

[General]
AudioFilename: audio.mp3
AudioLeadIn: 0
PreviewTime: 55462
Countdown: 0
SampleSet: Soft
StackLeniency: 0.3
Mode: 0
LetterboxInBreaks: 0
WidescreenStoryboard: 0

[Editor]
Bookmarks: 5281,25384,35594,45646,55541,75645,83184,87111
DistanceSpacing: 1
BeatDivisor: 4
GridSize: 32
TimelineZoom: 1.4

[Metadata]
Title:ADAMAS (TV Size)
TitleUnicode:ADAMAS (TV Size)
Artist:LiSA
ArtistUnicode:LiSA
Creator:Xahlt
Version:NORMAL
Source:ソードアート・オンライン アリシゼーション
Tags:adinda sajinn wanpachi cycopton kuon- sao sword art online III 3 alicization season female vocal japanese jrock j-rock rock pop j-pop jpop opening op anime ost original soundtrack 草野華余子 kayoko kusano 赤い罠 Akai Wana (who loves it?)
BeatmapID:3084807
BeatmapSetID:1505910

[Difficulty]
HPDrainRate:3
CircleSize:3
OverallDifficulty:4
ApproachRate:5
SliderMultiplier:1
SliderTickRate:1

[Events]
//Background and Video events
0,0,"ALIIIIIIICE.jpg",0,0
Video,-7,"VD.mp4"
//Break Periods
//Storyboard Layer 0 (Background)
//Storyboard Layer 1 (Fail)
//Storyboard Layer 2 (Pass)
//Storyboard Layer 3 (Foreground)
//Storyboard Layer 4 (Overlay)
//Storyboard Sound Samples

[TimingPoints]
412,314.13612565445,4,2,1,40,1,0
412,-111.111111111111,4,2,1,40,0,0
5281,314.13612565445,4,2,1,70,1,0
5281,-100,4,2,1,70,0,0
5437,314.13612565445,4,2,1,70,1,0
5438,-100,4,2,1,70,0,0
15175,-100,4,2,1,50,0,0
15803,-111.111111111111,4,2,1,50,0,0
25384,-99.9999999999999,4,2,1,60,0,0
35594,-111.111111111111,4,2,1,50,0,0
45646,-99.9999999999999,4,2,1,60,0,0
50672,-99.9999999999999,4,2,1,70,0,0
55541,314.13612565445,4,2,1,80,1,1
55541,-90.9090909090909,4,2,1,80,0,1
55698,314.13612565445,4,2,1,80,1,1
55698,-90.9090909090909,4,2,1,80,0,1
65593,-90.9090909090909,4,2,1,70,0,0
75645,-100,4,2,1,80,0,1
83184,-90.9090909090909,4,2,1,85,0,1
87111,-90.9090909090909,4,2,1,85,0,0
88211,-90.9090909090909,4,2,1,85,0,1
88368,-90.9090909090909,4,2,1,85,0,0

[Colours]
Combo1 : 0,119,190
Combo2 : 255,238,88

[HitObjects]
512,11,412,6,0,P|491:77|483:112,1,89.9999972534181,2|2,0:0|1:3,0:0:0:0:
475,140,883,1,2,0:0:0:0:
341,117,1354,2,0,P|354:158|371:218,1,89.9999972534181,2|2,1:2|0:0,0:0:0:0:
395,238,1825,2,0,P|382:279|365:339,1,89.9999972534181,2|0,0:0|0:0,0:0:0:0:
339,358,2296,1,2,0:0:0:0:
268,301,2610,1,2,1:2:0:0:
177,305,2925,6,0,P|189:261|202:218,1,89.9999972534181,2|2,0:0|1:2,0:0:0:0:
199,173,3396,1,2,0:0:0:0:
283,60,3867,2,0,P|248:33|195:33,1,89.9999972534181,2|2,1:2|0:0,0:0:0:0:
164,47,4338,1,2,0:0:0:0:
164,47,4495,2,0,P|141:41|115:33,1,44.999998626709,2|2,1:2|1:2,0:0:0:0:
120,34,5281,6,0,P|101:80|87:128,1,100,6|0,3:2|0:0,0:0:0:0:
56,167,5751,2,0,P|102:184|122:228,1,100,10|2,0:0|3:2,0:0:0:0:
56,303,6379,1,10,0:0:0:0:
120,379,6693,2,0,P|169:371|218:362,1,100,2|10,3:2|0:0,0:0:0:0:
320,383,7321,1,2,3:2:0:0:
320,383,7478,1,2,3:2:0:0:
382,306,7793,6,0,P|401:262|380:218,1,100,2|0,3:2|3:2,0:0:0:0:
342,184,8264,2,0,P|292:192|243:201,1,100,10|2,0:0|3:2,0:0:0:0:
151,162,8892,1,10,0:0:0:0:
138,62,9206,1,2,3:2:0:0:
228,20,9520,1,10,0:0:0:0:
311,85,9834,1,10,0:0:0:0:
311,85,9991,2,0,P|338:79|375:65,1,50,10|8,0:0|0:0,0:0:0:0:
405,53,10306,6,0,P|451:69|475:111,1,100,6|0,3:2|3:2,0:0:0:0:
503,153,10777,2,0,P|490:201|479:250,1,100,10|2,0:0|3:2,0:0:0:0:
510,345,11405,1,10,0:0:0:0:
415,377,11719,2,0,P|386:368|347:357,1,50,2|8,3:2|0:0,0:0:0:0:
318,350,12033,1,10,0:0:0:0:
242,293,12347,1,10,2:3:0:0:
242,293,12505,1,6,2:3:0:0:
154,341,12819,6,0,P|106:352|58:365,1,100,4|0,3:2|3:2,0:0:0:0:
11,345,13290,1,10,0:0:0:0:
64,260,13604,2,0,P|78:223|55:162,1,100,2|8,3:2|0:0,0:0:0:0:
13,78,14232,1,10,0:0:0:0:
89,14,14546,1,10,2:3:0:0:
183,47,14861,2,0,P|177:73|171:105,1,50,2|2,3:2|3:2,0:0:0:0:
162,144,15175,2,0,B|228:187|177:220|242:267,1,150,10|2,0:0|3:2,0:0:0:0:
262,303,15803,6,0,P|304:289|350:282,1,89.9999972534181,10|10,0:0|0:0,0:0:0:0:
425,329,16431,1,10,0:0:0:0:
483,261,16745,2,0,P|494:230|465:173,1,89.9999972534181,10|10,0:0|0:0,0:0:0:0:
425,102,17374,2,0,P|447:93|480:81,2,44.999998626709,10|2|8,0:0|3:2|0:0,0:0:0:0:
382,115,17845,1,2,3:2:0:0:
323,55,18159,5,2,0:0:0:0:
323,55,18316,2,0,P|281:38|236:39,1,89.9999972534181,10|10,0:0|0:0,0:0:0:0:
153,7,18944,1,10,0:0:0:0:
115,88,19258,2,0,P|131:130|148:183,1,89.9999972534181,10|10,0:0|0:0,0:0:0:0:
216,227,19887,2,0,P|236:220|266:211,2,44.999998626709,10|2|10,0:0|3:2|0:0,0:0:0:0:
200,271,20358,1,0,3:2:0:0:
200,271,20515,1,8,0:0:0:0:
147,345,20829,6,0,P|107:360|66:343,1,89.9999972534181,10|10,0:0|0:0,0:0:0:0:
5,277,21457,1,10,0:0:0:0:
54,201,21772,2,0,P|40:158|23:116,1,89.9999972534181,10|10,0:0|0:0,0:0:0:0:
87,52,22400,2,0,P|90:28|95:-3,2,44.999998626709,10|2|10,0:0|3:2|0:0,0:0:0:0:
120,81,22871,1,2,3:2:0:0:
120,81,23028,5,8,0:0:0:0:
195,31,23342,1,10,0:0:0:0:
270,79,23656,1,8,0:0:0:0:
270,79,23813,2,0,P|292:82|314:86,1,44.999998626709,6|8,2:3|0:0,0:0:0:0:
358,97,24128,1,6,3:2:0:0:
358,97,25384,6,0,P|386:125|383:193,1,100,6|2,3:2|3:2,0:0:0:0:
365,227,25855,1,10,0:0:0:0:
273,187,26169,2,0,P|246:192|210:200,1,50,2|2,3:2|0:0,0:0:0:0:
175,209,26484,1,10,0:0:0:0:
84,166,26798,2,0,P|75:141|65:119,2,50,2|2|10,3:2|0:0|0:0,0:0:0:0:
25,245,27426,2,0,P|4:290|24:334,1,100,2|10,3:2|0:0,0:0:0:0:
60,368,27897,6,0,P|108:351|166:339,1,100,2|2,3:2|3:2,0:0:0:0:
187,301,28368,1,10,0:0:0:0:
281,335,28683,2,0,P|275:362|269:393,2,50,2|2|10,3:2|0:0|0:0,0:0:0:0:
354,267,29311,2,0,P|372:223|355:176,1,100,2|10,3:2|0:0,0:0:0:0:
317,142,29782,1,2,0:0:0:0:
317,142,29939,2,0,P|288:148|260:155,1,50,2|2,3:2|0:0,0:0:0:0:
219,165,30253,1,10,0:0:0:0:
141,101,30567,5,6,3:2:0:0:
206,24,30882,2,0,P|258:29|317:37,1,100,10|2,0:0|3:2,0:0:0:0:
399,3,31510,1,10,0:0:0:0:
453,86,31824,2,0,P|469:133|480:192,1,100,2|10,3:2|0:0,0:0:0:0:
507,223,32295,1,2,0:0:0:0:
507,222,32452,2,0,P|497:246|490:270,1,50,2|2,3:2|0:0,0:0:0:0:
476,318,32766,1,10,0:0:0:0:
386,272,33080,6,0,P|337:264|293:287,1,100,6|10,3:2|0:0,0:0:0:0:
213,348,33709,1,6,3:2:0:0:
136,283,34023,1,10,0:0:0:0:
191,199,34337,2,0,P|197:150|206:101,1,100,6|10,3:2|0:0,0:0:0:0:
144,21,34965,2,0,P|114:30|86:42,1,50,10|8,2:3|2:3,0:0:0:0:
47,43,35279,2,0,P|31:69|17:97,1,50,6|4,2:3|2:3,0:0:0:0:
33,130,35594,6,0,B|72:218|2:217|43:317,1,179.999994506836,6|2,3:2|3:2,0:0:0:0:
107,363,36536,1,0,3:2:0:0:
189,327,36850,2,0,P|233:333|277:343,1,89.9999972534181,2|0,3:2|3:2,0:0:0:0:
311,314,37321,2,0,P|352:294|402:307,1,89.9999972534181,2|0,0:0|0:0,0:0:0:0:
437,316,37793,1,2,3:2:0:0:
506,258,38107,6,0,P|498:190|490:118,2,134.999995880127,6|2|2,3:2|0:0|3:2,0:0:0:0:
437,316,39363,2,0,P|393:308|335:293,1,89.9999972534181,2|2,3:2|3:2,0:0:0:0:
288,233,39991,2,0,P|267:239|245:245,1,44.999998626709,2|10,3:2|0:0,0:0:0:0:
203,262,40306,1,2,3:2:0:0:
125,216,40620,6,0,P|100:179|104:135,1,89.9999972534181,6|2,3:2|3:2,0:0:0:0:
125,97,41091,1,2,0:0:0:0:
125,97,41248,2,0,P|169:106|213:113,1,89.9999972534181,0|2,3:2|3:2,0:0:0:0:
274,47,41876,2,0,P|318:37|362:30,1,89.9999972534181,0|2,3:2|3:2,0:0:0:0:
406,21,42347,1,2,0:0:0:0:
406,21,42505,2,0,P|443:35|462:82,1,89.9999972534181,0|2,3:2|3:2,0:0:0:0:
508,156,43133,6,0,P|485:248|467:336,1,179.999994506836,2|0,3:2|3:2,0:0:0:0:
392,380,44075,1,0,3:2:0:0:
324,320,44389,2,0,P|313:277|300:225,1,89.9999972534181,2|2,3:2|3:2,0:0:0:0:
350,156,45018,2,0,P|342:131|327:102,1,44.999998626709,10|4,2:3|2:3,0:0:0:0:
302,81,45332,2,0,P|277:72|246:65,1,44.999998626709,10|8,0:0|0:0,0:0:0:0:
209,75,45646,6,0,P|163:72|119:126,1,100,6|8,3:2|0:0,0:0:0:0:
29,135,46274,2,0,P|38:161|49:195,1,50,2|0,3:2|3:2,0:0:0:0:
50,231,46588,1,8,0:0:0:0:
7,322,46902,2,0,P|57:327|125:336,1,100,2|10,3:2|0:0,0:0:0:0:
192,281,47531,1,2,3:2:0:0:
267,346,47845,1,10,0:0:0:0:
352,293,48159,6,0,P|366:246|343:203,1,100,0|8,3:2|0:0,0:0:0:0:
300,177,48630,2,0,P|250:172|182:163,1,100,0|0,3:2|3:2,0:0:0:0:
151,159,49101,2,0,P|127:116|142:69,1,100,10|0,0:0|3:2,0:0:0:0:
218,4,49730,1,10,0:0:0:0:
293,68,50044,2,0,P|318:62|342:55,1,50,10|0,0:0|3:2,0:0:0:0:
379,22,50358,2,0,P|403:27|427:34,1,50,10|0,0:0|3:2,0:0:0:0:
458,73,50672,6,0,P|470:121|482:175,1,100,6|0,3:2|3:2,0:0:0:0:
494,223,51143,1,14,0:0:0:0:
494,223,51300,2,0,P|469:257|407:255,1,100,2|14,3:2|0:0,0:0:0:0:
334,201,51929,1,14,0:0:0:0:
248,252,52243,1,2,3:2:0:0:
250,350,52557,1,2,3:2:0:0:
153,381,52871,1,14,0:0:0:0:
76,316,53185,6,0,P|63:270|89:213,1,100,12|0,3:2|3:2,0:0:0:0:
118,190,53656,2,0,P|109:144|94:79,1,100,12|0,3:2|3:2,0:0:0:0:
87,48,54128,1,12,3:2:0:0:
87,48,54285,1,4,3:2:0:0:
500,20,55541,6,0,P|444:30|381:43,1,110.000003356934,6|0,3:2|0:0,0:0:0:0:
338,55,56012,1,10,3:2:0:0:
238,9,56326,1,2,3:2:0:0:
162,88,56640,1,10,0:0:0:0:
209,187,56954,2,0,P|265:197|328:210,1,110.000003356934,2|10,3:2|0:0,0:0:0:0:
369,219,57425,2,0,P|398:265|383:316,1,110.000003356934,2|0,0:0|0:0,0:0:0:0:
343,354,57896,1,8,0:0:0:0:
248,297,58211,6,0,P|221:302|194:309,1,55.0000016784668,2|2,3:2|0:0,0:0:0:0:
153,346,58525,2,0,P|125:342|98:341,1,55.0000016784668,10|2,0:0|0:0,0:0:0:0:
47,337,58839,1,2,3:2:0:0:
47,337,58996,2,0,P|22:289|39:237,1,110.000003356934,2|2,0:0|0:0,0:0:0:0:
76,197,59467,1,6,3:2:0:0:
4,113,59781,1,10,0:0:0:0:
71,25,60095,1,6,3:2:0:0:
174,62,60410,2,0,P|204:56|252:45,1,55.0000016784668,10|8,0:0|0:0,0:0:0:0:
280,34,60724,5,6,3:2:0:0:
359,110,61038,1,10,0:0:0:0:
461,69,61352,1,2,3:2:0:0:
511,166,61666,1,10,0:0:0:0:
439,249,61980,2,0,P|384:237|316:225,1,110.000003356934,2|8,3:2|0:0,0:0:0:0:
242,162,62608,2,0,P|208:171|170:177,1,55.0000016784668,2|2,3:2|0:0,0:0:0:0:
138,191,62923,1,10,0:0:0:0:
138,191,63080,5,14,0:0:0:0:
90,290,63394,1,14,0:0:0:0:
190,335,63708,2,0,P|216:340|243:347,1,55.0000016784668,10|8,0:0|0:0,0:0:0:0:
292,372,64022,2,0,P|318:365|345:361,1,55.0000016784668,10|8,0:0|0:0,0:0:0:0:
399,351,64336,1,6,3:2:0:0:
458,258,64650,1,6,3:2:0:0:
376,183,64965,1,6,3:2:0:0:
445,97,65279,1,6,3:2:0:0:
371,15,65593,6,0,P|318:4|274:36,1,110.000003356934,6|0,3:2|3:2,0:0:0:0:
227,63,66064,1,0,3:2:0:0:
285,156,66378,2,0,P|273:209|262:263,1,110.000003356934,2|2,3:2|3:2,0:0:0:0:
251,317,66849,1,2,0:0:0:0:
151,363,67163,2,0,P|99:354|83:292,1,110.000003356934,2|0,0:0|0:0,0:0:0:0:
89,250,67635,2,0,P|115:256|142:261,2,55.0000016784668,10|6|2,2:3|2:3|3:2,0:0:0:0:
58,204,68106,6,0,P|51:149|45:94,1,110.000003356934,14|2,0:0|3:2,0:0:0:0:
123,17,68734,1,2,3:2:0:0:
208,87,69048,1,2,3:2:0:0:
294,18,69362,2,0,P|346:25|416:35,1,110.000003356934,2|10,3:2|0:0,0:0:0:0:
456,45,69834,2,0,P|449:73|441:108,1,55.0000016784668,10|10,0:0|0:0,0:0:0:0:
429,151,70148,1,10,0:0:0:0:
504,231,70462,1,10,0:0:0:0:
414,295,70776,6,0,P|361:279|307:268,1,110.000003356934,12|2,0:0|3:2,0:0:0:0:
270,227,71247,2,0,P|234:197|157:216,1,110.000003356934,12|0,0:0|3:2,0:0:0:0:
128,230,71718,1,14,0:0:0:0:
128,230,71876,1,2,3:2:0:0:
35,181,72190,1,14,0:0:0:0:
35,181,72347,2,0,P|30:209|25:243,1,55.0000016784668,2|2,3:2|3:2,0:0:0:0:
17,289,72661,1,14,0:0:0:0:
92,368,72975,6,0,P|145:356|200:347,1,110.000003356934,14|0,0:0|3:2,0:0:0:0:
279,272,73603,1,10,3:2:0:0:
362,343,73917,1,10,0:0:0:0:
452,279,74232,1,10,0:0:0:0:
452,279,74389,2,0,P|472:230|446:170,1,110.000003356934,10|10,0:0|2:3,0:0:0:0:
491,75,75017,1,10,2:3:0:0:
491,75,75174,2,0,P|463:70|437:64,1,55.0000016784668,6|6,2:3|2:3,0:0:0:0:
399,24,75488,1,6,2:3:0:0:
399,24,75645,6,0,P|344:16|305:56,1,100,6|0,3:2|3:2,0:0:0:0:
287,85,76116,2,0,P|237:79|187:75,1,100,8|0,0:0|3:2,0:0:0:0:
101,23,76745,1,8,0:0:0:0:
44,105,77059,2,0,P|22:148|33:196,1,100,0|8,3:2|0:0,0:0:0:0:
24,296,77687,2,0,P|72:282|120:270,1,100,2|8,3:2|0:0,0:0:0:0:
152,231,78158,6,0,P|184:194|233:191,1,100,10|0,0:0|0:0,0:0:0:0:
280,209,78629,2,0,P|268:257|257:306,1,100,8|0,0:0|3:2,0:0:0:0:
331,374,79258,1,8,0:0:0:0:
418,325,79572,2,0,P|448:288|433:232,1,100,0|8,3:2|0:0,0:0:0:0:
371,165,80200,2,0,P|360:116|348:67,1,100,2|10,3:2|0:0,0:0:0:0:
329,21,80671,6,0,P|283:1|230:41,1,100,6|0,3:2|3:2,0:0:0:0:
209,61,81143,2,0,P|160:55|110:52,1,100,8|0,0:0|3:2,0:0:0:0:
35,118,81771,1,8,0:0:0:0:
98,195,82085,2,0,P|126:189|155:177,1,50,8|8,0:0|0:0,0:0:0:0:
185,150,82399,2,0,P|213:156|242:168,1,50,8|8,2:3|2:3,0:0:0:0:
282,187,82713,1,6,2:3:0:0:
282,187,82870,1,4,2:3:0:0:
376,130,83184,6,0,P|429:126|464:166,1,110.000003356934,6|0,3:2|3:2,0:0:0:0:
487,217,83656,1,10,0:0:0:0:
406,291,83970,2,0,P|352:303|299:319,1,110.000003356934,2|8,3:2|0:0,0:0:0:0:
197,280,84598,1,2,3:2:0:0:
124,362,84912,1,10,0:0:0:0:
37,292,85226,2,0,P|43:265|50:238,1,55.0000016784668,2|2,3:2|3:2,0:0:0:0:
86,197,85540,2,0,P|79:170|70:144,1,55.0000016784668,10|2,0:0|3:2,0:0:0:0:
50,92,85855,5,8,3:2:0:0:
135,22,86169,1,8,3:2:0:0:
211,101,86483,2,0,P|265:94|319:84,1,110.000003356934,8|8,3:2|3:2,0:0:0:0:
416,32,87111,1,8,0:0:0:0:
253,298,88211,5,12,0:0:0:0:
