osu file format v14

[General]
AudioFilename: audio.mp3
AudioLeadIn: 0
PreviewTime: 55462
Countdown: 0
SampleSet: Soft
StackLeniency: 0.3
Mode: 0
LetterboxInBreaks: 0
WidescreenStoryboard: 1

[Editor]
Bookmarks: 5281,15803,25384,35594,45646,55541,75645,83184,87111
DistanceSpacing: 1.5
BeatDivisor: 4
GridSize: 32
TimelineZoom: 2.4

[Metadata]
Title:ADAMAS (TV Size)
TitleUnicode:ADAMAS (TV Size)
Artist:LiSA
ArtistUnicode:LiSA
Creator:Xahlt
Version:HARD
Source:ソードアート・オンライン アリシゼーション
Tags:adinda sajinn wanpachi cycopton kuon- sao sword art online III 3 alicization season female vocal japanese jrock j-rock rock pop j-pop jpop opening op anime ost original soundtrack 草野華余子 kayoko kusano 赤い罠 Akai Wana (who loves it?)
BeatmapID:3084805
BeatmapSetID:1505910

[Difficulty]
HPDrainRate:4
CircleSize:3.3
OverallDifficulty:6
ApproachRate:7.5
SliderMultiplier:1.4
SliderTickRate:1

[Events]
//Background and Video events
0,0,"ALIIIIIIICE.jpg",0,0
Video,-7,"VD.mp4"
//Break Periods
//Storyboard Layer 0 (Background)
//Storyboard Layer 1 (Fail)
//Storyboard Layer 2 (Pass)
//Storyboard Layer 3 (Foreground)
//Storyboard Layer 4 (Overlay)
//Storyboard Sound Samples

[TimingPoints]
412,314.13612565445,4,2,1,40,1,0
412,-125,4,2,1,40,0,0
5281,314.13612565445,4,2,1,50,1,0
5281,-100,4,2,1,50,0,0
5437,314.13612565445,4,2,1,70,1,0
5438,-100,4,2,1,70,0,0
15332,-100,4,2,1,50,0,0
15803,-111.111111111111,4,2,1,50,0,0
25384,-99.9999999999999,4,2,1,60,0,0
35594,-111.111111111111,4,2,1,50,0,0
45646,-99.9999999999999,4,2,1,60,0,0
50672,-99.9999999999999,4,2,1,70,0,0
55541,314.13612565445,4,2,1,80,1,1
55541,-90.9090909090909,4,2,1,80,0,1
55698,314.13612565445,4,2,1,80,1,1
55698,-90.9090909090909,4,2,1,80,0,1
65593,-100,4,2,1,70,0,0
75645,-100,4,2,1,80,0,1
83184,-90.9090909090909,4,2,1,85,0,1
87111,-90.9090909090909,4,2,1,85,0,0
88211,-90.9090909090909,4,2,1,85,0,1
88368,-90.9090909090909,4,2,1,85,0,0

[Colours]
Combo1 : 0,119,190
Combo2 : 255,238,88

[HitObjects]
6,35,412,6,0,P|62:45|123:62,1,112,2|2,0:0|1:3,0:0:0:0:
175,118,883,1,2,0:0:0:0:
175,118,1354,6,0,P|189:170|155:212,1,112,2|2,1:2|0:0,0:0:0:0:
76,229,1825,1,2,0:0:0:0:
76,229,1982,2,0,P|85:259|92:291,1,56,2|0,1:2|0:0,0:0:0:0:
147,345,2296,1,2,0:0:0:0:
285,250,2610,1,2,1:2:0:0:
406,366,2925,6,0,P|415:310|426:255,1,112,2|2,0:0|1:2,0:0:0:0:
486,196,3396,1,2,0:0:0:0:
486,196,3867,6,0,P|501:138|466:98,1,112,2|2,1:2|0:0,0:0:0:0:
453,18,4338,2,0,P|424:31|398:40,1,56,2|0,0:0|1:2,0:0:0:0:
339,96,4652,1,2,1:2:0:0:
0,9,5281,6,0,P|64:34|123:72,1,140,6|0,3:2|0:0,0:0:0:0:
197,135,5751,2,0,P|166:150|134:166,1,70,10|0,0:0|0:0,0:0:0:0:
61,231,6065,2,0,P|92:246|124:262,1,70,2|0,3:2|0:0,0:0:0:0:
187,336,6379,2,0,P|156:351|124:367,1,70,10|0,0:0|0:0,0:0:0:0:
227,242,6693,6,0,P|263:249|305:281,1,70,2|0,3:2|0:0,0:0:0:0:
351,343,7007,2,0,P|387:336|429:304,1,70,10|0,0:0|0:0,0:0:0:0:
489,254,7321,1,2,3:2:0:0:
411,194,7478,2,0,P|401:160|406:126,1,70,0|8,0:0|0:0,0:0:0:0:
495,36,7793,6,0,B|419:40|441:91|340:86,1,140,2|0,3:2|3:2,0:0:0:0:
290,25,8264,1,10,0:0:0:0:
270,36,8578,2,0,L|203:59,1,70,2|0,3:2|0:0,0:0:0:0:
107,43,8892,2,0,P|118:76|127:110,1,70,10|0,0:0|0:0,0:0:0:0:
31,202,9206,6,0,P|63:197|112:225,1,70,2|0,3:2|0:0,0:0:0:0:
145,295,9520,2,0,P|177:299|226:271,1,70,10|0,0:0|0:0,0:0:0:0:
280,215,9834,1,10,0:0:0:0:
301,211,9913,1,8,0:0:0:0:
320,218,9991,2,0,P|328:203|336:188,3,35,10|8|8|8,0:0|0:0|0:0|0:0,0:0:0:0:
353,147,10306,6,0,P|420:138|465:188,1,140,6|0,3:2|3:2,0:0:0:0:
511,274,10777,2,0,P|476:284|432:301,1,70,10|0,0:0|0:0,0:0:0:0:
375,364,11091,2,0,P|340:354|296:337,1,70,2|0,3:2|0:0,0:0:0:0:
230,283,11405,2,0,P|195:293|151:310,1,70,10|0,0:0|0:0,0:0:0:0:
63,364,11719,5,2,3:2:0:0:
63,364,11876,1,8,0:0:0:0:
7,283,12033,2,0,P|7:250|42:200,1,70,10|0,0:0|0:0,0:0:0:0:
98,153,12347,1,10,2:3:0:0:
90,133,12426,1,8,2:3:0:0:
77,119,12505,2,0,P|68:96|59:73,3,35,6|4|4|4,2:3|2:3|2:3|2:3,0:0:0:0:
52,38,12819,6,0,P|121:44|190:58,1,140,4|0,3:2|3:2,0:0:0:0:
287,48,13290,2,0,P|276:81|267:115,1,70,10|0,0:0|0:0,0:0:0:0:
194,179,13604,2,0,P|204:212|213:246,1,70,2|0,3:2|0:0,0:0:0:0:
180,338,13918,1,8,0:0:0:0:
370,382,14232,6,0,P|379:348|389:314,1,70,10|0,0:0|0:0,0:0:0:0:
461,248,14546,2,0,P|451:214|441:180,1,70,10|0,2:3|0:0,0:0:0:0:
493,97,14861,1,2,3:2:0:0:
493,97,15018,1,2,3:2:0:0:
423,28,15175,1,10,0:0:0:0:
345,88,15332,2,0,B|275:104|274:50|207:69,1,140,6|2,3:2|3:2,0:0:0:0:
122,58,15803,6,0,P|130:88|137:119,1,62.9999980773926,10|2,0:0|0:0,0:0:0:0:
87,191,16117,1,10,0:0:0:0:
79,199,16431,1,10,0:0:0:0:
71,206,16745,2,0,P|40:190|7:171,2,62.9999980773926,10|2|10,0:0|0:0|0:0,0:0:0:0:
137,273,17217,1,2,3:2:0:0:
137,273,17374,2,0,P|166:261|196:252,1,62.9999980773926,10|2,0:0|3:2,0:0:0:0:
252,184,17688,1,8,0:0:0:0:
252,184,17845,1,2,3:2:0:0:
379,305,18159,6,0,P|370:343|364:380,2,62.9999980773926,2|10|0,0:0|0:0|0:0,0:0:0:0:
446,248,18630,2,0,P|446:219|432:186,1,62.9999980773926,10|2,0:0|0:0,0:0:0:0:
360,138,18944,2,0,P|365:107|373:76,1,62.9999980773926,10|2,0:0|0:0,0:0:0:0:
304,21,19258,1,10,0:0:0:0:
291,31,19573,6,0,P|264:48|233:55,1,62.9999980773926,10|2,0:0|3:2,0:0:0:0:
155,14,19887,2,0,P|121:23|80:36,1,62.9999980773926,10|2,0:0|3:2,0:0:0:0:
86,40,20122,1,2,3:2:0:0:
76,52,20201,2,0,P|64:86|81:125,1,62.9999980773926,8|0,0:0|3:2,0:0:0:0:
124,181,20515,1,8,0:0:0:0:
40,336,20829,6,0,P|67:330|124:324,1,62.9999980773926,10|2,0:0|0:0,0:0:0:0:
168,267,21143,2,0,P|195:272|252:279,1,62.9999980773926,10|2,0:0|0:0,0:0:0:0:
301,338,21457,1,10,0:0:0:0:
301,338,21615,1,2,0:0:0:0:
359,271,21772,6,0,P|373:243|372:212,1,62.9999980773926,10|2,0:0|0:0,0:0:0:0:
292,174,22086,2,0,P|288:140|281:89,1,62.9999980773926,10|2,0:0|3:2,0:0:0:0:
208,65,22400,2,0,P|179:85|134:96,2,62.9999980773926,10|2|10,0:0|3:2|0:0,0:0:0:0:
269,2,22871,1,2,3:2:0:0:
347,41,23028,1,8,0:0:0:0:
362,28,23342,6,0,P|396:37|444:51,1,62.9999980773926,10|2,0:0|3:2,0:0:0:0:
435,48,23578,1,2,3:2:0:0:
447,52,23656,1,8,0:0:0:0:
497,124,23813,2,0,P|463:133|415:147,1,62.9999980773926,6|8,2:3|0:0,0:0:0:0:
390,216,24128,1,6,3:2:0:0:
483,260,25384,6,0,B|412:276|451:332|342:349,1,140,6|2,3:2|3:2,0:0:0:0:
288,310,25855,1,10,0:0:0:0:
277,323,26169,2,0,P|243:310|188:292,1,70,2|2,3:2|0:0,0:0:0:0:
138,243,26484,2,0,P|104:255|49:273,1,70,10|2,0:0|0:0,0:0:0:0:
9,199,26798,5,2,3:2:0:0:
164,104,27112,2,0,P|199:113|234:122,1,70,10|2,0:0|0:0,0:0:0:0:
272,202,27426,2,0,P|307:193|342:184,1,70,2|2,3:2|0:0,0:0:0:0:
424,218,27740,1,10,0:0:0:0:
484,150,27897,6,0,P|487:80|428:44,1,140,2|2,3:2|3:2,0:0:0:0:
343,30,28368,1,10,0:0:0:0:
329,19,28683,2,0,P|293:27|237:42,1,70,2|2,3:2|0:0,0:0:0:0:
179,76,28997,2,0,P|143:68|87:53,1,70,10|2,0:0|0:0,0:0:0:0:
37,112,29311,5,2,3:2:0:0:
91,285,29625,2,0,P|97:250|104:216,1,70,10|2,0:0|0:0,0:0:0:0:
189,184,29939,2,0,P|201:216|213:249,1,70,2|2,3:2|0:0,0:0:0:0:
209,340,30253,1,10,0:0:0:0:
297,361,30410,6,0,B|353:342|353:342|377:353|377:353|434:334,1,140,2|2,3:2|0:0,0:0:0:0:
473,255,30882,2,0,P|437:255|391:232,1,70,10|2,0:0|0:0,0:0:0:0:
391,153,31196,2,0,P|355:153|309:176,1,70,2|2,3:2|0:0,0:0:0:0:
277,243,31510,2,0,P|241:243|195:220,1,70,10|2,0:0|0:0,0:0:0:0:
161,153,31824,6,0,P|163:118|169:83,1,70,2|2,3:2|0:0,0:0:0:0:
233,19,32138,2,0,P|266:28|319:34,1,70,10|2,0:0|0:0,0:0:0:0:
391,7,32452,1,2,3:2:0:0:
391,7,32609,1,2,0:0:0:0:
451,74,32766,1,10,0:0:0:0:
460,88,33080,6,0,P|453:125|444:183,1,70,6|0,3:2|0:0,0:0:0:0:
366,234,33395,2,0,P|361:199|345:168,1,70,10|0,0:0|0:0,0:0:0:0:
244,120,33709,2,0,P|227:155|228:215,1,70,6|0,3:2|0:0,0:0:0:0:
155,275,34023,1,10,0:0:0:0:
161,292,34337,6,0,P|192:300|251:318,1,70,6|0,3:2|0:0,0:0:0:0:
303,362,34651,2,0,P|334:354|393:336,1,70,10|0,0:0|0:0,0:0:0:0:
451,301,34965,2,0,P|442:281|426:256,3,35,10|8|8|8,2:3|2:3|2:3|2:3,0:0:0:0:
411,230,35279,2,0,P|416:206|429:164,3,35,6|4|4|4,2:3|2:3|2:3|2:3,0:0:0:0:
440,156,35594,6,0,B|381:119|416:100|350:61,1,125.999996154785,6|0,3:2|3:2,0:0:0:0:
203,4,36222,2,0,P|240:42|209:103,1,125.999996154785,2|0,3:2|3:2,0:0:0:0:
83,201,36850,2,0,P|149:210|219:230,1,125.999996154785,2|0,3:2|3:2,0:0:0:0:
291,305,37321,2,0,P|225:314|155:334,1,125.999996154785,2|0,0:0|0:0,0:0:0:0:
93,364,37793,2,0,P|60:354|34:329,1,62.9999980773926,2|8,3:2|0:0,0:0:0:0:
33,325,38028,1,8,0:0:0:0:
29,313,38107,6,0,B|26:206|95:243|84:131,2,188.999994232178,6|2|2,3:2|0:0|3:2,0:0:0:0:
197,363,39363,2,0,P|226:356|334:341,1,125.999996154785,2|2,3:2|3:2,0:0:0:0:
407,357,39834,1,8,0:0:0:0:
448,281,39991,1,2,3:2:0:0:
448,281,40149,1,10,0:0:0:0:
401,206,40306,2,0,P|395:168|390:131,1,62.9999980773926,2|8,3:2|2:3,0:0:0:0:
390,133,40541,1,8,2:3:0:0:
387,119,40620,6,0,P|332:88|270:90,1,125.999996154785,6|2,3:2|3:2,0:0:0:0:
174,60,41091,2,0,P|188:121|203:182,1,125.999996154785,2|0,0:0|0:0,0:0:0:0:
264,245,41562,5,2,3:2:0:0:
215,334,41719,2,0,P|164:307|92:324,1,125.999996154785,2|0,0:0|0:0,0:0:0:0:
26,269,42190,5,2,3:2:0:0:
85,187,42347,2,0,P|70:125|55:64,1,125.999996154785,2|0,0:0|0:0,0:0:0:0:
116,6,42819,5,2,3:2:0:0:
193,70,42976,1,8,0:0:0:0:
201,65,43054,1,8,0:0:0:0:
209,62,43133,6,0,B|261:54|286:9|286:9|386:2|429:90,1,251.999992309571,2|0,3:2|3:2,0:0:0:0:
499,228,44075,1,0,3:2:0:0:
375,354,44389,6,0,P|349:333|308:318,1,62.9999980773926,2|0,3:2|0:0,0:0:0:0:
295,223,44704,2,0,P|262:229|224:252,1,62.9999980773926,2|0,3:2|0:0,0:0:0:0:
152,186,45018,2,0,P|132:213|119:254,1,62.9999980773926,6|0,2:3|0:0,0:0:0:0:
28,279,45332,2,0,P|33:299|43:317,3,31.4999990386963,10|8|8|8,0:0|0:0|0:0|0:0,0:0:0:0:
73,341,45646,6,0,P|142:347|211:360,1,140,6|8,3:2|0:0,0:0:0:0:
295,309,46117,1,0,3:2:0:0:
386,372,46274,2,0,B|406:350|426:341|426:341|412:298|395:235,1,140,2|8,3:2|0:0,0:0:0:0:
330,186,46745,1,0,3:2:0:0:
336,172,46824,1,0,3:2:0:0:
341,158,46902,6,0,P|376:146|422:139,1,70,2|0,3:2|0:0,0:0:0:0:
470,63,47217,2,0,P|435:51|389:44,1,70,10|0,0:0|0:0,0:0:0:0:
314,1,47531,2,0,P|279:13|233:20,1,70,2|0,3:2|0:0,0:0:0:0:
180,91,47845,1,10,0:0:0:0:
105,27,48002,1,0,3:2:0:0:
93,31,48080,1,0,3:2:0:0:
81,36,48159,6,0,B|44:60|37:86|37:86|69:108|87:160,1,140,0|8,3:2|0:0,0:0:0:0:
32,227,48630,1,0,3:2:0:0:
115,278,48787,2,0,P|151:283|205:293,1,70,0|0,3:2|0:0,0:0:0:0:
267,225,49101,5,10,0:0:0:0:
343,153,49258,1,0,3:2:0:0:
372,151,49337,1,0,3:2:0:0:
396,159,49416,1,0,3:2:0:0:
470,233,49573,1,0,3:2:0:0:
447,335,49730,2,0,P|414:324|372:314,1,70,10|0,0:0|3:2,0:0:0:0:
265,368,50044,2,0,P|284:338|283:290,1,70,10|0,0:0|3:2,0:0:0:0:
182,259,50358,2,0,P|149:270|107:280,1,70,10|0,0:0|3:2,0:0:0:0:
103,272,50594,1,0,3:2:0:0:
92,264,50672,6,0,B|82:185|129:206|118:111,1,140,6|0,3:2|3:2,0:0:0:0:
74,40,51143,1,14,0:0:0:0:
74,40,51300,2,0,P|109:37|172:26,1,70,2|0,3:2|0:0,0:0:0:0:
227,95,51615,2,0,P|262:92|325:81,1,70,14|0,0:0|0:0,0:0:0:0:
413,22,51929,6,0,P|424:55|434:90,1,70,14|0,0:0|3:2,0:0:0:0:
501,159,52243,2,0,P|490:192|480:227,1,70,2|12,3:2|0:0,0:0:0:0:
496,322,52557,2,0,P|459:325|419:292,1,70,2|0,3:2|3:2,0:0:0:0:
355,256,52871,1,14,0:0:0:0:
355,256,53028,1,0,3:2:0:0:
262,325,53185,6,0,P|191:333|107:346,1,140,12|0,3:2|3:2,0:0:0:0:
16,378,53656,2,0,B|11:336|40:305|40:305|40:268|8:230,1,140,12|0,3:2|3:2,0:0:0:0:
96,164,54128,1,12,3:2:0:0:
18,65,54285,1,4,3:2:0:0:
30,45,55541,6,0,B|118:28|92:82|196:62,1,154.000004699707,6|0,3:2|0:0,0:0:0:0:
284,40,56012,2,0,P|263:72|262:112,1,77.0000023498536,10|0,3:2|0:0,0:0:0:0:
323,198,56326,2,0,P|285:205|248:216,1,77.0000023498536,2|0,3:2|0:0,0:0:0:0:
187,305,56640,2,0,P|224:312|261:323,1,77.0000023498536,10|0,0:0|0:0,0:0:0:0:
423,372,56954,6,0,P|383:332|428:237,1,154.000004699707,2|10,3:2|0:0,0:0:0:0:
502,167,57425,2,0,P|464:159|361:89,1,154.000004699707,2|0,0:0|0:0,0:0:0:0:
280,35,57896,1,8,0:0:0:0:
167,87,58054,6,0,P|156:49|144:13,2,77.0000023498536,2|2|2,0:0|3:2|0:0,0:0:0:0:
79,150,58525,2,0,P|57:179|56:223,1,77.0000023498536,10|2,0:0|0:0,0:0:0:0:
36,324,58839,1,2,3:2:0:0:
131,374,58996,2,0,P|180:374|209:261,1,154.000004699707,2|2,0:0|0:0,0:0:0:0:
164,200,59467,6,0,P|187:170|224:160,1,77.0000023498536,6|0,3:2|0:0,0:0:0:0:
222,44,59781,2,0,P|259:50|286:76,1,77.0000023498536,10|0,0:0|0:0,0:0:0:0:
391,12,60095,2,0,P|403:46|393:84,1,77.0000023498536,6|0,3:2|0:0,0:0:0:0:
509,147,60410,2,0,P|484:174|447:185,1,77.0000023498536,10|8,0:0|0:0,0:0:0:0:
437,179,60645,1,8,0:0:0:0:
428,171,60724,6,0,P|417:209|411:247,1,77.0000023498536,6|0,3:2|0:0,0:0:0:0:
447,347,61038,2,0,P|407:334|357:332,1,77.0000023498536,10|0,0:0|0:0,0:0:0:0:
290,261,61352,2,0,P|250:274|200:276,1,77.0000023498536,2|0,3:2|0:0,0:0:0:0:
140,353,61666,2,0,P|100:340|50:338,1,77.0000023498536,10|0,0:0|0:0,0:0:0:0:
7,218,61980,6,0,P|78:202|92:131,1,154.000004699707,2|8,3:2|0:0,0:0:0:0:
22,47,62451,1,0,0:0:0:0:
124,14,62608,2,0,P|162:20|213:32,1,77.0000023498536,2|2,3:2|0:0,0:0:0:0:
296,0,62923,1,10,0:0:0:0:
375,92,63080,6,0,P|379:130|360:163,1,77.0000023498536,14|0,0:0|0:0,0:0:0:0:
414,256,63394,2,0,P|383:278|345:277,1,77.0000023498536,14|0,0:0|0:0,0:0:0:0:
252,333,63708,2,0,P|242:312|241:279,3,38.5000011749268,10|8|8|8,0:0|0:0|0:0|0:0,0:0:0:0:
247,265,64022,2,0,P|255:246|256:224,3,38.5000011749268,10|8|8|8,0:0|0:0|0:0|0:0,0:0:0:0:
249,205,64336,1,6,3:2:0:0:
395,46,64650,5,6,3:2:0:0:
381,46,64965,1,6,3:2:0:0:
365,41,65279,1,6,3:2:0:0:
354,31,65593,6,0,B|285:32|303:87|218:78,1,140,6|0,3:2|3:2,0:0:0:0:
140,33,66064,1,0,3:2:0:0:
4,174,66378,2,0,P|25:202|31:237,1,70,2|0,3:2|0:0,0:0:0:0:
15,336,66692,1,2,3:2:0:0:
15,336,66849,6,0,P|50:330|105:320,1,70,2|0,0:0|3:2,0:0:0:0:
135,240,67163,2,0,P|199:267|268:278,1,140,2|0,0:0|0:0,0:0:0:0:
350,218,67635,2,0,P|343:182|331:135,2,70,10|6|2,2:3|2:3|3:2,0:0:0:0:
432,313,68106,6,0,P|396:321|361:339,1,70,14|0,0:0|0:0,0:0:0:0:
280,382,68420,2,0,P|244:374|209:356,1,70,2|0,3:2|0:0,0:0:0:0:
117,371,68734,2,0,P|122:337|128:302,1,70,2|0,3:2|0:0,0:0:0:0:
57,235,69048,2,0,P|51:200|45:165,1,70,2|0,3:2|0:0,0:0:0:0:
77,73,69362,6,0,B|121:69|154:31|154:31|186:44|213:77,1,140,2|2,3:2|0:0,0:0:0:0:
230,150,69834,2,0,P|261:133|292:118,1,70,10|2,0:0|0:0,0:0:0:0:
351,40,70148,2,0,P|368:50|403:62,3,35,10|8|8|8,0:0|0:0|0:0|0:0,0:0:0:0:
431,50,70462,2,0,P|448:40|483:28,3,35,10|8|4|4,0:0|2:3|2:3|2:3,0:0:0:0:
507,52,70776,6,0,P|519:83|465:174,1,140,12|2,0:0|3:2,0:0:0:0:
409,254,71247,2,0,P|443:258|476:269,2,70,12|0|0,0:0|3:2|3:2,0:0:0:0:
336,177,71718,2,0,P|302:188|268:192,2,70,12|0|0,0:0|3:2|3:2,0:0:0:0:
313,73,72190,5,14,0:0:0:0:
223,17,72347,2,0,P|185:25|136:42,1,70,2|2,3:2|3:2,0:0:0:0:
50,28,72661,2,0,P|68:59|77:92,1,70,14|2,0:0|3:2,0:0:0:0:
14,176,72975,2,0,P|1:208|-1:243,1,70,14|0,0:0|3:2,0:0:0:0:
22,345,73289,6,0,P|39:332|73:318,3,35,0|0|0|0,3:2|3:2|3:2|3:2,0:0:0:0:
85,290,73603,2,0,P|120:288|179:309,1,70,10|0,3:2|3:2,0:0:0:0:
238,357,73917,2,0,P|272:351|325:318,1,70,10|0,0:0|0:0,0:0:0:0:
366,250,74232,1,10,0:0:0:0:
274,187,74389,6,0,P|278:152|287:93,1,70,10|0,0:0|0:0,0:0:0:0:
243,12,74703,2,0,P|306:39|376:40,1,140,10|10,2:3|2:3,0:0:0:0:
473,14,75174,1,6,2:3:0:0:
473,14,75331,1,6,2:3:0:0:
507,105,75488,1,6,2:3:0:0:
428,184,75645,6,0,B|426:265|475:237|472:344,1,140,6|0,3:2|3:2,0:0:0:0:
394,374,76116,2,0,P|365:353|331:347,1,70,8|0,0:0|0:0,0:0:0:0:
260,279,76430,2,0,P|231:299|197:305,1,70,0|0,3:2|0:0,0:0:0:0:
125,373,76745,1,8,0:0:0:0:
109,360,77059,6,0,P|98:322|81:273,1,70,0|0,3:2|0:0,0:0:0:0:
9,234,77373,2,0,P|20:196|37:147,1,70,8|0,0:0|0:0,0:0:0:0:
94,93,77687,2,0,P|60:78|34:45,2,70,2|0|8,3:2|3:2|0:0,0:0:0:0:
204,32,78158,6,0,B|246:27|275:-1|275:-1|316:13|346:58,1,140,10|0,0:0|0:0,0:0:0:0:
408,83,78629,2,0,P|379:103|343:130,1,70,8|0,0:0|0:0,0:0:0:0:
268,177,78944,2,0,P|297:197|333:224,1,70,0|0,3:2|0:0,0:0:0:0:
376,300,79258,1,8,0:0:0:0:
388,312,79572,6,0,P|423:310|454:293,1,70,0|0,3:2|0:0,0:0:0:0:
509,212,79886,2,0,P|500:178|492:144,1,70,8|0,0:0|0:0,0:0:0:0:
507,46,80200,2,0,P|437:41|370:20,1,140,2|10,3:2|0:0,0:0:0:0:
267,93,80671,6,0,P|197:98|130:119,1,140,6|0,3:2|3:2,0:0:0:0:
31,121,81143,2,0,P|44:154|53:188,1,70,8|0,0:0|0:0,0:0:0:0:
148,213,81457,2,0,P|135:245|126:279,1,70,0|0,3:2|0:0,0:0:0:0:
69,359,81771,2,0,P|104:361|137:372,1,70,8|0,0:0|0:0,0:0:0:0:
226,331,82085,6,0,P|245:328|271:313,3,35,8|8|8|8,0:0|0:0|0:0|0:0,0:0:0:0:
297,290,82399,2,0,P|316:293|342:308,3,35,8|8|8|8,2:3|2:3|2:3|2:3,0:0:0:0:
369,329,82713,2,0,P|386:326|402:319,3,35,6|4|4|4,2:3|2:3|2:3|2:3,0:0:0:0:
442,291,83027,1,4,2:3:0:0:
458,146,83184,6,0,B|421:137|401:113|401:113|341:109|306:167,1,154.000004699707,6|0,3:2|3:2,0:0:0:0:
236,208,83656,2,0,P|203:192|155:180,1,77.0000023498536,10|0,0:0|0:0,0:0:0:0:
57,192,83970,2,0,P|71:158|80:109,1,77.0000023498536,2|0,3:2|0:0,0:0:0:0:
27,24,84284,1,8,0:0:0:0:
47,12,84598,6,0,P|86:15|121:30,1,77.0000023498536,2|0,3:2|0:0,0:0:0:0:
219,75,84912,2,0,P|257:71|292:56,1,77.0000023498536,10|0,0:0|0:0,0:0:0:0:
394,90,85226,2,0,P|400:51|409:1,2,77.0000023498536,2|2|10,3:2|3:2|0:0,0:0:0:0:
476,159,85697,1,2,3:2:0:0:
353,225,85855,6,0,P|335:214|292:204,3,38.5000011749268,8|0|0|0,3:2|3:2|3:2|3:2,0:0:0:0:
271,235,86169,2,0,P|254:245|236:252,3,38.5000011749268,8|0|0|0,3:2|3:2|3:2|3:2,0:0:0:0:
193,219,86483,2,0,P|176:208|158:201,3,38.5000011749268,8|0|0|0,3:2|3:2|3:2|3:2,0:0:0:0:
114,232,86797,2,0,P|97:242|79:249,3,38.5000011749268,8|0|0|0,3:2|3:2|3:2|3:2,0:0:0:0:
23,263,87111,5,8,0:0:0:0:
318,351,88211,5,12,0:0:0:0:
