osu file format v14

[General]
AudioFilename: audio.mp3
AudioLeadIn: 0
PreviewTime: 55462
Countdown: 0
SampleSet: Soft
StackLeniency: 0.6
Mode: 0
LetterboxInBreaks: 0
WidescreenStoryboard: 1

[Editor]
DistanceSpacing: 0.4
BeatDivisor: 4
GridSize: 32
TimelineZoom: 2.4

[Metadata]
Title:ADAMAS (TV Size)
TitleUnicode:ADAMAS (TV Size)
Artist:LiSA
ArtistUnicode:LiSA
Creator:Xahlt
Version:ADINDA'S INSANE
Source:ソードアート・オンライン アリシゼーション
Tags:adinda sajinn wanpachi cycopton kuon- sao sword art online III 3 alicization season female vocal japanese jrock j-rock rock pop j-pop jpop opening op anime ost original soundtrack 草野華余子 kayoko kusano 赤い罠 Akai Wana (who loves it?)
BeatmapID:3086110
BeatmapSetID:1505910

[Difficulty]
HPDrainRate:5
CircleSize:4.3
OverallDifficulty:8
ApproachRate:9
SliderMultiplier:1.6
SliderTickRate:1

[Events]
//Background and Video events
0,0,"ALIIIIIIICE.jpg",0,0
Video,-7,"VD.mp4"
//Break Periods
//Storyboard Layer 0 (Background)
//Storyboard Layer 1 (Fail)
//Storyboard Layer 2 (Pass)
//Storyboard Layer 3 (Foreground)
//Storyboard Layer 4 (Overlay)
//Storyboard Sound Samples

[TimingPoints]
412,314.13612565445,4,2,44,55,1,0
412,-133.333333333333,4,2,44,35,0,0
5281,314.13612565445,4,2,44,85,1,0
5281,-90.9090909090909,4,2,44,85,0,0
5437,314.13612565445,4,2,44,85,1,0
5438,-90.9090909090909,4,2,44,85,0,0
15175,-71.4285714285714,4,2,44,85,0,0
15646,-133.333333333333,4,2,44,75,0,0
23971,-76.9230769230769,4,2,44,75,0,0
25227,-76.9230769230769,4,2,44,60,0,0
25384,-111.111111111111,4,2,44,80,0,0
35594,-133.333333333333,4,2,44,70,0,0
45646,-111.111111111111,4,2,44,80,0,0
54128,-76.9230769230769,4,2,44,80,0,0
54599,-133.333333333333,4,2,44,60,0,0
55463,-133.333333333333,4,2,44,5,0,0
55541,314.13612565445,4,2,44,90,1,1
55541,-71.4285714285714,4,2,44,90,0,1
55698,314.13612565445,4,2,44,90,1,1
56012,-90.9090909090909,4,2,44,90,0,1
64179,-90.9090909090909,4,2,44,90,0,0
64336,-71.4285714285714,4,2,44,90,0,1
64415,-71.4285714285714,4,2,44,5,0,0
64650,-71.4285714285714,4,2,44,90,0,1
64729,-71.4285714285714,4,2,44,5,0,0
64965,-71.4285714285714,4,2,44,90,0,1
65043,-71.4285714285714,4,2,44,5,0,0
65279,-71.4285714285714,4,2,44,90,0,1
65357,-71.4285714285714,4,2,44,5,0,0
65514,-100,4,2,44,85,0,0
70776,-90.9090909090909,4,2,44,90,0,1
71090,-90.9090909090909,4,2,44,90,0,0
71247,-90.9090909090909,4,2,44,90,0,1
71561,-90.9090909090909,4,2,44,90,0,0
71718,-90.9090909090909,4,2,44,90,0,1
72033,-90.9090909090909,4,2,44,90,0,0
72190,-90.9090909090909,4,2,44,90,0,1
72504,-90.9090909090909,4,2,44,90,0,0
72661,-90.9090909090909,4,2,44,90,0,1
72818,-90.9090909090909,4,2,44,90,0,0
72975,-90.9090909090909,4,2,44,90,0,1
73132,-90.9090909090909,4,2,44,90,0,0
73289,-90.9090909090909,4,2,44,90,0,0
75645,-90.9090909090909,4,2,44,90,0,1
82085,-90.9090909090909,4,2,44,90,0,0
83106,-90.9090909090909,4,2,44,5,0,0
83184,-90.9090909090909,4,2,44,90,0,1
87111,-90.9090909090909,4,2,44,90,0,0
87425,-90.9090909090909,4,2,44,45,0,0
88211,-45.4545454545455,4,2,44,90,0,1
88289,-45.4545454545455,4,2,44,5,0,0

[Colours]
Combo1 : 0,119,190
Combo2 : 255,238,88

[HitObjects]
24,338,412,6,0,L|18:270,1,60.0000022888184,2|0,0:0|0:0,0:0:0:0:
140,324,726,2,0,L|146:256,1,60.0000022888184,0|0,3:0|0:0,0:0:0:0:
18,278,1040,2,0,L|12:210,1,60.0000022888184
145,264,1354,2,0,L|151:196,1,60.0000022888184,0|0,3:0|0:0,0:0:0:0:
12,218,1668,2,0,L|6:150,1,60.0000022888184
150,204,1982,2,0,L|156:136,1,60.0000022888184,0|0,3:0|0:0,0:0:0:0:
196,27,2296,6,0,P|226:27|251:11,1,60.0000022888184,2|0,0:0|0:0,0:0:0:0:
209,160,2610,2,0,P|189:145|152:145,1,60.0000022888184,0|0,3:0|0:0,0:0:0:0:
379,98,2925,6,0,L|447:65,1,60.0000022888184,2|0,0:0|0:0,0:0:0:0:
393,198,3239,2,0,L|339:224,1,60.0000022888184,0|0,3:0|0:0,0:0:0:0:
386,70,3553,2,0,L|454:37,1,60.0000022888184
400,170,3867,2,0,L|346:196,1,60.0000022888184,0|0,3:0|0:0,0:0:0:0:
226,308,4181,6,0,L|265:327,3,30.0000011444092,2|0|0|0,3:0|3:0|3:0|3:0,3:0:0:0:
211,276,4495,5,2,3:0:0:0:
113,381,4652,1,2,0:0:0:0:
45,315,4809,1,2,0:0:0:0:
150,52,5281,6,0,B|97:39|97:39|51:98|93:161,1,176.000005371094,14|0,0:1|0:0,0:0:0:0:
339,57,5751,6,0,L|248:18,1,88.000002685547,10|0,0:0|0:0,0:0:0:0:
400,123,6065,2,0,L|363:31,1,88.000002685547,10|0,0:1|0:0,0:0:0:0:
346,234,6379,6,0,L|378:315,1,88.000002685547,10|0,0:0|0:0,0:0:0:0:
512,293,6693,2,0,L|479:374,1,88.000002685547,10|0,0:1|0:0,0:0:0:0:
345,300,7007,2,0,L|313:219,1,88.000002685547,10|0,0:0|0:0,0:0:0:0:
246,337,7321,5,10,0:1:0:0:
132,200,7478,2,0,L|164:118,1,88.000002685547,2|8,0:0|0:0,0:0:0:0:
345,18,7793,6,0,B|378:90|476:66|476:66|452:32,1,176.000005371094,2|0,0:0|0:0,0:0:0:0:
364,184,8264,6,0,L|451:157,1,88.000002685547,10|0,0:0|0:0,0:0:0:0:
396,349,8578,2,0,L|438:268,1,88.000002685547,10|0,0:1|0:0,0:0:0:0:
329,174,8892,2,0,L|416:147,1,88.000002685547,10|0,0:0|0:0,0:0:0:0:
205,28,9206,6,0,L|118:1,1,88.000002685547,10|0,0:1|0:0,0:0:0:0:
87,128,9520,2,0,L|0:155,1,88.000002685547,10|0,0:0|0:0,0:0:0:0:
39,315,9834,5,10,0:0:0:0:
39,315,9913,1,8,0:0:0:0:
39,315,9991,2,8,P|39:336|57:354,1,44.0000013427735,10|8,0:0|0:0,0:0:0:0:
135,324,10149,2,8,P|135:303|153:285,1,44.0000013427735
232,315,10306,6,0,B|292:282|358:312|358:312|399:284,1,176.000005371094,14|0,0:1|0:0,0:0:0:0:
511,139,10777,6,0,L|491:240,1,88.000002685547,10|0,0:0|0:0,0:0:0:0:
497,65,11091,2,0,L|477:166,1,88.000002685547,10|0,0:1|0:0,0:0:0:0:
278,84,11405,6,0,L|375:50,1,88.000002685547,10|0,0:0|0:0,0:0:0:0:
361,55,11719,1,10,0:1:0:0:
85,31,11876,2,0,L|182:-3,1,88.000002685547,8|10,0:0|0:0,0:0:0:0:
180,20,12112,1,8,0:0:0:0:
180,20,12190,6,8,P|168:45|169:78,1,44.0000013427735
111,134,12347,2,8,P|123:158|122:191,1,44.0000013427735,10|8,0:0|0:0,0:0:0:0:
227,203,12505,2,8,P|214:227|215:260,3,44.0000013427735,10|8|8|8,0:3|0:3|0:3|0:3,0:3:0:0:
157,316,12819,6,0,B|120:321|102:348|102:348|30:346|20:284,1,176.000005371094,14|0,0:1|0:0,0:0:0:0:
281,311,13290,2,0,P|279:354|315:382,1,88.000002685547,10|0,0:0|0:0,0:0:0:0:
414,244,13604,2,0,B|377:216|326:225|326:225|338:173|381:160,1,176.000005371094,10|8,0:1|0:0,0:0:0:0:
374,162,14075,1,0,0:0:0:0:
115,86,14232,6,8,L|102:41,3,44.0000013427735,10|8|8|8,0:0|0:0|0:0|0:0,0:0:0:0:
197,43,14546,2,8,L|210:-2,3,44.0000013427735,10|8|8|8,0:3|0:3|0:3|0:3,0:3:0:0:
280,76,14861,2,8,L|267:121,1,44.0000013427735,10|8,0:1|0:1,0:1:0:0:
362,119,15018,2,8,L|375:164,1,44.0000013427735,10|8,0:1|0:1,0:1:0:0:
436,78,15175,6,0,B|415:32|463:-2|463:-2|468:27,1,111.999996582031,10|14,0:0|0:1,0:0:0:0:
95,192,15646,1,10,0:1:0:0:
95,192,15803,2,0,L|75:133,1,60.0000022888184,8|0,0:0|0:0,0:0:0:0:
8,217,16117,2,0,L|27:273,1,60.0000022888184,10|0,0:0|0:0,0:0:0:0:
144,291,16431,2,0,L|124:347,1,60.0000022888184,10|0,0:0|0:0,0:0:0:0:
294,281,16745,6,0,P|261:275|245:251,1,60.0000022888184,10|0,0:0|0:0,0:0:0:0:
287,170,17060,2,8,P|305:147|334:143,1,60.0000022888184,10|8,0:0|0:1,0:0:0:0:
349,276,17374,2,0,P|316:270|300:246,1,60.0000022888184,10|8,0:0|0:1,0:0:0:0:
342,165,17688,1,10,0:0:0:0:
342,165,17845,2,0,P|360:142|389:138,1,60.0000022888184,10|8,0:1|0:0,0:0:0:0:
462,80,18159,5,2,0:0:0:0:
460,197,18316,2,0,L|472:260,1,60.0000022888184,10|0,0:0|0:0,0:0:0:0:
337,334,18630,2,0,L|348:275,2,60.0000022888184,10|0|8,0:0|0:0|0:0,0:0:0:0:
337,334,19101,1,2,0:0:0:0:
196,288,19258,6,8,L|168:144,1,120.000004577637,10|10,0:0|0:0,0:0:0:0:
105,75,19730,2,0,P|91:93|49:104,1,60.0000022888184,10|8,0:1|0:0,0:0:0:0:
173,170,20044,1,10,0:1:0:0:
173,170,20122,1,8,0:1:0:0:
173,170,20201,2,0,P|201:177|221:199,1,60.0000022888184,10|8,0:0|0:1,0:0:0:0:
214,68,20515,1,10,0:0:0:0:
474,75,20829,6,0,L|462:14,1,60.0000022888184,10|0,0:0|0:0,0:0:0:0:
386,141,21143,2,0,L|374:80,1,60.0000022888184,10|0,0:0|0:0,0:0:0:0:
502,115,21457,2,0,L|490:54,1,60.0000022888184,10|0,0:0|0:0,0:0:0:0:
414,181,21771,2,0,L|402:120,2,60.0000022888184,10|0|8,0:0|0:0|0:0,0:0:0:0:
414,181,22243,1,10,0:1:0:0:
481,290,22400,6,0,P|489:254|508:225,1,60.0000022888184,10|8,0:0|0:1,0:0:0:0:
394,236,22714,2,0,P|402:200|421:171,1,60.0000022888184,10|8,0:0|0:1,0:0:0:0:
454,321,23028,2,0,P|462:285|481:256,1,60.0000022888184,10|0,0:0|0:0,0:0:0:0:
292,187,23342,6,0,L|234:203,1,60.0000022888184,10|8,0:0|0:1,0:0:0:0:
220,191,23578,1,8,0:1:0:0:
220,191,23656,1,10,0:0:0:0:
114,66,23813,1,8,0:1:0:0:
114,66,23892,1,8,0:1:0:0:
114,66,23971,2,8,L|247:102,1,103.999995239258,10|10,2:0|2:1,2:1:0:0:
256,192,24206,12,2,25227,0:0:0:0:
91,219,25384,6,0,P|48:225|21:316,1,143.999995605469,14|10,0:1|0:1,0:0:0:0:
38,116,25855,2,0,B|14:52|85:13|85:13|97:50,1,143.999995605469,10|10,0:0|0:1,0:0:0:0:
91,31,26327,1,2,0:0:0:0:
207,89,26484,2,0,L|197:10,1,71.9999978027344,10|0,0:0|0:0,0:0:0:0:
362,32,26798,5,10,0:1:0:0:
362,32,26955,1,2,0:0:0:0:
330,104,27112,1,10,0:0:0:0:
330,104,27269,1,2,0:0:0:0:
438,172,27426,6,0,L|448:93,1,71.9999978027344,10|0,0:1|0:0,0:0:0:0:
447,100,27740,1,10,0:0:0:0:
462,249,27897,2,0,L|472:170,1,71.9999978027344,2|8,0:0|0:1,0:0:0:0:
471,177,28211,1,2,0:0:0:0:
347,243,28368,6,0,B|329:187|250:189|250:189|254:220,1,143.999995605469,10|10,0:0|0:1,0:0:0:0:
254,213,28840,1,2,0:0:0:0:
281,84,28997,2,0,P|277:52|255:17,1,71.9999978027344,10|0,0:0|0:0,0:0:0:0:
123,86,29311,6,0,P|119:118|97:153,1,71.9999978027344,10|0,0:1|0:0,0:0:0:0:
122,15,29625,2,0,P|118:47|96:82,1,71.9999978027344,10|0,0:0|0:0,0:0:0:0:
20,286,29939,5,10,0:1:0:0:
108,228,30096,1,2,0:0:0:0:
21,204,30253,1,10,0:0:0:0:
107,313,30410,1,2,0:0:0:0:
0,202,30567,6,0,P|4:170|26:135,1,71.9999978027344,12|2,0:1|0:0,0:0:0:0:
199,7,30882,2,0,L|211:95,1,71.9999978027344,10|0,0:0|0:0,0:0:0:0:
315,47,31196,2,0,L|303:135,1,71.9999978027344,10|0,0:1|0:0,0:0:0:0:
189,84,31510,2,0,L|201:172,1,71.9999978027344,10|0,0:0|0:0,0:0:0:0:
385,283,31824,5,10,0:1:0:0:
385,283,31981,1,2,0:0:0:0:
283,257,32138,1,10,0:0:0:0:
283,257,32295,1,2,0:0:0:0:
359,201,32452,5,10,0:1:0:0:
307,338,32609,1,2,0:0:0:0:
385,283,32766,1,10,0:0:0:0:
426,33,33080,6,0,P|385:24|349:4,1,71.9999978027344,14|0,0:1|0:0,0:0:0:0:
486,79,33395,2,0,P|445:70|409:50,1,71.9999978027344,10|0,0:0|0:0,0:0:0:0:
251,114,33709,6,0,P|292:105|328:85,1,71.9999978027344,14|0,0:1|0:0,0:0:0:0:
191,160,34024,2,0,P|232:151|268:131,1,71.9999978027344,10|0,0:0|0:0,0:0:0:0:
155,11,34337,5,14,0:1:0:0:
87,105,34494,2,8,L|66:57,1,35.9999989013672,8|8,0:3|0:3,0:3:0:0:
14,142,34651,2,8,L|0:174,1,35.9999989013672,10|8,0:3|0:3,0:3:0:0:
70,223,34808,1,8,0:3:0:0:
230,332,34965,6,4,P|232:310|242:296,3,35.9999989013672,6|4|4|4,0:3|0:3|0:3|0:3,0:3:0:0:
334,362,35279,2,4,P|332:340|322:326,3,35.9999989013672,6|4|4|4,0:3|0:3|0:3|0:3,0:3:0:0:
418,328,35594,6,8,L|443:203,1,120.000004577637,14|8,0:1|0:1,0:1:0:0:
317,120,36222,2,8,L|293:2,1,120.000004577637,10|8,0:1|0:1,0:1:0:0:
120,70,36850,6,8,P|112:113|38:126,1,120.000004577637,10|8,0:1|0:1,0:1:0:0:
41,104,37321,2,0,P|97:97|115:43,1,120.000004577637,2|0,0:0|0:0,0:0:0:0:
185,163,37793,2,8,P|180:191|197:217,1,60.0000022888184,10|8,0:1|0:0,0:1:0:0:
229,225,38028,1,8,0:0:0:0:
229,225,38107,6,0,L|293:208,1,60.0000022888184,14|0,0:1|0:0,0:0:0:0:
282,286,38421,2,0,L|346:302,1,60.0000022888184,10|0,0:1|0:0,0:0:0:0:
317,120,38735,2,8,L|437:89,1,120.000004577637,10|8,0:1|0:1,0:1:0:0:
433,90,39206,1,2,0:0:0:0:
289,107,39363,2,8,L|409:76,1,120.000004577637,10|8,0:1|0:1,0:1:0:0:
512,198,39834,6,0,P|504:235|503:269,1,60.0000022888184,14|8,0:0|0:1,0:0:0:0:
427,311,40149,2,0,P|424:281|417:251,1,60.0000022888184,14|8,0:0|0:1,0:0:0:0:
248,199,40463,5,10,0:3:0:0:
248,199,40541,1,8,0:3:0:0:
248,199,40620,2,8,B|254:253|195:267|195:267|169:247,1,120.000004577637,12|10,0:1|0:1,0:1:0:0:
172,160,41091,2,0,B|178:106|119:92|119:92|93:112,1,120.000004577637,2|0,0:0|0:0,0:0:0:0:
35,233,41562,5,10,0:1:0:0:
35,233,41719,2,0,P|48:270|59:364,1,120.000004577637,2|0,0:0|0:0,0:0:0:0:
153,370,42190,1,10,0:1:0:0:
153,370,42347,2,0,P|159:310|177:253,1,120.000004577637,2|0,0:0|0:0,0:0:0:0:
276,134,42819,6,0,L|260:72,1,60.0000022888184,10|8,0:1|0:0,0:0:0:0:
278,60,43054,1,8,0:0:0:0:
278,60,43133,2,8,B|364:71|311:90|407:103,3,120.000004577637,14|8|8|8,0:1|0:1|0:1|0:1,0:1:0:0:
389,100,44232,1,2,0:0:0:0:
483,78,44389,5,10,0:1:0:0:
393,107,44546,1,8,0:0:0:0:
377,223,44704,1,10,0:1:0:0:
428,293,44861,5,8,0:3:0:0:
316,358,45018,1,10,0:3:0:0:
444,267,45175,5,8,0:3:0:0:
332,332,45332,2,8,L|300:323,1,30.0000011444092
259,263,45489,2,8,L|227:272,1,30.0000011444092
164,221,45646,6,0,B|166:124|140:171|148:70,1,143.999995605469,14|8,0:1|0:0,0:0:0:0:
314,43,46117,1,8,0:1:0:0:
314,43,46196,1,8,0:1:0:0:
314,43,46274,2,8,P|311:89|226:103,1,143.999995605469,10|8,0:1|0:0,0:1:0:0:
357,178,46745,5,10,0:1:0:0:
357,178,46824,1,8,0:1:0:0:
357,178,46902,2,8,L|439:148,1,71.9999978027344,10|8,0:1|0:1,0:1:0:0:
443,249,47217,2,8,L|525:219,1,71.9999978027344,10|8,0:0|0:1,0:1:0:0:
419,136,47531,2,8,L|501:106,1,71.9999978027344,10|8,0:1|0:1,0:1:0:0:
486,111,47845,1,10,0:0:0:0:
296,246,48002,5,8,0:1:0:0:
296,246,48080,1,8,0:1:0:0:
296,246,48159,2,8,P|293:289|276:322,1,71.9999978027344,8|8,0:1|0:1,0:1:0:0:
172,311,48473,2,8,P|175:354|192:387,1,71.9999978027344,8|8,0:0|0:1,0:1:0:0:
271,287,48787,2,8,P|284:253|285:218,1,71.9999978027344,8|8,0:1|0:1,0:1:0:0:
148,28,49101,6,8,L|162:109,1,71.9999978027344,10|8,0:0|0:1,0:1:0:0:
137,113,49337,1,8,0:1:0:0:
137,113,49416,2,8,L|124:183,1,71.9999978027344,10|8,0:1|0:1,0:1:0:0:
23,169,49730,6,8,L|35:239,1,71.9999978027344,10|8,0:0|0:1,0:1:0:0:
160,382,50044,2,8,L|172:311,1,71.9999978027344,10|8,0:0|0:1,0:1:0:0:
172,311,50358,1,10,0:0:0:0:
341,180,50515,5,8,0:1:0:0:
341,180,50594,1,8,0:1:0:0:
341,180,50672,2,0,L|353:250,1,71.9999978027344,14|8,0:0|0:1,0:0:0:0:
353,250,50986,1,8,0:1:0:0:
454,94,51143,2,8,L|441:164,1,71.9999978027344,14|8,0:0|0:1,0:1:0:0:
440,164,51457,1,8,0:1:0:0:
250,39,51615,6,0,L|317:14,1,71.9999978027344,14|8,0:0|0:1,0:0:0:0:
183,161,51929,2,0,L|250:136,1,71.9999978027344,14|8,0:0|0:1,0:0:0:0:
250,136,52243,1,8,0:1:0:0:
170,29,52400,2,0,L|237:4,1,71.9999978027344,14|8,0:0|0:1,0:0:0:0:
237,4,52714,1,8,0:1:0:0:
103,151,52871,2,0,L|170:126,1,71.9999978027344,14|8,0:0|0:1,0:0:0:0:
349,258,53185,6,8,P|347:271|364:300,5,35.9999989013672,8|8|8|8|8|8,0:0|0:3|0:3|0:3|0:3|0:3,0:3:0:0:
450,310,53656,2,8,P|452:323|435:352,5,35.9999989013672,8|8|8|8|8|8,0:2|0:3|0:3|0:3|0:3|0:3,0:3:0:0:
414,192,54128,5,8,0:0:0:0:
512,90,54285,1,12,0:1:0:0:
0,284,54599,6,2,L|12:354,2,60.0000022888184
0,284,55070,1,2,0:0:0:0:
78,181,55227,2,2,L|95:80,1,90.0000034332277
129,17,55541,6,0,B|70:-45|-16:3|-16:3|14:29|24:75,1,223.999993164063,14|0,0:1|0:0,0:0:0:0:
167,174,56012,2,0,P|165:211|186:263,1,88.000002685547,10|0,0:0|0:0,0:0:0:0:
257,369,56326,2,0,L|281:281,1,88.000002685547,10|0,0:1|0:0,0:0:0:0:
441,278,56640,2,0,L|417:190,1,88.000002685547,10|0,0:0|0:0,0:0:0:0:
394,27,56954,5,10,3:1:0:0:
394,27,57033,1,0,3:0:0:0:
494,101,57190,1,0,3:0:0:0:
494,101,57268,1,10,3:2:0:0:
316,116,57425,2,0,B|267:108|267:108|243:167|157:175,1,176.000005371094,2|0,0:0|0:0,0:0:0:0:
131,274,57896,1,8,0:0:0:0:
166,173,58054,5,2,3:0:0:0:
166,173,58132,1,0,3:0:0:0:
166,173,58211,1,10,0:1:0:0:
238,275,58368,1,2,0:0:0:0:
166,379,58525,1,10,0:0:0:0:
43,339,58682,1,2,0:0:0:0:
43,211,58839,1,10,0:1:0:0:
166,173,58996,2,0,P|157:129|179:86,1,88.000002685547,2|8,0:0|0:0,0:0:0:0:
400,61,59310,5,0,3:0:0:0:
400,61,59389,1,0,3:0:0:0:
400,61,59467,2,0,L|496:28,1,88.000002685547,10|0,0:1|0:0,0:0:0:0:
428,144,59781,2,0,L|399:60,1,88.000002685547,10|0,0:0|0:0,0:0:0:0:
174,91,60095,6,0,L|270:124,1,88.000002685547,10|0,0:1|0:0,0:0:0:0:
202,8,60409,2,0,L|173:91,1,88.000002685547,8|8,0:0|0:0,0:0:0:0:
79,126,60645,1,8,0:0:0:0:
79,126,60724,6,0,L|50:42,1,88.000002685547,12|0,0:1|0:0,0:0:0:0:
2,165,61038,2,0,B|15:167|15:167|54:151|54:151|121:174|124:248,1,176.000005371094,10|10,0:0|0:1,0:0:0:0:
124,241,61509,1,0,0:0:0:0:
160,377,61666,1,10,3:2:0:0:
160,377,61745,1,0,3:0:0:0:
245,210,61902,5,0,3:0:0:0:
245,210,61980,2,0,P|281:206|313:159,1,88.000002685547,10|0,3:1|0:0,0:0:0:0:
296,0,62294,2,0,P|332:4|364:51,1,88.000002685547,8|0,0:0|0:0,0:0:0:0:
476,104,62608,5,10,0:1:0:0:
311,167,62766,1,2,0:0:0:0:
362,42,62923,1,10,0:0:0:0:
424,239,63080,2,0,B|435:278|469:288|469:288|469:361|411:380,1,176.000005371094,14|10,0:0|0:0,0:0:0:0:
187,342,63551,6,8,P|207:336|240:321,3,44.0000013427735,8|8|10|8,0:0|0:0|0:0|0:0,0:0:0:0:
84,305,63865,2,8,P|64:299|31:284,3,44.0000013427735,8|8|10|8,0:0|0:0|0:0|0:0,0:0:0:0:
167,241,64179,5,8,0:3:0:0:
167,241,64258,1,8,0:3:0:0:
167,241,64336,2,0,B|157:227|157:227|148:177,1,55.9999982910157,14|0,0:1|0:0,0:0:0:0:
173,212,64650,2,0,B|163:198|163:198|154:148,1,55.9999982910157,14|0,0:1|0:0,0:0:0:0:
184,185,64965,2,0,B|174:171|174:171|165:121,1,55.9999982910157,14|0,0:1|0:0,0:0:0:0:
190,156,65279,2,0,B|180:142|180:142|171:92,1,55.9999982910157,14|0,0:1|0:0,0:0:0:0:
107,11,65514,5,2,0:0:0:0:
107,11,65593,2,0,B|90:67|13:60|13:60|12:26|47:18,1,160,14|8,0:1|0:1,0:0:0:0:
173,103,66064,2,0,P|170:142|195:188,1,80,8|0,0:1|0:0,0:0:0:0:
262,112,66378,1,10,3:1:0:0:
275,103,66457,2,0,P|272:64|297:18,1,80,0|0,3:1|3:1,0:1:0:0:
304,27,66692,1,10,3:1:0:0:
482,51,66849,2,0,L|389:68,1,80,2|8,0:0|0:1,0:0:0:0:
342,201,67163,6,0,L|499:229,1,160,2|0,0:0|0:0,0:0:0:0:
499,229,67635,1,2,0:1:0:0:
430,359,67792,1,10,0:3:0:0:
430,359,67870,1,8,0:3:0:0:
430,359,67949,1,10,0:3:0:0:
332,294,68106,6,0,P|330:332|293:359,1,80,14|8,0:0|0:1,0:0:0:0:
167,275,68420,2,0,P|165:237|128:210,1,80,2|8,0:0|0:1,0:0:0:0:
11,214,68734,5,2,3:0:0:0:
4,199,68813,2,0,L|29:118,1,80,0|0,3:0|3:0,0:0:0:0:
107,110,69048,2,0,L|132:29,1,80,2|0,3:0|0:0,0:0:0:0:
130,33,69362,1,10,0:1:0:0:
300,39,69519,6,8,P|280:35|260:12,3,40,8|8|10|8,0:0|0:0|0:0|0:0,0:0:0:0:
374,92,69834,2,8,P|389:79|408:75,3,40,10|8|10|8,0:0|0:0|0:0|0:0,0:0:0:0:
244,137,70148,2,8,P|224:133|204:110,3,40,10|8|8|8,0:0|0:0|0:0|0:0,0:0:0:0:
318,190,70463,2,8,P|333:177|352:173,3,40,10|8|8|8,0:0|0:0|0:0|0:0,0:0:0:0:
347,274,70776,6,0,L|315:377,1,88.000002685547,14|8,0:0|0:1,0:0:0:0:
426,317,71090,1,8,0:1:0:0:
321,358,71247,2,0,L|247:278,1,88.000002685547,14|8,0:0|0:1,0:0:0:0:
261,293,71561,1,8,0:1:0:0:
79,224,71718,6,0,L|110:327,1,88.000002685547,14|8,0:0|0:1,0:0:0:0:
0,267,72032,1,8,0:1:0:0:
105,308,72189,2,0,L|178:228,1,88.000002685547,14|8,0:0|0:1,0:0:0:0:
277,181,72503,5,10,0:1:0:0:
142,152,72661,1,14,0:0:0:0:
164,243,72818,1,10,0:1:0:0:
259,81,72975,2,0,P|255:35|275:-2,1,88.000002685547,14|8,0:0|0:1,0:0:0:0:
424,45,73289,6,8,L|434:94,3,44.0000013427735,10|8|8|8,0:3|0:3|0:3|0:3,0:3:0:0:
380,147,73603,2,8,L|417:113,3,44.0000013427735,10|8|8|8,0:3|0:3|0:3|0:3,0:3:0:0:
491,135,73917,2,8,L|443:119,3,44.0000013427735,10|8|8|8,2:3|2:3|2:3|2:3,2:3:0:0:
440,195,74232,2,8,L|431:151,3,44.0000013427735,10|8|8|8,0:3|0:3|0:3|0:3,0:3:0:0:
363,275,74546,6,8,L|354:318,3,44.0000013427735,10|8|8|8,0:0|0:0|0:0|0:0,0:0:0:0:
270,267,74860,2,8,L|261:223,3,44.0000013427735,10|8|8|8,0:0|0:0|0:0|0:0,0:0:0:0:
191,129,75174,6,8,L|182:172,1,44.0000013427735,10|8,0:3|0:3,0:3:0:0:
98,121,75331,2,8,L|89:77,1,44.0000013427735,10|8,0:3|0:3,0:3:0:0:
192,13,75488,5,10,0:0:0:0:
89,77,75645,2,0,B|87:143|17:164|17:164|6:231,1,176.000005371094,14|0,0:1|0:0,0:0:0:0:
170,278,76116,2,0,P|128:272|74:280,1,88.000002685547,8|0,0:0|0:0,0:0:0:0:
238,381,76430,2,0,P|196:375|142:383,1,88.000002685547,8|0,0:1|0:0,0:0:0:0:
243,254,76745,2,0,P|201:248|147:256,1,88.000002685547,8|0,0:0|0:0,0:0:0:0:
383,228,77059,6,0,L|404:317,1,88.000002685547,8|0,0:1|0:0,0:0:0:0:
483,262,77373,2,0,L|504:351,1,88.000002685547,8|0,0:0|0:0,0:0:0:0:
491,179,77687,5,2,3:0:0:0:
478,166,77766,2,0,L|498:80,1,88.000002685547,8|0,3:1|3:0,0:0:0:0:
488,65,78001,1,8,3:2:0:0:
353,0,78158,1,10,0:0:0:0:
286,59,78315,6,0,P|286:99|259:143,1,88.000002685547,8|0,0:1|0:0,0:0:0:0:
126,15,78629,2,0,P|126:55|153:99,1,88.000002685547,8|0,0:0|0:0,0:0:0:0:
282,136,78944,2,0,P|282:176|255:220,1,88.000002685547,8|0,0:1|0:0,0:0:0:0:
122,92,79258,2,0,P|122:132|149:176,1,88.000002685547,8|0,0:0|0:0,0:0:0:0:
258,216,79572,6,0,B|307:208|307:208|331:267|417:275,1,176.000005371094,8|8,0:1|0:0,0:0:0:0:
407,273,80043,1,0,0:0:0:0:
286,353,80200,5,10,3:1:0:0:
271,362,80279,2,0,P|243:340|188:326,1,88.000002685547,0|0,3:0|3:0,0:0:0:0:
179,336,80514,1,8,3:2:0:0:
0,262,80671,2,0,P|28:240|83:226,1,88.000002685547,14|0,0:1|0:0,0:0:0:0:
77,226,80985,1,8,0:1:0:0:
64,20,81143,6,0,L|28:111,1,88.000002685547,8|0,0:0|0:0,0:0:0:0:
143,96,81457,2,0,L|176:15,1,88.000002685547,8|0,0:1|0:0,0:0:0:0:
32,41,81771,2,0,L|-4:132,1,88.000002685547,8|0,0:0|0:0,0:0:0:0:
250,93,82085,5,8,0:0:0:0:
255,100,82163,1,8,0:0:0:0:
255,100,82242,2,8,L|277:43,1,44.0000013427735,8|8,0:3|0:3,0:3:0:0:
363,105,82399,5,8,0:0:0:0:
363,105,82477,1,8,0:0:0:0:
363,105,82556,2,8,L|385:161,1,44.0000013427735,8|8,0:3|0:3,0:3:0:0:
281,209,82713,5,8,0:0:0:0:
281,209,82792,1,8,0:0:0:0:
281,209,82870,2,0,L|222:353,1,132.00000402832,8|0,0:3|0:0,0:0:0:0:
260,353,83184,6,0,B|314:312|388:338|388:338|433:316,1,176.000005371094,14|0,0:1|0:0,0:0:0:0:
503,171,83656,2,0,P|487:131|475:84,1,88.000002685547,10|0,0:0|0:0,0:0:0:0:
390,21,83970,2,0,P|378:63|362:104,1,88.000002685547,10|0,0:1|0:0,0:0:0:0:
512,137,84284,2,0,P|496:97|484:50,1,88.000002685547,8|0,0:0|0:0,0:0:0:0:
219,75,84598,6,0,L|129:38,1,88.000002685547,10|0,0:1|0:0,0:0:0:0:
1,177,84912,2,0,L|91:140,1,88.000002685547,10|0,0:0|0:0,0:0:0:0:
118,245,85226,5,10,0:1:0:0:
254,181,85383,1,2,0:0:0:0:
82,143,85540,2,0,L|0:109,1,88.000002685547,10|0,0:0|0:0,0:0:0:0:
219,75,85855,6,8,L|275:51,3,44.0000013427735,10|8|8|8,0:2|0:1|0:1|0:1,0:1:0:0:
340,55,86169,2,8,L|396:31,3,44.0000013427735,10|8|8|8,0:2|0:1|0:1|0:1,0:1:0:0:
254,181,86483,2,8,L|310:204,3,44.0000013427735,10|8|8|8,0:2|0:1|0:1|0:1,0:1:0:0:
375,201,86797,2,8,L|431:224,3,44.0000013427735,10|8|8|8,0:2|0:1|0:1|0:1,0:1:0:0:
318,127,87111,5,10,0:0:0:0:
89,290,87425,5,0,3:0:0:0:
68,283,87504,1,0,3:0:0:0:
68,261,87582,1,0,3:0:0:0:
89,254,87661,1,0,3:0:0:0:
99,272,87739,2,0,P|95:312|119:358,1,88.000002685547,0|0,3:0|3:0,0:0:0:0:
488,97,88211,6,0,P|484:57|508:11,1,88.000002685547,12|0,0:1|0:0,0:0:0:0:
