osu file format v14

[General]
AudioFilename: audio.mp3
AudioLeadIn: 0
PreviewTime: 55555
Countdown: 0
SampleSet: Soft
StackLeniency: 0.7
Mode: 0
LetterboxInBreaks: 0
WidescreenStoryboard: 1

[Editor]
DistanceSpacing: 1.2
BeatDivisor: 4
GridSize: 4
TimelineZoom: 8

[Metadata]
Title:ADAMAS (TV Size)
TitleUnicode:ADAMAS (TV Size)
Artist:LiSA
ArtistUnicode:LiSA
Creator:Sotarks
Version:Shunao's HARD
Source:ソードアート・オンライン アリシゼーション
Tags:sword art online sao alicization season three 3 kirito asuna eugeo alice opening op shogunmoon shunao -laura- corinn akitoshi armin a_r_m_i_n snownino_ reform kujinn
BeatmapID:1796422
BeatmapSetID:859718

[Difficulty]
HPDrainRate:4
CircleSize:3.7
OverallDifficulty:7
ApproachRate:8
SliderMultiplier:1.4
SliderTickRate:1

[Events]
//Background and Video events
Video,-40,"video.avi"
0,0,"bg.jpg",0,0
//Break Periods
//Storyboard Layer 0 (Background)
//Storyboard Layer 1 (Fail)
//Storyboard Layer 2 (Pass)
//Storyboard Layer 3 (Foreground)
//Storyboard Sound Samples

[TimingPoints]
537,314.13612565445,4,2,22,42,1,0
537,-125,4,2,22,42,0,0
5392,314.13612565445,4,2,22,72,1,0
5549,314.13612565445,4,2,22,72,1,0
15601,-111.111111111111,4,2,22,52,0,0
25496,-100,4,2,22,62,0,0
35706,-125,4,2,22,52,0,0
45758,-111.111111111111,4,2,22,62,0,0
54711,-111.111111111111,4,2,22,32,0,0
55661,314.13612565445,4,2,22,82,1,1
55661,-83.3333333333333,4,2,22,82,0,1
55818,314.13612565445,4,2,22,82,1,1
55818,-83.3333333333333,4,2,22,82,0,1
65713,-90.9090909090909,4,2,22,72,0,0
70896,-83.3333333333333,4,2,22,72,0,1
75765,-90.9090909090909,4,2,22,82,0,0
88331,-90.9090909090909,4,2,22,72,0,0

[Colours]
Combo1 : 248,181,255
Combo2 : 251,255,87
Combo3 : 168,240,255

[HitObjects]
120,137,537,6,0,L|129:206,1,56,2|0,3:0|0:0,0:0:0:0:
193,252,851,1,0,3:0:0:0:
193,252,1008,2,0,L|181:327,2,56,2|0|0,0:0|0:0|0:0,0:0:0:0:
272,210,1479,2,0,P|307:205|340:216,1,56,2|0,3:0|0:0,0:0:0:0:
410,241,1793,5,0,0:0:0:0:
410,241,1950,2,0,P|445:246|478:235,2,56,2|0|0,0:0|3:0|0:0,0:0:0:0:
396,152,2421,2,0,L|401:86,1,56,2|0,3:0|3:0,0:0:0:0:
343,26,2735,2,0,P|307:20|277:26,1,56,2|0,3:0|0:0,0:0:0:0:
203,54,3050,6,0,L|208:124,1,56,2|0,3:0|0:0,0:0:0:0:
120,133,3364,1,0,3:0:0:0:
120,133,3521,2,0,L|115:68,2,56,2|0|0,0:0|0:0|0:0,0:0:0:0:
173,204,3992,2,0,L|166:276,1,56,2|0,3:0|0:0,0:0:0:0:
145,346,4306,5,0,3:0:0:0:
145,346,4463,2,0,P|115:343|86:346,2,56,0|2|2,3:0|3:0|3:0,0:0:0:0:
233,360,4934,1,0,0:0:0:0:
478,129,5392,6,0,P|461:201|453:287,1,140,6|0,1:0|0:0,0:0:0:0:
414,348,5863,2,0,P|365:338|336:338,1,70,10|0,0:0|0:0,0:0:0:0:
279,274,6177,2,0,P|230:284|201:284,1,70,2|0,1:0|0:0,0:0:0:0:
130,328,6491,2,0,P|81:318|52:318,1,70,10|2,0:0|0:0,0:0:0:0:
26,233,6805,6,0,P|16:195|14:153,1,70,2|0,1:0|0:0,0:0:0:0:
48,80,7119,2,0,B|122:59|115:110|189:93,1,140,10|2,0:0|1:0,0:0:0:0:
266,55,7590,1,2,0:0:0:0:
266,55,7747,1,8,0:0:0:0:
338,109,7905,6,0,P|324:171|314:261,1,140,2|0,0:0|0:0,0:0:0:0:
338,334,8376,2,0,P|372:329|421:330,1,70,10|0,0:0|0:0,0:0:0:0:
485,282,8690,2,0,P|496:235|497:192,1,70,2|0,1:0|0:0,0:0:0:0:
451,135,9004,2,0,P|440:88|439:45,1,70,10|0,0:0|0:0,0:0:0:0:
358,22,9318,6,0,P|347:69|346:112,1,70,2|0,1:0|0:0,0:0:0:0:
256,109,9632,2,0,P|267:156|268:199,1,70,10|0,0:0|0:0,0:0:0:0:
277,268,9946,2,0,P|269:302|267:324,4,35,10|8|10|8|8,0:0|0:0|0:0|0:0|0:0,0:0:0:0:
193,231,10418,6,0,B|118:213|132:266|47:246,1,140,6|0,1:0|0:0,0:0:0:0:
19,165,10889,2,0,L|12:91,1,70,10|0,0:0|0:0,0:0:0:0:
88,45,11203,2,0,L|97:126,1,70,2|0,1:0|0:0,0:0:0:0:
184,133,11517,2,0,L|177:59,1,70,10|2,0:0|0:0,0:0:0:0:
257,20,11831,5,2,1:0:0:0:
257,20,11988,1,8,0:0:0:0:
329,75,12145,2,0,L|391:69,3,35,10|8|8|8,0:0|0:0|0:0|0:0,0:0:0:0:
404,51,12459,2,0,L|458:58,3,35,10|8|10|8,0:0|0:0|0:3|0:3,0:0:0:0:
481,72,12774,1,4,0:3:0:0:
497,161,12931,6,0,P|491:222|488:313,1,140,6|0,1:0|0:0,0:0:0:0:
405,338,13402,2,0,P|401:293|396:254,1,70,10|0,0:0|0:0,0:0:0:0:
323,216,13716,2,0,P|287:224|251:218,1,70,2|0,1:0|0:0,0:0:0:0:
184,160,14030,2,0,P|148:152|112:158,1,70,10|2,0:0|0:0,0:0:0:0:
39,206,14344,6,0,P|45:231|47:255,3,35,10|8|0|0,0:0|0:0|1:0|1:0,0:0:0:0:
77,274,14658,2,0,P|71:299|69:323,3,35,10|8|4|4,0:3|0:3|0:3|0:3,0:0:0:0:
82,352,14973,2,0,P|124:347|163:355,1,70,10|2,0:3|1:0,0:0:0:0:
240,366,15287,1,10,0:0:0:0:
329,351,15444,1,4,1:0:0:0:
315,162,15758,6,0,P|317:122|329:76,2,62.9999980773926,2|8|2,0:0|0:0|0:0,0:0:0:0:
245,225,16229,2,0,P|211:231|179:223,1,62.9999980773926,10|0,0:0|0:0,0:0:0:0:
105,171,16543,2,0,P|74:164|43:170,1,62.9999980773926,10|0,0:0|0:0,0:0:0:0:
17,78,16857,6,0,P|16:34|9:3,2,62.9999980773926,10|0|10,0:0|1:0|0:0,0:0:0:0:
111,80,17329,1,0,1:0:0:0:
111,80,17486,2,0,P|146:72|184:78,1,62.9999980773926,10|2,0:0|1:0,0:0:0:0:
260,109,17800,1,10,0:0:0:0:
260,109,17957,6,0,L|267:190,1,62.9999980773926,2|8,1:0|0:0,0:0:0:0:
227,258,18271,2,0,P|186:250|156:253,2,62.9999980773926,2|10|0,0:0|0:0|0:0,0:0:0:0:
278,337,18742,2,0,L|348:331,1,62.9999980773926,10|2,0:0|1:0,0:0:0:0:
413,270,19056,2,0,L|487:275,1,62.9999980773926,10|2,0:0|1:0,0:0:0:0:
503,183,19370,6,0,P|490:115|444:86,1,125.999996154785,10|10,0:0|0:0,0:0:0:0:
353,63,19842,2,0,L|279:68,1,62.9999980773926,2|10,1:0|0:0,0:0:0:0:
202,32,20156,2,0,L|159:28,2,31.4999990386963,2|0|10,1:0|1:0|0:0,0:0:0:0:
229,122,20470,1,2,1:0:0:0:
229,122,20627,6,0,P|236:160|238:203,1,62.9999980773926,8|0,0:0|0:0,0:0:0:0:
326,217,20941,2,0,P|319:255|317:298,1,62.9999980773926,10|2,0:0|1:0,0:0:0:0:
384,345,21255,2,0,P|424:339|466:340,2,62.9999980773926,10|0|10,0:0|0:0|0:0,0:0:0:0:
291,366,21727,1,0,0:0:0:0:
291,366,21884,6,0,L|217:358,1,62.9999980773926,10|0,0:0|1:0,0:0:0:0:
146,312,22198,2,0,L|78:319,1,62.9999980773926,10|0,0:0|1:0,0:0:0:0:
19,248,22512,2,0,P|13:206|3:173,2,62.9999980773926,10|2|10,0:0|1:0|0:0,0:0:0:0:
99,199,22983,1,2,1:0:0:0:
99,199,23140,6,0,P|103:158|113:118,1,62.9999980773926,8|0,0:0|0:0,0:0:0:0:
177,73,23454,1,10,0:0:0:0:
266,39,23611,2,0,P|287:36|316:33,2,31.4999990386963,0|0|10,1:0|1:0|0:0,0:0:0:0:
177,73,23925,2,0,P|155:69|126:67,2,31.4999990386963,2|0|8,1:0|1:0|0:0,0:0:0:0:
241,142,24240,1,6,1:0:0:0:
241,142,25496,6,0,P|307:110|378:138,1,140,4|2,1:0|0:0,0:0:0:0:
439,185,25967,2,0,P|432:225|428:273,1,70,10|0,0:0|0:0,0:0:0:0:
338,244,26281,2,0,P|344:278|347:313,1,70,2|8,1:0|0:3,0:0:0:0:
274,366,26596,1,10,0:0:0:0:
274,366,26753,1,0,0:0:0:0:
186,341,26910,6,0,P|149:329|98:328,2,70,2|2|10,1:0|0:0|0:0,0:0:0:0:
236,265,27381,1,2,0:0:0:0:
236,265,27538,2,0,P|243:214|244:175,1,70,2|10,1:0|0:3,0:0:0:0:
237,104,27852,1,10,0:0:0:0:
237,104,28009,6,0,P|171:113|91:56,1,140,2|2,1:0|0:0,0:0:0:0:
31,128,28480,2,0,P|33:162|38:197,1,70,10|0,0:0|0:0,0:0:0:0:
119,238,28795,2,0,P|116:272|111:307,1,70,2|8,1:0|0:3,0:0:0:0:
180,366,29109,1,10,0:0:0:0:
180,366,29266,1,0,0:0:0:0:
265,334,29423,6,0,P|314:329|348:333,2,70,2|2|10,1:0|0:0|0:0,0:0:0:0:
225,252,29894,1,2,0:0:0:0:
225,252,30051,2,0,P|215:213|214:160,1,70,2|10,1:0|0:3,0:0:0:0:
124,162,30365,2,0,P|134:123|135:70,1,70,10|2,0:0|0:0,0:0:0:0:
197,25,30679,5,4,1:0:0:0:
197,25,30836,1,2,0:0:0:0:
280,61,30994,2,0,P|316:64|354:56,1,70,10|0,0:0|0:0,0:0:0:0:
430,17,31308,2,0,P|466:14|504:22,1,70,2|10,1:0|0:3,0:0:0:0:
503,111,31622,2,0,P|498:155|496:201,1,70,10|0,0:0|0:0,0:0:0:0:
414,219,31936,6,0,P|381:211|335:213,2,70,2|0|10,1:0|0:0|0:0,0:0:0:0:
470,290,32407,1,0,0:0:0:0:
470,290,32564,2,0,P|474:324|476:359,1,70,2|10,1:0|0:3,0:0:0:0:
386,376,32878,2,0,P|350:368|304:373,1,70,10|0,0:0|0:0,0:0:0:0:
226,370,33192,6,0,B|202:295|257:303|226:211,1,140,2|10,1:0|0:0,0:0:0:0:
209,145,33664,1,0,0:0:0:0:
209,145,33821,2,0,P|166:100|68:114,1,140,2|10,1:0|0:0,0:0:0:0:
20,266,34449,6,0,P|27:306|31:356,1,70,10|0,0:0|1:0,0:0:0:0:
116,364,34763,2,0,P|136:359|174:361,3,35,10|0|0|0,0:3|1:0|1:0|1:0,0:0:0:0:
195,365,35077,2,0,P|215:370|253:368,3,35,6|0|0|0,0:3|1:0|1:0|1:0,0:0:0:0:
274,360,35391,2,0,P|294:355|332:357,3,35,2|0|0|0,1:0|1:0|1:0|1:0,0:0:0:0:
353,357,35706,6,0,P|378:315|361:248,1,112,6|0,1:0|1:0,0:0:0:0:
302,201,36177,1,0,0:0:0:0:
302,201,36334,2,0,L|229:196,1,56,2|0,1:0|0:0,0:0:0:0:
176,150,36648,2,0,L|110:154,1,56,0|0,1:0|0:0,0:0:0:0:
47,110,36962,6,0,P|46:58|98:17,1,112,2|0,1:0|1:0,0:0:0:0:
171,25,37433,2,0,P|228:34|298:31,1,112,0|0,0:0|0:0,0:0:0:0:
365,18,37905,1,0,1:0:0:0:
451,58,38062,1,8,0:0:0:0:
451,58,38140,1,8,0:0:0:0:
451,58,38219,6,0,P|442:117|439:182,1,112,4|0,1:0|1:0,0:0:0:0:
382,230,38690,2,0,B|316:213|330:254|257:240,1,112,0|0,0:0|0:0,0:0:0:0:
203,196,39161,2,0,P|171:192|142:196,1,56,0|0,1:0|0:0,0:0:0:0:
63,191,39475,6,0,P|53:162|49:116,2,56,0|0|0,1:0|0:0|1:0,0:0:0:0:
98,267,39946,1,8,0:0:0:0:
98,267,40103,2,0,P|88:296|84:342,1,56,2|10,1:0|0:0,0:0:0:0:
151,371,40418,2,0,P|187:365|222:367,1,56,2|10,1:0|0:3,0:0:0:0:
288,345,40732,6,0,P|326:356|356:357,1,56,4|0,1:0|0:0,0:0:0:0:
423,336,41046,1,2,1:0:0:0:
423,336,41203,2,0,P|430:275|456:212,1,112,2|0,0:0|0:0,0:0:0:0:
419,148,41674,1,2,1:0:0:0:
419,148,41831,6,0,P|412:87|386:24,1,112,2|0,0:0|0:0,0:0:0:0:
315,32,42302,1,2,1:0:0:0:
315,32,42459,2,0,P|257:31|205:71,1,112,2|0,0:0|0:0,0:0:0:0:
160,124,42931,1,2,1:0:0:0:
183,213,43088,1,10,0:0:0:0:
183,213,43166,1,8,0:0:0:0:
183,213,43245,6,0,P|227:207|297:204,1,112,4|0,1:0|1:0,0:0:0:0:
372,233,43716,1,0,0:0:0:0:
372,233,43873,2,0,P|357:287|352:366,1,112,0|0,1:0|1:0,0:0:0:0:
271,367,44344,1,0,0:0:0:0:
271,367,44501,6,0,P|240:363|206:362,1,56,2|8,1:0|0:0,0:0:0:0:
131,365,44816,2,0,P|100:369|66:370,1,56,2|8,1:0|0:3,0:0:0:0:
21,305,45130,1,2,1:0:0:0:
56,228,45287,2,0,L|48:186,2,28,8|0|10,0:0|0:0|0:0,0:0:0:0:
95,240,45522,2,0,L|91:287,2,28,8|8|8,0:0|0:0|0:0,0:0:0:0:
134,213,45758,6,0,P|195:211|243:252,1,125.999996154785,6|8,1:0|0:0,0:0:0:0:
277,332,46229,1,0,0:0:0:0:
277,332,46386,2,0,L|342:326,1,62.9999980773926,2|0,1:0|1:0,0:0:0:0:
427,316,46700,2,0,P|426:280|432:248,1,62.9999980773926,8|2,0:0|0:0,0:0:0:0:
498,197,47014,6,0,P|448:212|377:174,1,125.999996154785,2|10,1:0|0:0,0:0:0:0:
334,109,47486,1,0,0:0:0:0:
334,109,47643,2,0,L|339:30,1,62.9999980773926,2|0,1:0|1:0,0:0:0:0:
253,19,47957,1,10,0:0:0:0:
173,56,48114,1,0,1:0:0:0:
173,56,48192,1,0,1:0:0:0:
173,56,48271,6,0,B|102:34|110:81|34:61,1,125.999996154785,0|8,1:0|0:0,0:0:0:0:
16,145,48742,1,0,0:0:0:0:
16,145,48899,2,0,P|22:177|24:224,1,62.9999980773926,0|0,1:0|1:0,0:0:0:0:
26,296,49213,1,10,0:0:0:0:
94,367,49370,1,0,1:0:0:0:
94,367,49449,1,0,1:0:0:0:
94,367,49528,6,0,P|123:363|164:364,1,62.9999980773926,2|0,1:0|1:0,0:0:0:0:
244,369,49842,2,0,P|252:334|256:289,1,62.9999980773926,10|0,0:0|1:0,0:0:0:0:
200,238,50156,2,0,P|192:203|188:158,1,62.9999980773926,10|0,0:0|1:0,0:0:0:0:
190,87,50470,1,10,0:0:0:0:
260,34,50627,1,0,1:0:0:0:
260,34,50706,1,0,1:0:0:0:
260,34,50784,6,0,P|324:27|384:63,1,125.999996154785,14|0,0:0|1:0,0:0:0:0:
445,110,51255,2,0,P|434:167|429:252,1,125.999996154785,14|0,0:0|1:0,0:0:0:0:
348,271,51727,2,0,P|344:237|334:193,1,62.9999980773926,10|0,0:0|1:0,0:0:0:0:
262,164,52041,6,0,B|182:149|204:190|123:175,1,125.999996154785,14|2,0:0|1:0,0:0:0:0:
66,126,52512,2,0,P|101:187|92:248,1,125.999996154785,12|0,0:0|1:0,0:0:0:0:
15,277,52983,2,0,P|9:310|17:349,1,62.9999980773926,10|0,0:0|1:0,0:0:0:0:
96,369,53297,6,0,L|146:364,4,31.4999990386963,14|0|0|0|0,0:0|0:0|1:0|0:0|1:0,0:0:0:0:
115,282,53768,2,0,L|165:275,4,31.4999990386963,14|0|0|0|0,0:0|0:0|1:0|0:0|1:0,0:0:0:0:
65,209,54240,1,14,0:0:0:0:
112,134,54397,1,10,0:0:0:0:
280,187,54711,6,0,L|352:181,1,62.9999980773926,2|2,0:0|0:0,0:0:0:0:
379,101,55025,2,0,L|303:95,1,62.9999980773926,2|2,0:0|0:0,0:0:0:0:
259,28,55339,1,2,0:0:0:0:
32,90,55661,6,0,P|45:168|50:269,1,167.999994873047,6|0,1:0|0:0,0:0:0:0:
79,344,56132,2,0,P|119:335|176:339,1,83.9999974365235,10|0,0:0|0:0,0:0:0:0:
251,355,56446,2,0,P|291:364|348:360,1,83.9999974365235,2|0,1:0|0:0,0:0:0:0:
422,335,56760,2,0,P|427:288|441:249,1,83.9999974365235,10|0,0:0|0:0,0:0:0:0:
382,180,57074,6,0,B|276:162|313:216|211:193,1,167.999994873047,2|10,1:0|0:0,0:0:0:0:
172,114,57545,2,0,P|201:40|290:32,1,167.999994873047,2|0,0:0|0:0,0:0:0:0:
371,47,58016,1,8,0:0:0:0:
443,104,58174,6,0,P|434:165|432:205,1,83.9999974365235,2|2,0:0|1:0,0:0:0:0:
378,262,58488,2,0,P|384:303|388:345,2,83.9999974365235,2|10|2,0:0|0:0|0:0,0:0:0:0:
298,215,58959,1,2,1:0:0:0:
214,255,59116,2,0,P|136:262|63:197,1,167.999994873047,2|2,0:0|0:0,0:0:0:0:
41,120,59587,6,0,P|54:76|60:29,1,83.9999974365235,2|0,1:0|0:0,0:0:0:0:
149,20,59901,2,0,P|155:61|167:101,1,83.9999974365235,10|0,0:0|0:0,0:0:0:0:
255,129,60215,2,0,P|304:119|361:121,1,83.9999974365235,2|0,1:0|0:0,0:0:0:0:
429,128,60530,2,0,P|430:151|435:172,3,41.9999987182618,10|0|8|8,0:0|0:0|0:0|0:0,0:0:0:0:
459,209,60844,6,0,P|418:210|373:233,1,83.9999974365235,6|0,1:0|0:0,0:0:0:0:
313,292,61158,2,0,L|220:283,1,83.9999974365235,10|0,0:0|0:0,0:0:0:0:
177,207,61472,2,0,L|86:214,1,83.9999974365235,2|0,1:0|0:0,0:0:0:0:
20,270,61786,2,0,P|10:315|21:362,1,83.9999974365235,10|0,0:0|0:0,0:0:0:0:
108,357,62100,6,0,B|197:330|187:393|284:366,1,167.999994873047,2|8,1:0|0:0,0:0:0:0:
324,293,62571,1,0,0:0:0:0:
391,355,62728,2,0,P|450:345|491:348,1,83.9999974365235,2|2,1:0|0:0,0:0:0:0:
509,259,63043,1,10,0:0:0:0:
472,173,63200,6,0,P|462:129|458:85,1,83.9999974365235,10|0,0:0|1:0,0:0:0:0:
498,7,63514,1,10,0:0:0:0:
407,25,63671,2,0,P|383:17|352:23,3,41.9999987182618,0|0|10|8,1:0|1:0|0:0|0:0,0:0:0:0:
326,40,63985,2,0,P|302:48|271:42,3,41.9999987182618,8|8|10|8,0:0|0:0|0:0|0:0,0:0:0:0:
241,34,64299,1,8,0:3:0:0:
151,56,64456,1,6,1:0:0:0:
217,228,64770,6,0,B|299:197|293:265|386:232,2,167.999994873047,10|10|10,1:3|1:3|1:2,0:0:0:0:
136,275,65556,1,0,1:0:0:0:
136,275,65634,1,0,1:0:0:0:
136,275,65713,6,0,P|85:215|111:125,1,154.000004699707,6|0,1:0|0:0,0:0:0:0:
141,65,66184,2,0,L|243:74,1,77.0000023498536,0|0,1:0|0:0,0:0:0:0:
303,104,66498,2,0,L|474:87,1,154.000004699707,2|2,1:0|1:0,0:0:0:0:
498,170,66969,6,0,P|489:213|485:264,1,77.0000023498536,2|0,0:0|1:0,0:0:0:0:
431,320,67283,2,0,P|363:280|284:309,1,154.000004699707,2|0,0:0|0:0,0:0:0:0:
219,353,67755,2,0,L|141:346,1,77.0000023498536,2|10,1:0|0:3,0:0:0:0:
49,344,68069,1,6,0:3:0:0:
31,253,68226,6,0,P|19:211|16:167,1,77.0000023498536,14|0,0:0|0:0,0:0:0:0:
96,133,68540,2,0,P|108:91|112:44,1,77.0000023498536,2|0,0:0|1:0,0:0:0:0:
196,21,68854,2,0,P|199:62|211:103,1,77.0000023498536,2|0,0:0|1:0,0:0:0:0:
300,92,69168,2,0,P|296:133|285:172,1,77.0000023498536,2|0,0:0|1:0,0:0:0:0:
248,251,69482,1,2,0:0:0:0:
204,332,69639,6,0,P|183:336|163:338,3,38.5000011749268,8|8|10|8,1:2|0:0|0:0|0:0,0:0:0:0:
122,320,69954,2,0,P|101:315|80:314,3,38.5000011749268,10|8|10|8,1:2|0:0|0:0|0:0,0:0:0:0:
43,291,70268,2,0,P|36:266|33:238,3,38.5000011749268,10|8|8|8,1:2|0:0|0:0|0:0,0:0:0:0:
55,212,70582,2,0,P|62:187|65:158,3,38.5000011749268,10|8|0|0,1:2|0:0|1:0|1:0,0:0:0:0:
60,124,70896,6,0,P|127:142|215:103,1,167.999994873047,8|2,0:0|1:0,0:0:0:0:
282,41,71367,1,8,0:0:0:0:
366,79,71524,2,0,P|353:146|343:251,1,167.999994873047,2|10,1:0|0:0,0:0:0:0:
250,244,71996,6,0,P|258:294|261:350,1,83.9999974365235,2|0,1:0|1:0,0:0:0:0:
342,371,72310,2,0,P|385:367|429:371,1,83.9999974365235,10|2,0:0|1:0,0:0:0:0:
493,307,72624,1,2,1:0:0:0:
458,221,72781,2,0,P|448:174|448:131,1,83.9999974365235,10|2,0:0|1:0,0:0:0:0:
361,103,73095,2,0,P|359:144|350:185,1,83.9999974365235,10|0,0:0|1:0,0:0:0:0:
272,235,73409,6,0,P|236:227|215:228,3,41.9999987182618,8|0|4|4,0:3|0:0|0:3|0:3,0:0:0:0:
186,240,73723,2,0,P|150:248|129:247,3,41.9999987182618,10|0|0|0,0:0|1:0|1:0|1:0,0:0:0:0:
101,231,74037,2,0,P|65:223|44:224,3,41.9999987182618,10|0|0|0,0:3|1:0|1:0|1:0,0:0:0:0:
14,229,74352,1,2,1:0:0:0:
22,321,74509,6,0,P|66:334|116:319,1,83.9999974365235,2|8,1:0|0:0,0:0:0:0:
194,337,74823,2,0,P|234:329|274:342,1,83.9999974365235,2|8,1:0|0:0,0:0:0:0:
363,365,75137,2,0,L|416:360,3,41.9999987182618,2|0|10|8,1:0|1:0|0:3|0:3,0:0:0:0:
437,327,75451,2,0,L|507:335,3,41.9999987182618,6|0|10|0,0:3|1:0|0:0|1:0,0:0:0:0:
505,298,75765,6,0,B|530:220|479:228|500:137,1,154.000004699707,6|0,1:0|0:0,0:0:0:0:
469,68,76236,2,0,P|433:57|392:62,1,77.0000023498536,8|0,0:0|0:0,0:0:0:0:
318,99,76550,2,0,P|282:110|241:105,1,77.0000023498536,0|0,1:0|0:0,0:0:0:0:
181,46,76865,2,0,P|145:35|104:40,1,77.0000023498536,8|0,0:0|0:0,0:0:0:0:
36,86,77179,6,0,P|46:158|50:258,1,154.000004699707,0|8,1:0|0:0,0:0:0:0:
59,323,77650,1,0,0:0:0:0:
59,323,77807,2,0,P|103:316|156:325,1,77.0000023498536,2|8,1:0|0:3,0:0:0:0:
218,332,78121,1,8,0:0:0:0:
218,332,78278,6,0,P|254:283|264:190,1,154.000004699707,6|0,1:0|0:0,0:0:0:0:
215,123,78749,2,0,P|202:84|205:37,1,77.0000023498536,8|0,0:0|0:0,0:0:0:0:
283,20,79064,2,0,P|321:29|362:22,1,77.0000023498536,0|0,1:0|0:0,0:0:0:0:
440,41,79378,2,0,P|440:79|427:115,1,77.0000023498536,8|0,0:0|0:0,0:0:0:0:
357,163,79692,6,0,P|427:160|477:228,1,154.000004699707,0|8,1:0|0:0,0:0:0:0:
487,305,80163,1,0,0:0:0:0:
487,305,80320,2,0,B|404:279|413:338|324:322,1,154.000004699707,2|8,1:0|0:0,0:0:0:0:
272,271,80791,6,0,P|203:226|118:259,1,154.000004699707,6|0,1:0|0:0,0:0:0:0:
54,258,81263,2,0,P|41:212|40:168,1,77.0000023498536,8|0,0:0|0:0,0:0:0:0:
82,109,81577,2,0,P|125:103|161:123,1,77.0000023498536,0|0,1:0|0:0,0:0:0:0:
234,144,81891,2,0,L|325:136,1,77.0000023498536,8|0,0:0|0:0,0:0:0:0:
393,121,82205,6,0,P|401:154|402:176,3,38.5000011749268,8|8|0|0,0:0|0:0|1:0|1:0,0:0:0:0:
438,178,82519,2,0,P|430:211|429:233,3,38.5000011749268,8|8|0|0,0:3|0:3|1:0|1:0,0:0:0:0:
398,244,82833,2,0,P|406:277|407:299,3,38.5000011749268,0|0|10|0,1:0|1:0|0:0|1:0,0:0:0:0:
417,322,83147,1,4,0:3:0:0:
344,365,83304,6,0,P|294:373|211:299,1,154.000004699707,6|0,1:0|0:0,0:0:0:0:
196,231,83776,1,10,0:0:0:0:
196,231,83933,1,0,0:0:0:0:
190,146,84090,2,0,L|199:68,1,77.0000023498536,2|0,1:0|0:0,0:0:0:0:
127,24,84404,2,0,P|84:21|42:39,1,77.0000023498536,10|2,0:0|0:0,0:0:0:0:
11,106,84718,6,0,L|20:195,1,77.0000023498536,2|0,1:0|0:0,0:0:0:0:
99,207,85032,2,0,L|90:303,1,77.0000023498536,10|0,0:0|0:0,0:0:0:0:
74,366,85346,2,0,P|36:354|-18:360,2,77.0000023498536,2|2|10,1:0|0:0|0:0,0:0:0:0:
158,372,85817,1,2,0:0:0:0:
241,344,85975,6,0,L|234:293,3,38.5000011749268,8|0|0|0,0:0|1:0|1:0|1:0,0:0:0:0:
270,281,86289,2,0,L|278:227,3,38.5000011749268,10|0|2|0,0:0|1:0|1:0|1:0,0:0:0:0:
243,215,86603,2,0,L|236:164,3,38.5000011749268,10|0|0|0,0:0|1:0|1:0|1:0,0:0:0:0:
274,155,86917,2,0,L|282:101,3,38.5000011749268,10|0|0|0,0:0|1:0|1:0|1:0,0:0:0:0:
300,79,87231,5,8,0:0:0:0:
312,56,88331,1,6,1:0:0:0:
