osu file format v14

[General]
AudioFilename: audio.mp3
AudioLeadIn: 0
PreviewTime: 55555
Countdown: 0
SampleSet: Soft
StackLeniency: 0.7
Mode: 0
LetterboxInBreaks: 0
WidescreenStoryboard: 1

[Editor]
DistanceSpacing: 1
BeatDivisor: 16
GridSize: 32
TimelineZoom: 8

[Metadata]
Title:ADAMAS (TV Size)
TitleUnicode:ADAMAS (TV Size)
Artist:LiSA
ArtistUnicode:LiSA
Creator:Sotarks
Version:Reform's EXPERT
Source:ソードアート・オンライン アリシゼーション
Tags:sword art online sao alicization season three 3 kirito asuna eugeo alice opening op shogunmoon shunao -laura- corinn akitoshi armin a_r_m_i_n snownino_ reform kujinn
BeatmapID:1797628
BeatmapSetID:859718

[Difficulty]
HPDrainRate:5
CircleSize:4
OverallDifficulty:8.7
ApproachRate:9.2
SliderMultiplier:1.82
SliderTickRate:1

[Events]
//Background and Video events
Video,-40,"video.avi"
0,0,"bg.jpg",0,0
//Break Periods
//Storyboard Layer 0 (Background)
//Storyboard Layer 1 (Fail)
//Storyboard Layer 2 (Pass)
//Storyboard Layer 3 (Foreground)
//Storyboard Sound Samples

[TimingPoints]
537,314.13612565445,4,2,22,42,1,0
537,-161.290322580645,4,2,22,42,0,0
5392,314.13612565445,4,2,22,72,1,0
5392,-98.0392156862745,4,2,22,72,0,0
5549,314.13612565445,4,2,22,72,1,0
5549,-98.0392156862745,4,2,22,72,0,0
15444,-121.951219512195,4,2,22,52,0,0
15601,-121.951219512195,4,2,22,52,0,0
24239,-161.290322580645,4,2,22,52,0,0
25496,-108.695652173913,4,2,22,62,0,0
25672,-108.695652173913,4,2,22,62,0,0
35706,-121.951219512195,4,2,22,52,0,0
45758,-108.695652173913,4,2,22,62,0,0
53297,-98.0392156862745,4,2,22,62,0,0
54711,-108.695652173913,4,2,22,32,0,0
55339,-192.307692307692,4,2,22,32,0,0
55575,-192.307692307692,4,2,22,5,0,0
55661,314.13612565445,4,2,22,82,1,1
55661,-89.2857142857143,4,2,22,82,0,1
55818,314.13612565445,4,2,22,82,1,1
55818,-89.2857142857143,4,2,22,82,0,1
56996,-89.2857142857143,4,2,22,5,0,1
57075,-89.2857142857143,4,2,22,82,0,1
59824,-89.2857142857143,4,2,22,5,0,1
59902,-89.2857142857143,4,2,22,82,0,1
60452,-89.2857142857143,4,2,22,5,0,1
60530,-89.2857142857143,4,2,22,82,0,1
62023,-89.2857142857143,4,2,22,5,0,1
62101,-89.2857142857143,4,2,22,82,0,1
64456,-81.9672131147541,4,2,22,82,0,1
64693,-81.9672131147541,4,2,22,5,0,1
64771,-81.9672131147541,4,2,22,82,0,1
65007,-81.9672131147541,4,2,22,5,0,1
65085,-81.9672131147541,4,2,22,82,0,1
65321,-81.9672131147541,4,2,22,5,0,1
65400,-81.9672131147541,4,2,22,82,0,1
65634,-81.9672131147541,4,2,22,5,0,1
65713,-98.0392156862745,4,2,22,72,0,0
68462,-98.0392156862745,4,2,22,5,0,0
68541,-98.0392156862745,4,2,22,72,0,0
75765,-89.2857142857143,4,2,22,82,0,0
88331,-108.695652173913,4,2,22,72,0,0

[Colours]
Combo1 : 248,181,255
Combo2 : 251,255,87
Combo3 : 168,240,255

[HitObjects]
164,84,537,6,0,P|133:73|101:71,2,56.4199977616578,2|0|0,3:0|0:0|3:0,0:0:0:0:
247,179,1008,2,0,P|274:175|301:165,2,56.4199977616578,2|0|0,0:0|0:0|0:0,0:0:0:0:
156,260,1479,1,2,3:0:0:0:
256,347,1636,1,0,0:0:0:0:
256,347,1715,1,0,0:0:0:0:
256,347,1793,6,0,P|260:295|262:270,1,56.4199977616578,0|2,0:0|0:0,0:0:0:0:
136,190,2107,2,0,P|138:218|140:246,1,56.4199977616578,0|0,3:0|0:0,0:0:0:0:
262,50,2421,1,2,3:0:0:0:
143,114,2578,1,0,3:0:0:0:
265,179,2735,1,2,3:0:0:0:
106,43,2893,5,0,0:0:0:0:
106,43,2971,1,0,0:0:0:0:
106,43,3050,2,0,P|66:42|32:40,2,56.4199977616578,2|0|0,3:0|0:0|3:0,0:0:0:0:
230,131,3521,2,0,P|270:132|304:134,2,56.4199977616578,2|0|0,0:0|0:0|0:0,0:0:0:0:
125,197,3992,2,0,P|118:232|120:272,1,56.4199977616578,2|0,3:0|0:0,0:0:0:0:
263,286,4306,6,0,P|270:321|268:361,1,56.4199977616578,0|0,3:0|3:0,0:0:0:0:
362,188,4620,1,2,3:0:0:0:
438,318,4777,1,2,3:0:0:0:
450,298,5392,6,0,B|345:265|377:353|250:310,1,185.640001133057,6|0,1:0|0:0,0:0:0:0:
170,201,5863,2,0,P|186:272|192:317,1,92.8200005665283,10|0,0:0|0:0,0:0:0:0:
287,139,6177,2,0,P|294:93|306:48,1,92.8200005665283,2|0,1:0|0:0,0:0:0:0:
368,255,6491,1,10,0:0:0:0:
440,126,6648,1,2,0:0:0:0:
255,223,6805,6,0,P|198:210|150:205,1,92.8200005665283,2|0,1:0|0:0,0:0:0:0:
383,281,7119,2,0,P|428:274|474:263,1,92.8200005665283,10|0,0:0|0:0,0:0:0:0:
286,366,7433,1,2,1:0:0:0:
362,197,7590,2,0,P|373:131|371:68,1,92.8200005665283,2|8,0:0|0:0,0:0:0:0:
145,54,7905,6,0,B|122:150|194:129|167:232,1,185.640001133057,2|0,0:0|0:0,0:0:0:0:
235,84,8376,2,0,P|281:70|346:66,1,92.8200005665283,10|0,0:0|0:0,0:0:0:0:
90,185,8690,2,0,P|43:180|0:166,1,92.8200005665283,2|0,1:0|0:0,0:0:0:0:
232,271,9004,1,10,0:0:0:0:
96,342,9161,1,0,0:0:0:0:
252,182,9318,6,0,P|267:238|275:290,1,92.8200005665283,2|0,1:0|0:0,0:0:0:0:
438,94,9632,2,0,P|423:150|415:202,1,92.8200005665283,10|0,0:0|0:0,0:0:0:0:
288,64,9946,1,10,0:0:0:0:
288,64,10025,1,8,0:0:0:0:
288,64,10103,2,0,P|245:48|224:45,1,46.4100002832642,10|8,0:0|0:0,0:0:0:0:
158,124,10261,2,0,P|135:130|114:140,1,46.4100002832642,8|8,0:0|0:0,0:0:0:0:
66,274,10418,6,0,B|176:253|130:332|264:307,1,185.640001133057,6|0,1:0|0:0,0:0:0:0:
268,140,10889,2,0,P|230:179|219:222,1,92.8200005665283,10|0,0:0|0:0,0:0:0:0:
336,326,11203,2,0,P|326:261|315:209,1,92.8200005665283,2|0,1:0|0:0,0:0:0:0:
446,98,11517,1,10,0:0:0:0:
417,244,11674,1,2,0:0:0:0:
262,79,11831,5,2,1:0:0:0:
308,254,11988,1,8,0:0:0:0:
165,149,12145,1,10,0:0:0:0:
124,159,12224,1,8,0:0:0:0:
98,192,12302,1,8,0:0:0:0:
94,233,12381,1,8,0:0:0:0:
103,273,12459,2,0,P|115:305|126:336,3,46.4100002832642,10|8|10|8,0:0|0:0|0:3|0:3,0:0:0:0:
218,241,12774,2,0,P|225:219|234:197,1,46.4100002832642,4|4,0:3|0:3,0:0:0:0:
360,85,12931,6,0,B|345:190|419:157|399:274,1,185.640001133057,6|0,1:0|0:0,0:0:0:0:
461,111,13402,2,0,P|469:54|478:11,1,92.8200005665283,10|0,0:0|0:0,0:0:0:0:
303,229,13716,2,0,P|311:274|318:320,1,92.8200005665283,2|0,1:0|0:0,0:0:0:0:
178,122,14030,1,10,0:0:0:0:
134,260,14187,1,2,0:0:0:0:
295,132,14344,5,10,0:0:0:0:
295,132,14423,1,8,0:0:0:0:
295,132,14501,2,0,P|336:119|357:113,1,46.4100002832642,0|0,1:0|1:0,0:0:0:0:
455,232,14658,1,10,0:3:0:0:
455,232,14737,1,8,0:3:0:0:
455,232,14816,2,0,P|432:224|410:218,1,46.4100002832642,4|4,0:3|0:3,0:0:0:0:
249,339,14973,1,10,0:3:0:0:
294,221,15130,1,2,1:0:0:0:
377,327,15287,1,10,0:0:0:0:
136,252,15444,6,0,B|104:165|161:186|121:87,1,149.240002277222,4|2,1:0|0:0,0:0:0:0:
210,29,15915,2,0,P|255:30|297:49,1,74.6200011386109,8|2,0:0|0:0,0:0:0:0:
338,136,16229,2,0,P|375:136|410:124,1,74.6200011386109,10|0,0:0|0:0,0:0:0:0:
468,222,16543,2,0,P|460:264|451:310,1,74.6200011386109,10|0,0:0|0:0,0:0:0:0:
325,375,16857,6,0,P|313:327|296:293,1,74.6200011386109,10|0,0:0|1:0,0:0:0:0:
164,206,17172,2,0,P|149:240|141:276,1,74.6200011386109,10|0,0:0|1:0,0:0:0:0:
284,142,17486,1,10,0:0:0:0:
147,100,17643,1,2,1:0:0:0:
240,206,17800,1,10,0:0:0:0:
332,82,17957,2,0,P|377:65|422:70,1,74.6200011386109,2|8,1:0|0:0,0:0:0:0:
225,90,18271,5,2,0:0:0:0:
336,211,18428,2,0,P|381:228|426:223,1,74.6200011386109,10|0,0:0|0:0,0:0:0:0:
398,70,18742,2,0,P|391:118|385:159,1,74.6200011386109,10|2,0:0|1:0,0:0:0:0:
253,231,19056,2,0,P|247:194|242:157,1,74.6200011386109,10|2,0:0|1:0,0:0:0:0:
110,29,19370,6,0,P|77:80|79:177,1,149.240002277222,10|10,0:0|0:0,0:0:0:0:
41,277,19842,1,2,1:0:0:0:
123,328,19999,2,0,P|159:308|201:302,1,74.6200011386109,10|2,0:0|1:0,0:0:0:0:
225,302,20234,1,0,1:0:0:0:
225,302,20313,2,0,P|261:322|303:328,1,74.6200011386109,10|2,0:0|1:0,0:0:0:0:
389,255,20627,6,0,P|395:214|401:180,1,74.6200011386109,8|0,0:0|0:0,0:0:0:0:
282,69,20941,1,10,0:0:0:0:
320,191,21098,1,2,1:0:0:0:
387,80,21255,2,0,P|426:70|470:68,1,74.6200011386109,10|0,0:0|0:0,0:0:0:0:
292,207,21569,2,0,P|254:204|218:194,1,74.6200011386109,10|0,0:0|0:0,0:0:0:0:
61,72,21884,5,10,0:0:0:0:
200,107,22041,1,0,1:0:0:0:
28,90,22198,1,10,0:0:0:0:
123,222,22355,1,0,1:0:0:0:
132,61,22512,1,10,0:0:0:0:
40,227,22669,1,2,1:0:0:0:
164,91,22826,1,10,0:0:0:0:
177,281,22983,1,2,1:0:0:0:
296,152,23140,6,0,P|342:135|383:137,1,74.6200011386109,8|0,0:0|0:0,0:0:0:0:
338,307,23454,2,0,P|344:250|348:205,1,74.6200011386109,10|0,0:0|1:0,0:0:0:0:
345,232,23690,1,0,1:0:0:0:
345,232,23768,1,10,0:0:0:0:
214,122,23925,1,2,1:0:0:0:
214,122,24004,1,0,1:0:0:0:
214,122,24083,1,8,0:0:0:0:
126,314,24240,5,6,1:0:0:0:
112,280,25496,6,0,B|211:253|180:333|297:294,1,167.439994379151,4|2,1:0|0:0,0:0:0:0:
359,156,25967,2,0,P|346:208|340:245,1,83.7199971895753,10|0,0:0|0:0,0:0:0:0:
190,65,26281,1,2,1:0:0:0:
241,204,26439,1,8,0:3:0:0:
338,66,26596,2,0,P|377:48|432:43,1,83.7199971895753,10|0,0:0|0:0,0:0:0:0:
247,117,26910,5,2,1:0:0:0:
433,165,27067,1,2,0:0:0:0:
225,133,27224,1,10,0:0:0:0:
365,279,27381,1,2,0:0:0:0:
292,48,27538,1,2,1:0:0:0:
288,238,27695,1,10,0:3:0:0:
434,101,27852,1,10,0:0:0:0:
214,143,28009,6,0,B|120:124|152:196|44:172,1,167.439994379151,2|2,1:0|0:0,0:0:0:0:
176,324,28480,2,0,P|183:258|190:219,1,83.7199971895753,10|0,0:0|0:0,0:0:0:0:
100,374,28795,1,2,1:0:0:0:
60,237,28952,1,8,0:3:0:0:
213,320,29109,2,0,P|257:311|300:287,1,83.7199971895753,10|0,0:0|0:0,0:0:0:0:
210,129,29423,5,2,1:0:0:0:
403,212,29580,1,2,0:0:0:0:
238,103,29737,1,10,0:0:0:0:
291,293,29894,1,2,0:0:0:0:
396,127,30051,1,2,1:0:0:0:
346,349,30208,1,10,0:3:0:0:
283,172,30365,1,10,0:0:0:0:
458,327,30522,2,0,P|472:269|471:226,1,83.7199971895753,2|4,0:0|1:0,0:0:0:0:
392,102,30836,5,2,0:0:0:0:
276,268,30994,2,0,P|262:210|263:167,1,83.7199971895753,10|0,0:0|0:0,0:0:0:0:
188,365,31308,1,2,1:0:0:0:
70,188,31465,1,10,0:3:0:0:
113,336,31622,1,10,0:0:0:0:
177,151,31779,1,0,0:0:0:0:
256,283,31936,6,0,P|304:287|350:303,1,83.7199971895753,2|0,1:0|0:0,0:0:0:0:
113,336,32250,2,0,P|72:347|31:350,1,83.7199971895753,10|0,0:0|0:0,0:0:0:0:
183,244,32564,1,2,1:0:0:0:
29,193,32721,1,10,0:3:0:0:
173,126,32878,2,0,P|213:114|254:111,1,83.7199971895753,10|0,0:0|0:0,0:0:0:0:
346,252,33192,6,0,P|353:293|357:335,1,83.7199971895753,2|0,1:0|0:0,0:0:0:0:
430,162,33507,2,0,P|434:120|441:79,1,83.7199971895753,10|0,0:0|0:0,0:0:0:0:
469,270,33821,2,0,P|462:311|457:352,1,83.7199971895753,2|8,1:0|0:3,0:0:0:0:
327,144,34135,2,0,P|322:102|315:61,1,83.7199971895753,10|0,0:0|0:0,0:0:0:0:
110,26,34449,6,0,P|102:72|102:88,3,41.8599985947876,10|0|0|0,0:0|1:0|1:0|1:0,0:0:0:0:
177,121,34763,2,0,P|185:167|185:183,3,41.8599985947876,10|0|0|0,0:3|1:0|1:0|1:0,0:0:0:0:
101,220,35077,2,0,P|93:266|93:282,3,41.8599985947876,6|0|0|0,0:3|1:0|1:0|1:0,0:0:0:0:
169,313,35391,2,0,P|177:359|177:375,3,41.8599985947876,2|0|0|0,1:0|1:0|1:0|1:0,0:0:0:0:
281,288,35706,6,0,P|336:282|414:353,1,149.240002277222,6|0,1:0|1:0,0:0:0:0:
471,258,36177,1,0,0:0:0:0:
471,258,36334,2,0,P|465:207|460:177,1,74.6200011386109,2|0,1:0|0:0,0:0:0:0:
375,119,36648,2,0,P|381:68|386:38,1,74.6200011386109,0|0,1:0|0:0,0:0:0:0:
256,90,36962,6,0,B|236:176|284:148|269:244,1,149.240002277222,2|0,1:0|1:0,0:0:0:0:
187,315,37433,1,0,0:0:0:0:
187,315,37590,2,0,P|148:303|106:299,1,74.6200011386109,2|0,1:0|0:0,0:0:0:0:
28,232,37905,1,0,1:0:0:0:
119,116,38062,1,8,0:0:0:0:
119,116,38140,1,8,0:0:0:0:
119,116,38219,6,0,P|111:177|205:206,1,149.240002277222,4|0,1:0|1:0,0:0:0:0:
254,151,38690,1,0,0:0:0:0:
254,151,38847,2,0,P|308:163|340:172,1,74.6200011386109,0|0,1:0|0:0,0:0:0:0:
420,257,39161,2,0,P|383:266|347:274,1,74.6200011386109,0|0,1:0|0:0,0:0:0:0:
247,349,39475,6,0,P|202:337|165:328,1,74.6200011386109,0|0,1:0|0:0,0:0:0:0:
43,255,39789,2,0,P|79:246|115:236,1,74.6200011386109,0|8,1:0|0:0,0:0:0:0:
206,127,40103,1,2,1:0:0:0:
174,292,40261,1,10,0:0:0:0:
103,149,40418,1,2,1:0:0:0:
261,225,40575,1,10,0:3:0:0:
133,359,40732,6,0,P|122:304|111:264,1,74.6200011386109,4|0,1:0|0:0,0:0:0:0:
260,224,41046,2,0,P|251:260|245:297,1,74.6200011386109,2|2,1:0|0:0,0:0:0:0:
378,374,41360,2,0,P|367:319|356:279,1,74.6200011386109,0|0,1:0|0:0,0:0:0:0:
500,240,41674,2,0,P|491:276|485:313,1,74.6200011386109,2|2,1:0|0:0,0:0:0:0:
453,88,41988,6,0,P|412:74|378:55,1,74.6200011386109,0|0,1:0|0:0,0:0:0:0:
241,36,42302,2,0,P|278:68|297:97,1,74.6200011386109,2|2,1:0|0:0,0:0:0:0:
276,270,42617,2,0,P|267:225|268:192,1,74.6200011386109,0|0,1:0|0:0,0:0:0:0:
137,100,42931,2,0,P|144:149|137:191,1,74.6200011386109,2|10,1:0|0:0,0:0:0:0:
91,240,43166,1,8,0:0:0:0:
91,240,43245,6,0,P|84:289|91:331,1,74.6200011386109,4|0,1:0|0:0,0:0:0:0:
204,366,43559,2,0,P|206:328|199:292,1,74.6200011386109,0|0,1:0|0:0,0:0:0:0:
319,198,43873,2,0,P|312:247|319:289,1,74.6200011386109,0|0,1:0|0:0,0:0:0:0:
430,329,44187,2,0,P|432:291|425:255,1,74.6200011386109,0|0,1:0|0:0,0:0:0:0:
231,75,44501,5,2,1:0:0:0:
336,124,44658,2,0,P|383:114|437:99,1,74.6200011386109,8|2,0:0|1:0,0:0:0:0:
228,201,44973,1,8,0:3:0:0:
398,235,45130,2,0,P|361:225|325:218,1,74.6200011386109,2|8,1:0|0:0,0:0:0:0:
151,341,45444,1,10,0:0:0:0:
185,355,45522,1,8,0:0:0:0:
221,347,45601,1,8,0:0:0:0:
249,322,45679,1,8,0:0:0:0:
273,288,45758,6,0,B|291:182|226:227|261:98,1,167.439994379151,6|8,1:0|0:0,0:0:0:0:
183,249,46229,1,0,0:0:0:0:
339,159,46386,2,0,P|381:146|428:146,1,83.7199971895753,2|0,1:0|1:0,0:0:0:0:
196,264,46700,2,0,P|154:262|114:250,1,83.7199971895753,8|2,0:0|0:0,0:0:0:0:
345,364,47014,6,0,P|392:356|388:242,1,167.439994379151,2|10,1:0|0:0,0:0:0:0:
247,157,47486,1,0,0:0:0:0:
348,52,47643,2,0,P|362:111|366:145,1,83.7199971895753,2|0,1:0|1:0,0:0:0:0:
199,249,47957,2,0,P|205:207|216:167,1,83.7199971895753,10|0,0:0|1:0,0:0:0:0:
145,116,48192,1,0,1:0:0:0:
145,116,48271,6,0,P|138:74|127:34,1,83.7199971895753,0|0,1:0|1:0,0:0:0:0:
81,241,48585,1,8,0:0:0:0:
34,124,48742,1,0,0:0:0:0:
230,186,48899,2,0,P|236:144|247:104,1,83.7199971895753,0|0,1:0|1:0,0:0:0:0:
171,309,49213,1,10,0:0:0:0:
104,196,49370,1,0,1:0:0:0:
104,196,49449,1,0,1:0:0:0:
104,196,49528,6,0,P|57:186|20:186,1,83.7199971895753,2|0,1:0|1:0,0:0:0:0:
204,325,49842,2,0,P|157:335|120:335,1,83.7199971895753,10|0,0:0|1:0,0:0:0:0:
334,206,50156,2,0,P|381:196|418:196,1,83.7199971895753,10|0,0:0|1:0,0:0:0:0:
188,132,50470,1,10,0:0:0:0:
281,311,50627,5,0,1:0:0:0:
281,311,50706,1,0,1:0:0:0:
281,311,50784,2,0,P|290:256|304:207,1,83.7199971895753,14|0,0:0|1:0,0:0:0:0:
374,365,51098,1,0,1:0:0:0:
181,230,51255,2,0,P|172:175|158:126,1,83.7199971895753,14|2,0:0|1:0,0:0:0:0:
88,285,51569,1,0,1:0:0:0:
284,145,51727,2,0,P|293:90|307:41,1,83.7199971895753,10|0,0:0|1:0,0:0:0:0:
350,228,52041,5,14,0:0:0:0:
196,88,52198,1,0,1:0:0:0:
386,44,52355,1,2,1:0:0:0:
246,226,52512,5,12,0:0:0:0:
253,26,52669,1,2,1:0:0:0:
415,151,52826,1,0,1:0:0:0:
148,87,52983,5,10,0:0:0:0:
253,279,53140,1,0,1:0:0:0:
307,35,53297,5,14,0:0:0:0:
157,203,53454,1,0,1:0:0:0:
157,203,53533,1,0,1:0:0:0:
157,203,53611,1,0,1:0:0:0:
382,92,53768,5,14,0:0:0:0:
324,312,53925,1,0,1:0:0:0:
324,312,54004,1,0,1:0:0:0:
324,312,54083,1,0,1:0:0:0:
233,102,54240,5,14,0:0:0:0:
456,149,54397,1,8,0:0:0:0:
159,314,54711,6,0,P|120:337|75:334,2,83.7199971895753,2|2|2,0:0|0:0|0:0,0:0:0:0:
206,239,55182,1,2,0:0:0:0:
206,239,55339,2,0,P|198:200|208:151,1,70.9799995667725,2|0,0:0|0:0,0:0:0:0:
245,96,55661,6,0,B|360:84|325:170|454:147,1,203.840002488281,6|0,1:0|0:0,0:0:0:0:
301,289,56132,2,0,P|295:238|284:189,1,101.920001244141,10|0,0:0|0:0,0:0:0:0:
159,40,56446,2,0,P|147:90|143:141,1,101.920001244141,2|0,1:0|0:0,0:0:0:0:
46,328,56760,2,0,P|79:272|174:282,1,152.880001866211,10|0,0:0|0:0,0:0:0:0:
195,306,57074,6,0,P|262:288|317:282,1,101.920001244141,2|0,1:0|0:0,0:0:0:0:
452,182,57388,1,10,0:0:0:0:
404,332,57545,1,2,0:0:0:0:
317,182,57702,2,0,P|308:124|298:73,1,101.920001244141,0|0,1:0|0:0,0:0:0:0:
194,233,58016,2,0,P|184:283|176:333,1,101.920001244141,8|2,0:0|0:0,0:0:0:0:
96,47,58331,5,2,1:0:0:0:
35,208,58488,1,2,0:0:0:0:
172,75,58645,1,10,0:0:0:0:
200,253,58802,1,2,0:0:0:0:
70,134,58959,1,2,1:0:0:0:
105,305,59116,1,2,0:0:0:0:
189,161,59273,2,0,P|234:133|289:129,1,101.920001244141,8|2,0:0|0:0,0:0:0:0:
440,272,59587,6,0,B|363:291|380:228|289:249,1,152.880001866211,2|0,1:0|0:0,0:0:0:0:
258,282,59901,2,0,P|203:297|143:272,1,101.920001244141,10|0,0:0|0:0,0:0:0:0:
173,24,60215,2,0,P|192:105|203:186,1,152.880001866211,2|0,1:0|0:0,0:0:0:0:
204,213,60530,1,10,0:0:0:0:
291,58,60687,1,8,0:0:0:0:
291,58,60765,1,8,0:0:0:0:
291,58,60844,6,0,P|351:49|390:145,1,152.880001866211,6|0,1:0|0:0,0:0:0:0:
419,151,61158,2,0,P|403:205|396:258,1,101.920001244141,10|0,0:0|0:0,0:0:0:0:
264,362,61472,2,0,P|256:311|241:262,1,101.920001244141,2|0,1:0|0:0,0:0:0:0:
86,106,61786,2,0,P|63:175|59:259,1,152.880001866211,10|0,0:0|0:0,0:0:0:0:
66,298,62100,6,0,P|125:273|182:267,1,101.920001244141,2|0,1:0|0:0,0:0:0:0:
360,371,62414,2,0,P|310:361|263:340,1,101.920001244141,8|0,0:0|0:0,0:0:0:0:
425,241,62728,1,2,1:0:0:0:
261,154,62886,1,2,0:0:0:0:
418,85,63043,1,10,0:0:0:0:
250,237,63200,6,0,P|237:171|219:115,1,101.920001244141,10|0,0:0|1:0,0:0:0:0:
95,25,63514,2,0,P|81:74|72:124,1,101.920001244141,10|0,0:0|1:0,0:0:0:0:
48,162,63749,1,0,1:0:0:0:
48,162,63828,2,0,P|57:200|62:227,1,50.9600006220703,10|8,0:0|0:0,0:0:0:0:
147,316,63985,1,8,0:0:0:0:
178,275,64064,1,8,0:0:0:0:
226,261,64142,1,10,0:0:0:0:
275,273,64221,1,8,0:0:0:0:
315,303,64299,2,0,P|309:350|306:368,1,50.9600006220703,8|4,0:3|0:3,0:0:0:0:
422,296,64456,6,0,B|405:203|462:239|434:125,1,166.529993139176,6|0,1:0|0:0,0:0:0:0:
355,82,64770,2,0,P|355:146|440:117,1,166.529993139176,10|0,1:3|0:0,0:0:0:0:
433,49,65085,2,0,P|355:43|250:30,1,166.529993139176,10|0,1:3|0:0,0:0:0:0:
194,6,65399,2,0,B|176:98|236:65|220:171,1,166.529993139176,10|0,1:2|0:0,0:0:0:0:
145,198,65713,6,0,B|252:183|215:256|335:245,1,185.640001133057,6|0,1:0|0:0,0:0:0:0:
413,346,66184,2,0,P|421:280|430:242,1,92.8200005665283,0|0,1:0|0:0,0:0:0:0:
333,79,66498,2,0,P|342:124|346:170,1,92.8200005665283,2|0,1:0|0:0,0:0:0:0:
193,28,66812,1,2,1:0:0:0:
127,99,66969,2,0,P|117:144|113:190,1,92.8200005665283,2|0,0:0|1:0,0:0:0:0:
244,93,67283,1,2,0:0:0:0:
310,164,67441,2,0,P|319:209|323:255,1,92.8200005665283,0|0,1:0|0:0,0:0:0:0:
125,169,67755,5,2,1:0:0:0:
188,316,67912,1,10,0:3:0:0:
229,118,68069,1,6,0:3:0:0:
51,295,68226,2,0,B|156:274|126:352|241:328,1,185.640001133057,14|2,0:0|0:0,0:0:0:0:
325,275,68697,1,0,1:0:0:0:
325,275,68854,2,0,P|369:298|416:300,1,92.8200005665283,2|0,0:0|1:0,0:0:0:0:
403,108,69168,2,0,P|393:163|386:212,1,92.8200005665283,2|0,0:0|1:0,0:0:0:0:
297,44,69482,1,2,0:0:0:0:
225,168,69639,6,0,P|214:207|210:225,3,46.4100002832642,8|8|10|8,1:2|0:0|0:0|0:0,0:0:0:0:
150,104,69954,2,0,P|144:81|137:59,3,46.4100002832642,10|8|10|8,1:2|0:0|0:0|0:0,0:0:0:0:
66,172,70268,1,10,1:2:0:0:
43,212,70346,1,8,0:0:0:0:
42,258,70425,1,8,0:0:0:0:
70,294,70503,1,8,0:0:0:0:
113,312,70582,2,0,P|154:303|179:300,3,46.4100002832642,10|8|0|0,1:2|0:0|1:0|1:0,0:0:0:0:
236,330,70896,5,8,0:0:0:0:
341,208,71053,1,0,1:0:0:0:
305,384,71210,1,2,1:0:0:0:
262,179,71367,5,8,0:0:0:0:
367,312,71524,1,2,1:0:0:0:
399,136,71681,1,0,1:0:0:0:
287,276,71838,5,10,0:0:0:0:
251,72,71996,1,2,1:0:0:0:
352,172,72153,1,0,1:0:0:0:
158,79,72310,5,10,0:0:0:0:
327,33,72467,1,2,1:0:0:0:
128,167,72624,1,2,1:0:0:0:
345,200,72781,5,10,0:0:0:0:
234,118,72938,1,2,1:0:0:0:
123,277,73095,2,0,P|79:298|28:297,1,92.8200005665283,10|0,0:0|1:0,0:0:0:0:
166,131,73409,6,0,P|212:132|253:152,1,92.8200005665283,8|4,0:3|0:3,0:0:0:0:
296,187,73645,1,4,0:3:0:0:
296,187,73723,2,0,P|338:177|366:174,3,46.4100002832642,10|0|0|0,0:0|1:0|1:0|1:0,0:0:0:0:
186,236,74037,2,0,P|163:231|140:225,3,46.4100002832642,10|0|0|0,0:3|1:0|1:0|1:0,0:0:0:0:
289,322,74352,2,0,P|311:326|334:332,3,46.4100002832642,2|0|2|0,1:0|1:0|1:0|1:0,0:0:0:0:
411,295,74666,5,8,0:0:0:0:
441,260,74744,1,8,0:0:0:0:
451,214,74823,1,2,1:0:0:0:
445,168,74901,1,0,1:0:0:0:
415,131,74980,1,8,0:0:0:0:
372,112,75058,1,8,0:0:0:0:
325,115,75137,1,2,1:0:0:0:
288,143,75215,1,0,1:0:0:0:
271,187,75294,2,0,P|259:231|254:249,1,46.4100002832642,10|8,0:3|0:3,0:0:0:0:
173,107,75451,2,0,P|166:84|160:62,1,46.4100002832642,6|0,0:3|1:0,0:0:0:0:
96,221,75608,1,10,0:0:0:0:
295,75,75765,6,0,P|368:75|439:187,1,203.840002488281,6|0,1:0|0:0,0:0:0:0:
316,327,76236,2,0,P|307:265|294:211,1,101.920001244141,8|0,0:0|0:0,0:0:0:0:
196,61,76550,2,0,P|185:110|178:161,1,101.920001244141,0|0,1:0|0:0,0:0:0:0:
78,307,76865,2,0,P|71:256|60:206,1,101.920001244141,8|0,0:0|0:0,0:0:0:0:
274,111,77179,6,0,P|332:95|391:85,1,101.920001244141,0|0,1:0|0:0,0:0:0:0:
159,230,77493,2,0,P|108:220|59:206,1,101.920001244141,8|0,0:0|0:0,0:0:0:0:
299,194,77807,1,2,1:0:0:0:
140,112,77964,1,8,0:3:0:0:
235,309,78121,1,8,0:0:0:0:
391,86,78278,6,0,B|356:191|434:170|403:285,1,203.840002488281,6|0,1:0|0:0,0:0:0:0:
281,165,78749,2,0,P|269:103|257:47,1,101.920001244141,8|0,0:0|0:0,0:0:0:0:
179,245,79064,2,0,P|168:294|158:344,1,101.920001244141,0|0,1:0|0:0,0:0:0:0:
65,168,79378,2,0,P|55:117|44:68,1,101.920001244141,8|0,0:0|0:0,0:0:0:0:
270,330,79692,6,0,P|320:325|367:305,1,101.920001244141,0|0,1:0|0:0,0:0:0:0:
162,192,80006,2,0,P|115:171|64:167,1,101.920001244141,8|0,0:0|0:0,0:0:0:0:
317,157,80320,1,2,1:0:0:0:
164,307,80477,1,8,0:3:0:0:
171,92,80634,1,8,0:0:0:0:
270,330,80791,6,0,B|383:365|355:279|490:318,1,203.840002488281,6|0,1:0|0:0,0:0:0:0:
343,139,81263,2,0,P|318:189|311:239,1,101.920001244141,8|0,0:0|0:0,0:0:0:0:
504,68,81577,2,0,P|432:59|386:52,1,101.920001244141,0|0,1:0|0:0,0:0:0:0:
210,247,81891,2,0,P|260:239|311:233,1,101.920001244141,8|0,0:0|0:0,0:0:0:0:
122,51,82205,5,8,0:0:0:0:
122,51,82283,1,8,0:0:0:0:
122,51,82362,2,0,P|132:85|136:108,1,50.9600006220703,0|0,1:0|1:0,0:0:0:0:
39,205,82519,1,8,0:3:0:0:
39,205,82598,1,8,0:3:0:0:
39,205,82676,2,0,P|29:171|25:148,1,50.9600006220703,0|0,1:0|1:0,0:0:0:0:
175,219,82833,2,0,P|185:253|189:276,2,50.9600006220703,0|0|10,1:0|1:0|0:0,0:0:0:0:
172,183,83304,6,0,P|162:252|281:297,1,203.840002488281,6|0,1:0|0:0,0:0:0:0:
351,234,83776,2,0,P|415:240|463:249,1,101.920001244141,10|0,0:0|0:0,0:0:0:0:
253,322,84090,2,0,P|202:330|151:334,1,101.920001244141,2|0,1:0|0:0,0:0:0:0:
356,143,84404,1,10,0:0:0:0:
334,306,84561,1,2,0:0:0:0:
190,120,84718,6,0,P|203:185|211:227,1,101.920001244141,2|0,1:0|0:0,0:0:0:0:
377,140,85032,2,0,P|386:89|396:40,1,101.920001244141,10|0,0:0|0:0,0:0:0:0:
410,271,85346,1,2,1:0:0:0:
297,138,85503,1,2,0:0:0:0:
410,306,85660,1,10,0:0:0:0:
457,124,85817,1,2,0:0:0:0:
275,283,85975,5,8,0:0:0:0:
275,283,86053,1,0,1:0:0:0:
275,283,86132,2,0,P|251:281|223:273,1,50.9600006220703,0|0,1:0|1:0,0:0:0:0:
97,237,86289,1,10,0:0:0:0:
97,237,86367,1,0,1:0:0:0:
97,237,86446,2,0,P|104:279|108:300,1,50.9600006220703,2|0,1:0|1:0,0:0:0:0:
213,140,86603,1,10,0:0:0:0:
213,140,86681,1,0,1:0:0:0:
213,140,86760,2,0,P|220:98|224:77,1,50.9600006220703,0|0,1:0|1:0,0:0:0:0:
226,253,86917,2,0,P|221:278|217:303,1,50.9600006220703,10|0,0:0|1:0,0:0:0:0:
103,129,87074,2,0,P|98:103|94:78,1,50.9600006220703,0|0,1:0|1:0,0:0:0:0:
86,300,87231,5,8,0:0:0:0:
358,88,88331,5,6,1:0:0:0:
