osu file format v14

[General]
AudioFilename: audio.mp3
AudioLeadIn: 0
PreviewTime: 55555
Countdown: 0
SampleSet: Soft
StackLeniency: 0.2
Mode: 0
LetterboxInBreaks: 0
WidescreenStoryboard: 1

[Editor]
DistanceSpacing: 1.7
BeatDivisor: 16
GridSize: 4
TimelineZoom: 8

[Metadata]
Title:ADAMAS (TV Size)
TitleUnicode:ADAMAS (TV Size)
Artist:LiSA
ArtistUnicode:LiSA
Creator:Sotarks
Version:NiNo's iNSANE
Source:ソードアート・オンライン アリシゼーション
Tags:sword art online sao alicization season three 3 kirito asuna eugeo alice opening op shogunmoon shunao -laura- corinn akitoshi armin a_r_m_i_n snownino_ reform kujinn
BeatmapID:1796421
BeatmapSetID:859718

[Difficulty]
HPDrainRate:4.8
CircleSize:3.8
OverallDifficulty:8
ApproachRate:9
SliderMultiplier:1.8
SliderTickRate:1

[Events]
//Background and Video events
Video,-40,"video.avi"
0,0,"bg.jpg",0,0
//Break Periods
//Storyboard Layer 0 (Background)
//Storyboard Layer 1 (Fail)
//Storyboard Layer 2 (Pass)
//Storyboard Layer 3 (Foreground)
//Storyboard Sound Samples

[TimingPoints]
537,314.13612565445,4,2,22,42,1,0
537,-133.333333333333,4,2,22,42,0,0
5392,314.13612565445,4,2,22,72,1,0
5549,314.13612565445,4,2,22,72,1,0
15758,-133.333333333333,4,2,22,52,0,0
25496,-100,4,2,22,62,0,0
35706,-133.333333333333,4,2,22,52,0,0
45758,-100,4,2,22,62,0,0
55661,314.13612565445,4,2,22,82,1,1
55818,314.13612565445,4,2,22,82,1,1
65713,-100,4,2,22,72,0,1
75765,-100,4,2,22,82,0,0
88331,-100,4,2,22,72,0,0

[Colours]
Combo1 : 248,181,255
Combo2 : 251,255,87
Combo3 : 168,240,255

[HitObjects]
156,183,537,6,0,L|59:175,2,67.5000025749208,2|0|0,3:0|0:0|3:0,0:0:0:0:
238,190,1008,2,0,L|231:273,2,67.5000025749208,2|0|0,0:0|0:0|0:0,0:0:0:0:
320,196,1479,2,0,L|327:113,2,67.5000025749208,2|0|0,3:0|0:0|0:0,0:0:0:0:
313,279,1950,2,0,L|396:286,2,67.5000025749208,2|0|0,0:0|3:0|0:0,0:0:0:0:
230,272,2421,5,2,3:0:0:0:
238,190,2578,1,0,3:0:0:0:
320,196,2735,1,2,3:0:0:0:
313,279,2893,1,0,0:0:0:0:
230,272,3050,6,0,L|148:265,2,67.5000025749208,2|0|0,3:0|0:0|3:0,0:0:0:0:
238,190,3521,2,0,L|245:107,2,67.5000025749208,2|0|0,0:0|0:0|0:0,0:0:0:0:
320,196,3992,2,0,L|403:203,2,67.5000025749208,2|0|0,3:0|0:0|3:0,0:0:0:0:
313,279,4463,2,0,L|306:361,1,67.5000025749208,0|2,3:0|3:0,0:0:0:0:
230,272,4777,1,2,3:0:0:0:
230,272,5392,6,0,P|116:263|90:184,1,180,6|0,1:0|0:0,0:0:0:0:
179,199,5863,2,0,P|224:183|288:200,1,90,10|0,0:0|0:0,0:0:0:0:
317,261,6177,2,0,P|272:277|208:260,1,90,2|0,1:0|0:0,0:0:0:0:
141,281,6491,2,0,L|144:378,1,90,10|2,0:0|0:0,0:0:0:0:
53,376,6805,6,0,L|50:286,1,90,2|0,1:0|0:0,0:0:0:0:
47,196,7119,2,0,L|44:106,1,90,10|0,0:0|0:0,0:0:0:0:
85,26,7433,1,2,1:0:0:0:
135,101,7590,2,0,L|137:190,1,90,2|8,0:0|0:0,0:0:0:0:
139,279,7905,6,0,P|179:219|290:231,1,180,2|0,1:0|0:0,0:0:0:0:
330,294,8376,2,0,P|382:307|429:292,1,90,10|0,0:0|0:0,0:0:0:0:
470,226,8690,2,0,L|464:123,1,90,2|0,1:0|0:0,0:0:0:0:
458,46,9004,2,0,P|406:33|359:48,1,90,10|0,0:0|0:0,0:0:0:0:
312,108,9318,6,0,P|260:121|213:106,1,90,2|0,1:0|0:0,0:0:0:0:
137,92,9632,2,0,L|142:181,1,90,10|0,0:0|0:0,0:0:0:0:
229,206,9946,1,10,0:0:0:0:
228,228,10025,1,8,0:0:0:0:
226,251,10103,1,10,0:0:0:0:
225,273,10182,1,8,0:0:0:0:
224,296,10261,1,8,0:0:0:0:
223,319,10339,1,8,0:0:0:0:
222,342,10418,6,0,P|275:373|368:295,1,180,6|0,1:0|0:0,0:0:0:0:
415,239,10889,2,0,P|405:185|417:132,1,90,10|0,0:0|0:0,0:0:0:0:
447,68,11203,2,0,L|347:59,1,90,2|0,1:0|0:0,0:0:0:0:
283,8,11517,2,0,L|183:17,1,90,10|2,0:0|0:0,0:0:0:0:
120,68,11831,5,2,1:0:0:0:
200,107,11988,1,8,0:0:0:0:
40,29,12145,1,10,0:0:0:0:
39,51,12224,1,8,0:0:0:0:
38,73,12302,1,8,0:0:0:0:
37,96,12381,1,8,0:0:0:0:
36,118,12459,1,10,0:0:0:0:
35,141,12538,1,8,0:0:0:0:
34,163,12617,1,10,0:3:0:0:
34,186,12695,1,8,0:3:0:0:
33,208,12774,2,0,L|31:252,1,45,4|4,0:3|0:3,0:0:0:0:
23,343,12931,6,0,P|53:290|178:306,1,180,6|0,1:0|0:0,0:0:0:0:
228,349,13402,1,10,0:0:0:0:
228,349,13559,1,0,0:0:0:0:
247,260,13716,2,0,L|243:155,1,90,2|0,1:0|0:0,0:0:0:0:
158,199,14030,2,0,L|161:288,1,90,10|2,0:0|0:0,0:0:0:0:
261,256,14344,5,10,0:0:0:0:
260,233,14423,1,8,0:0:0:0:
259,211,14501,1,0,1:0:0:0:
258,188,14580,1,0,1:0:0:0:
257,166,14658,2,0,L|255:121,1,45,10|8,0:3|0:3,0:0:0:0:
171,91,14816,2,0,L|172:46,1,45,4|4,0:3|0:3,0:0:0:0:
255,7,14973,5,10,0:3:0:0:
317,66,15130,1,2,1:0:0:0:
400,27,15287,1,10,0:0:0:0:
462,86,15444,1,4,1:0:0:0:
462,86,15758,5,2,0:0:0:0:
497,158,15915,2,0,L|493:227,1,67.5000025749208,8|2,0:0|0:0,0:0:0:0:
412,221,16229,2,0,L|415:153,1,67.5000025749208,10|0,0:0|0:0,0:0:0:0:
333,148,16543,2,0,L|330:216,1,67.5000025749208,10|0,0:0|0:0,0:0:0:0:
248,211,16857,2,0,L|251:143,1,67.5000025749208,10|0,0:0|1:0,0:0:0:0:
169,138,17172,2,0,L|165:205,1,67.5000025749208,10|0,0:0|1:0,0:0:0:0:
82,199,17486,2,0,L|86:132,2,67.5000025749208,10|2|10,0:0|1:0|0:0,0:0:0:0:
118,271,17957,1,2,1:0:0:0:
118,271,18114,6,0,L|114:338,1,67.5000025749208,8|2,0:0|0:0,0:0:0:0:
196,343,18428,2,0,L|200:276,1,67.5000025749208,10|0,0:0|0:0,0:0:0:0:
281,280,18742,2,0,L|278:348,1,67.5000025749208,10|0,0:0|0:0,0:0:0:0:
360,353,19056,2,0,L|364:286,1,67.5000025749208,10|2,0:0|1:0,0:0:0:0:
438,253,19370,2,0,L|428:93,1,135.000005149842,10|10,0:0|0:0,0:0:0:0:
427,37,19842,1,2,1:0:0:0:
427,37,19999,2,0,P|393:28|348:36,1,67.5000025749208,10|2,0:0|1:0,0:0:0:0:
330,58,20234,1,0,1:0:0:0:
330,58,20313,2,0,P|296:61|264:52,1,67.5000025749208,10|2,0:0|1:0,0:0:0:0:
185,32,20627,6,0,L|180:115,1,67.5000025749208,8|0,0:0|0:0,0:0:0:0:
260,119,20941,2,0,L|264:51,1,67.5000025749208,10|2,0:0|1:0,0:0:0:0:
173,42,21255,2,0,L|168:125,1,67.5000025749208,10|0,0:0|0:0,0:0:0:0:
248,129,21569,2,0,L|252:61,1,67.5000025749208,10|0,0:0|0:0,0:0:0:0:
161,52,21884,2,0,L|156:135,1,67.5000025749208,10|0,0:0|1:0,0:0:0:0:
236,139,22198,2,0,L|240:71,1,67.5000025749208,10|0,0:0|1:0,0:0:0:0:
149,62,22512,2,0,L|144:145,2,67.5000025749208,10|2|10,0:0|1:0|0:0,0:0:0:0:
68,54,22983,1,2,1:0:0:0:
68,54,23140,6,0,L|63:121,1,67.5000025749208,8|0,0:0|0:0,0:0:0:0:
9,181,23454,2,0,L|13:248,1,67.5000025749208,10|0,0:0|1:0,0:0:0:0:
16,288,23690,1,0,1:0:0:0:
16,288,23768,2,0,P|56:274|94:280,1,67.5000025749208,10|2,0:0|1:0,0:0:0:0:
110,302,24004,1,0,1:0:0:0:
110,302,24083,1,8,0:0:0:0:
158,367,24240,1,6,1:0:0:0:
158,367,25496,6,0,L|348:361,1,180,4|2,1:0|0:0,0:0:0:0:
428,358,25967,2,0,P|412:320|423:253,1,90,10|0,0:0|0:0,0:0:0:0:
491,225,26281,1,2,1:0:0:0:
411,183,26439,1,8,0:3:0:0:
334,230,26596,1,10,0:0:0:0:
254,188,26753,1,0,0:0:0:0:
177,235,26910,5,2,1:0:0:0:
174,144,27067,1,2,0:0:0:0:
97,191,27224,1,10,0:0:0:0:
94,100,27381,1,2,0:0:0:0:
17,147,27538,2,0,P|6:191|31:254,1,90,2|10,1:0|0:3,0:0:0:0:
100,282,27852,1,10,0:0:0:0:
97,191,28009,2,0,P|108:147|83:84,1,90,2|0,1:0|0:0,0:0:0:0:
26,48,28323,5,2,0:0:0:0:
110,16,28480,2,0,L|204:21,1,90,10|0,0:0|0:0,0:0:0:0:
277,69,28795,1,2,1:0:0:0:
197,111,28952,1,8,0:3:0:0:
275,160,29109,1,10,0:0:0:0:
195,202,29266,1,0,0:0:0:0:
273,251,29423,5,2,1:0:0:0:
275,160,29580,1,2,0:0:0:0:
353,209,29737,1,10,0:0:0:0:
355,118,29894,1,2,0:0:0:0:
433,167,30051,2,0,P|441:217|422:266,1,90,2|10,1:0|0:3,0:0:0:0:
275,160,30365,1,10,0:0:0:0:
435,76,30522,1,2,0:0:0:0:
273,251,30679,6,0,P|223:236|194:203,1,90,4|2,1:0|0:0,0:0:0:0:
355,118,30994,1,10,0:0:0:0:
351,300,31151,1,0,0:0:0:0:
275,160,31308,1,2,1:0:0:0:
353,209,31465,1,10,0:3:0:0:
273,251,31622,1,10,0:0:0:0:
351,300,31779,1,0,0:0:0:0:
271,342,31936,6,0,L|175:334,1,90,2|0,1:0|0:0,0:0:0:0:
183,243,32250,2,0,L|272:250,1,90,10|0,0:0|0:0,0:0:0:0:
351,300,32564,1,2,1:0:0:0:
354,206,32721,1,10,0:3:0:0:
433,255,32878,2,0,P|444:308|429:353,1,90,10|0,0:0|0:0,0:0:0:0:
272,250,33192,6,0,P|261:197|276:152,1,90,2|0,1:0|0:0,0:0:0:0:
351,300,33507,2,0,P|310:336|264:345,1,90,10|0,0:0|0:0,0:0:0:0:
356,213,33821,2,0,P|407:229|438:265,1,90,2|8,1:0|0:3,0:0:0:0:
272,250,34135,2,0,P|220:233|189:197,1,90,10|0,0:0|0:0,0:0:0:0:
274,76,34449,6,0,P|285:129|270:174,1,90,10|0,0:0|1:0,0:0:0:0:
195,208,34763,2,0,P|183:154|199:110,1,90,10|0,0:3|1:0,0:0:0:0:
277,163,35077,2,0,L|381:171,1,90,6|0,0:3|1:0,0:0:0:0:
362,257,35391,2,0,L|272:250,1,90,2|0,1:0|1:0,0:0:0:0:
195,208,35706,5,6,1:0:0:0:
290,360,36020,1,0,1:0:0:0:
442,265,36334,1,2,1:0:0:0:
347,113,36648,1,0,1:0:0:0:
195,208,36962,6,0,L|116:203,1,67.5000025749208,2|0,1:0|0:0,0:0:0:0:
46,198,37276,2,0,L|41:265,1,67.5000025749208,0|0,1:0|0:0,0:0:0:0:
36,346,37590,2,0,L|115:351,1,67.5000025749208,2|0,1:0|0:0,0:0:0:0:
185,356,37905,2,0,L|189:288,1,67.5000025749208,0|8,1:0|0:0,0:0:0:0:
191,248,38140,1,8,0:0:0:0:
191,248,38219,5,4,1:0:0:0:
242,94,38533,1,0,1:0:0:0:
396,144,38847,1,0,1:0:0:0:
345,298,39161,1,0,1:0:0:0:
191,248,39475,6,0,L|113:243,1,67.5000025749208,0|0,1:0|0:0,0:0:0:0:
42,235,39789,2,0,L|47:157,1,67.5000025749208,0|8,1:0|0:0,0:0:0:0:
127,166,40103,2,0,L|205:171,2,67.5000025749208,2|10|2,1:0|0:0|1:0,0:0:0:0:
85,96,40575,1,10,0:3:0:0:
163,77,40732,6,0,L|241:82,1,67.5000025749208,4|0,1:0|0:0,0:0:0:0:
299,39,41046,2,0,L|333:109,1,67.5000025749208,2|2,1:0|0:0,0:0:0:0:
399,137,41360,2,0,L|355:202,1,67.5000025749208,0|0,1:0|0:0,0:0:0:0:
363,273,41674,2,0,L|285:268,1,67.5000025749208,2|2,1:0|0:0,0:0:0:0:
239,209,41988,6,0,L|161:214,1,67.5000025749208,0|0,1:0|0:0,0:0:0:0:
90,219,42302,2,0,P|98:183|92:137,1,67.5000025749208,2|2,1:0|0:0,0:0:0:0:
26,110,42617,2,0,P|24:76|32:43,1,67.5000025749208,0|0,1:0|0:0,0:0:0:0:
110,21,42931,2,0,L|188:26,1,67.5000025749208,2|10,1:0|0:0,0:0:0:0:
201,57,43166,1,8,0:0:0:0:
201,57,43245,6,0,L|279:62,1,67.5000025749208,4|0,1:0|0:0,0:0:0:0:
320,122,43559,2,0,L|398:117,1,67.5000025749208,0|0,1:0|0:0,0:0:0:0:
467,127,43873,2,0,P|477:176|471:211,1,67.5000025749208,0|0,1:0|0:0,0:0:0:0:
413,244,44187,2,0,P|403:293|409:328,1,67.5000025749208,0|0,1:0|0:0,0:0:0:0:
345,365,44501,6,0,P|310:335|209:344,1,135.000005149842,2|2,1:0|1:0,0:0:0:0:
152,372,44973,1,8,0:3:0:0:
116,299,45130,2,0,L|121:216,1,67.5000025749208,2|8,1:0|0:0,0:0:0:0:
187,186,45444,1,10,0:0:0:0:
185,169,45522,1,8,0:0:0:0:
184,152,45601,1,8,0:0:0:0:
183,135,45679,1,8,0:0:0:0:
182,118,45758,6,0,P|179:64|306:33,1,180,6|8,1:0|0:0,0:0:0:0:
352,70,46229,1,0,0:0:0:0:
352,70,46386,2,0,L|346:260,1,180,2|8,1:0|0:0,0:0:0:0:
340,340,46857,1,2,1:0:0:0:
340,340,46936,1,0,1:0:0:0:
340,340,47014,6,0,P|287:321|236:329,1,90,2|0,1:0|0:0,0:0:0:0:
176,368,47329,2,0,P|131:368|90:351,1,90,10|0,0:0|0:0,0:0:0:0:
33,281,47643,2,0,L|42:180,1,90,2|0,1:0|1:0,0:0:0:0:
123,155,47957,2,0,L|114:54,1,90,10|0,0:0|1:0,0:0:0:0:
108,20,48192,1,0,1:0:0:0:
108,20,48271,6,0,P|154:33|204:25,1,90,0|0,1:0|1:0,0:0:0:0:
281,1,48585,2,0,L|288:90,1,90,8|0,0:0|0:0,0:0:0:0:
378,86,48899,1,0,1:0:0:0:
370,176,49056,1,0,1:0:0:0:
362,264,49213,2,0,L|354:353,1,90,10|0,0:0|1:0,0:0:0:0:
314,373,49449,1,0,1:0:0:0:
314,373,49528,5,2,1:0:0:0:
285,287,49685,1,0,1:0:0:0:
138,339,49842,5,10,0:0:0:0:
226,356,49999,1,0,1:0:0:0:
256,201,50156,5,10,0:0:0:0:
197,270,50313,1,0,1:0:0:0:
314,373,50470,2,0,L|280:272,1,90,10|0,0:0|1:0,0:0:0:0:
285,287,50706,1,0,1:0:0:0:
285,287,50784,5,14,0:0:0:0:
226,356,50941,1,0,1:0:0:0:
226,356,51098,1,0,1:0:0:0:
256,201,51255,5,14,0:0:0:0:
285,287,51412,1,2,1:0:0:0:
285,287,51569,1,0,1:0:0:0:
315,132,51727,2,0,L|248:209,1,90,10|0,0:0|1:0,0:0:0:0:
405,149,52041,5,14,0:0:0:0:
315,132,52198,1,0,1:0:0:0:
315,132,52355,1,2,1:0:0:0:
197,271,52512,5,12,0:0:0:0:
256,201,52669,1,2,1:0:0:0:
256,201,52826,1,0,1:0:0:0:
225,116,52983,2,0,L|263:221,1,90,10|0,0:0|1:0,0:0:0:0:
405,149,53297,5,14,0:0:0:0:
382,144,53376,1,0,1:0:0:0:
360,140,53454,1,0,1:0:0:0:
338,136,53533,1,0,1:0:0:0:
316,132,53611,1,0,1:0:0:0:
256,201,53768,5,14,0:0:0:0:
278,205,53847,1,0,1:0:0:0:
300,209,53925,1,0,1:0:0:0:
322,213,54004,1,0,1:0:0:0:
345,218,54083,1,0,1:0:0:0:
316,132,54240,5,14,0:0:0:0:
285,287,54397,1,10,0:0:0:0:
285,287,55661,6,0,L|82:273,1,180,6|0,1:0|0:0,0:0:0:0:
14,274,56132,2,0,P|32:229|27:169,1,90,10|0,0:0|0:0,0:0:0:0:
24,98,56446,2,0,L|113:104,1,90,2|0,1:0|0:0,0:0:0:0:
163,179,56760,2,0,L|252:172,1,90,10|0,0:0|0:0,0:0:0:0:
333,132,57074,6,0,P|292:167|325:289,1,180,2|10,1:0|0:0,0:0:0:0:
359,356,57545,2,0,B|315:308|315:308|177:333,1,180,2|0,0:0|0:0,0:0:0:0:
112,319,58016,1,8,0:0:0:0:
165,247,58174,5,2,0:0:0:0:
75,238,58331,1,2,1:0:0:0:
128,166,58488,1,2,0:0:0:0:
38,157,58645,1,10,0:0:0:0:
91,85,58802,1,2,0:0:0:0:
1,76,58959,1,2,1:0:0:0:
54,4,59116,2,0,L|161:15,1,90,2|8,0:0|0:0,0:0:0:0:
181,94,59430,1,2,0:0:0:0:
270,84,59587,6,0,L|377:73,1,90,2|0,1:0|0:0,0:0:0:0:
370,164,59901,2,0,L|280:173,1,90,10|0,0:0|0:0,0:0:0:0:
290,262,60215,2,0,L|380:253,1,90,2|0,1:0|0:0,0:0:0:0:
463,289,60530,1,10,0:0:0:0:
370,164,60687,1,8,0:0:0:0:
370,164,60765,1,8,0:0:0:0:
370,164,60844,6,0,L|280:173,1,90,6|0,1:0|0:0,0:0:0:0:
290,262,61158,2,0,L|200:252,1,90,10|0,0:0|0:0,0:0:0:0:
116,283,61472,2,0,P|159:247|126:123,1,180,2|10,1:0|0:0,0:0:0:0:
62,93,61943,1,0,0:0:0:0:
62,93,62100,6,0,L|248:102,1,180,2|8,1:0|0:0,0:0:0:0:
241,101,62728,1,2,1:0:0:0:
316,51,62886,1,2,0:0:0:0:
161,62,63043,1,10,0:0:0:0:
321,140,63200,6,0,L|434:135,1,90,10|0,0:0|1:0,0:0:0:0:
166,151,63514,2,0,L|53:146,1,90,10|0,0:0|1:0,0:0:0:0:
55,154,63749,1,0,1:0:0:0:
37,167,63828,1,10,0:0:0:0:
23,185,63907,1,8,0:0:0:0:
14,205,63985,1,8,0:0:0:0:
10,227,64064,1,8,0:0:0:0:
12,249,64142,1,10,0:0:0:0:
19,271,64221,1,8,0:0:0:0:
30,290,64299,1,8,0:3:0:0:
99,232,64456,5,6,1:0:0:0:
360,324,64770,1,10,1:3:0:0:
268,37,65085,1,10,1:3:0:0:
150,355,65399,1,10,1:2:0:0:
399,145,65713,6,0,L|200:131,1,180,6|0,1:0|0:0,0:0:0:0:
140,90,66184,2,0,P|129:139|152:192,1,90,0|0,1:0|0:0,0:0:0:0:
219,218,66498,2,0,P|230:169|207:116,1,90,2|0,1:0|0:0,0:0:0:0:
140,176,66812,2,0,P|129:225|152:278,1,90,2|2,1:0|0:0,0:0:0:0:
219,218,67126,6,0,L|320:223,1,90,0|2,1:0|0:0,0:0:0:0:
310,312,67441,2,0,L|220:307,1,90,0|0,1:0|0:0,0:0:0:0:
140,262,67755,1,2,1:0:0:0:
219,218,67912,2,0,L|320:223,1,90,10|6,0:3|0:3,0:0:0:0:
385,270,68226,6,0,B|338:224|338:224|363:88,1,180,14|2,0:0|0:0,0:0:0:0:
380,24,68697,1,0,1:0:0:0:
380,24,68854,2,0,L|276:32,1,90,2|0,0:0|1:0,0:0:0:0:
230,98,69168,2,0,L|126:90,1,90,2|0,0:0|1:0,0:0:0:0:
50,84,69482,1,2,0:0:0:0:
88,165,69639,6,0,L|76:219,3,45,8|8|10|8,1:2|0:0|0:0|0:0,0:0:0:0:
124,206,69954,2,0,L|140:258,3,45,10|8|10|8,1:2|0:0|0:0|0:0,0:0:0:0:
176,226,70268,1,10,1:2:0:0:
197,233,70346,1,8,0:0:0:0:
219,237,70425,1,8,0:0:0:0:
241,236,70503,1,8,0:0:0:0:
263,231,70582,1,10,1:2:0:0:
283,221,70660,1,8,0:0:0:0:
301,208,70739,1,0,1:0:0:0:
316,191,70817,1,0,1:0:0:0:
324,170,70896,6,0,P|329:134|308:78,1,90,8|0,0:0|1:0,0:0:0:0:
227,50,71210,1,2,1:0:0:0:
255,226,71367,2,0,P|282:248|342:258,1,90,8|2,0:0|1:0,0:0:0:0:
407,201,71681,1,0,1:0:0:0:
241,138,71838,2,0,P|207:150|169:197,1,90,10|2,0:0|1:0,0:0:0:0:
186,282,72153,5,0,1:0:0:0:
324,170,72310,2,0,P|329:134|308:78,1,90,10|2,0:0|1:0,0:0:0:0:
227,50,72624,1,2,1:0:0:0:
255,226,72781,2,0,P|282:248|342:258,1,90,10|2,0:0|1:0,0:0:0:0:
241,138,73095,2,0,P|213:115|153:105,1,90,10|0,0:0|1:0,0:0:0:0:
80,143,73409,5,8,0:3:0:0:
80,143,73723,2,0,L|87:237,1,90,10|0,0:0|1:0,0:0:0:0:
176,234,74037,2,0,L|169:328,1,90,10|0,0:3|1:0,0:0:0:0:
243,374,74352,1,2,1:0:0:0:
321,328,74509,6,0,L|327:238,1,90,2|8,1:0|0:0,0:0:0:0:
409,200,74823,2,0,L|402:110,1,90,2|8,1:0|0:0,0:0:0:0:
341,43,75137,1,2,1:0:0:0:
314,128,75294,1,10,0:3:0:0:
429,25,75451,1,6,0:3:0:0:
253,61,75608,1,10,0:0:0:0:
409,200,75765,5,6,1:0:0:0:
256,192,75844,12,8,78121,0:0:0:0:
320,135,78278,6,0,L|134:124,1,180,6|0,1:0|0:0,0:0:0:0:
50,122,78749,2,0,P|58:184|49:222,1,90,8|0,0:0|0:0,0:0:0:0:
21,295,79064,2,0,L|110:300,1,90,0|0,1:0|0:0,0:0:0:0:
160,375,79378,2,0,L|249:369,1,90,8|0,0:0|0:0,0:0:0:0:
332,333,79692,5,0,1:0:0:0:
259,279,79849,1,0,0:0:0:0:
342,243,80006,2,0,L|431:237,1,90,8|0,0:0|0:0,0:0:0:0:
498,177,80320,2,0,B|453:145|453:145|466:11,1,180,2|8,1:0|0:0,0:0:0:0:
377,43,80791,6,0,B|310:39|310:39|284:70|284:70|182:63,1,180,6|0,1:0|0:0,0:0:0:0:
121,61,81263,2,0,P|130:108|120:161,1,90,8|0,0:0|0:0,0:0:0:0:
40,184,81577,2,0,P|31:231|41:284,1,90,0|0,1:0|0:0,0:0:0:0:
103,332,81891,2,0,L|197:324,1,90,8|0,0:0|0:0,0:0:0:0:
258,262,82205,5,8,0:0:0:0:
280,263,82283,1,8,0:0:0:0:
302,265,82362,1,0,1:0:0:0:
325,267,82441,1,0,1:0:0:0:
347,268,82519,1,8,0:3:0:0:
369,270,82598,1,8,0:3:0:0:
391,271,82676,1,0,1:0:0:0:
413,273,82755,1,0,1:0:0:0:
435,274,82833,2,0,L|479:277,1,45,0|0,1:0|1:0,0:0:0:0:
486,197,82990,2,0,L|441:193,1,45,10|4,0:0|0:3,0:0:0:0:
447,112,83147,2,0,L|492:116,1,45,8|4,0:3|0:3,0:0:0:0:
497,34,83304,6,0,L|311:18,1,180,6|0,1:0|0:0,0:0:0:0:
229,37,83776,2,0,L|236:135,1,90,10|0,0:0|0:0,0:0:0:0:
324,108,84090,2,0,L|317:18,1,90,2|0,1:0|0:0,0:0:0:0:
221,46,84404,2,0,L|228:144,1,90,10|2,0:0|0:0,0:0:0:0:
316,117,84718,2,0,L|309:27,1,90,2|0,1:0|0:0,0:0:0:0:
213,55,85032,2,0,L|220:153,1,90,10|0,0:0|0:0,0:0:0:0:
308,126,85346,2,0,L|301:36,2,90,2|2|10,1:0|0:0|0:0,0:0:0:0:
396,96,85817,1,2,0:0:0:0:
391,184,85975,5,8,0:0:0:0:
389,206,86053,1,0,1:0:0:0:
387,228,86132,1,0,1:0:0:0:
386,251,86210,1,0,1:0:0:0:
384,273,86289,2,0,L|380:317,1,45,10|0,0:0|1:0,0:0:0:0:
295,358,86446,1,2,1:0:0:0:
295,358,86524,1,0,1:0:0:0:
295,358,86603,2,0,L|291:313,1,45,10|0,0:0|1:0,0:0:0:0:
212,279,86760,1,0,1:0:0:0:
212,279,86838,1,0,1:0:0:0:
212,279,86917,2,0,L|208:323,1,45,10|0,0:0|1:0,0:0:0:0:
138,372,87074,1,0,1:0:0:0:
138,372,87153,1,0,1:0:0:0:
138,372,87231,5,8,0:0:0:0:
256,80,88331,5,6,1:0:0:0:
