osu file format v14

[General]
AudioFilename: audio.mp3
AudioLeadIn: 0
PreviewTime: 55555
Countdown: 0
SampleSet: Soft
StackLeniency: 0.7
Mode: 0
LetterboxInBreaks: 0
WidescreenStoryboard: 0

[Editor]
DistanceSpacing: 1.1
BeatDivisor: 4
GridSize: 4
TimelineZoom: 3.200005

[Metadata]
Title:ADAMAS (TV Size)
TitleUnicode:ADAMAS (TV Size)
Artist:LiSA
ArtistUnicode:LiSA
Creator:Sotarks
Version:DiAMOND SWORD
Source:ソードアート・オンライン アリシゼーション
Tags:sword art online sao alicization season three 3 kirito asuna eugeo alice opening op shogunmoon shunao -laura- corinn akitoshi armin a_r_m_i_n snownino_ reform kujinn
BeatmapID:1796420
BeatmapSetID:859718

[Difficulty]
HPDrainRate:5.2
CircleSize:4
OverallDifficulty:9.1
ApproachRate:9.4
SliderMultiplier:1.82
SliderTickRate:1

[Events]
//Background and Video events
Video,-40,"video.avi"
0,0,"bg.jpg",0,0
//Break Periods
//Storyboard Layer 0 (Background)
//Storyboard Layer 1 (Fail)
//Storyboard Layer 2 (Pass)
//Storyboard Layer 3 (Foreground)
//Storyboard Sound Samples

[TimingPoints]
537,314.13612565445,4,2,22,42,1,0
537,-161.290322580645,4,2,22,42,0,0
5392,314.13612565445,4,2,22,72,1,0
5392,-98.0392156862745,4,2,22,72,0,0
5549,314.13612565445,4,2,22,72,1,0
5549,-98.0392156862745,4,2,22,72,0,0
15444,-121.951219512195,4,2,22,52,0,0
15601,-121.951219512195,4,2,22,52,0,0
24239,-161.290322580645,4,2,22,52,0,0
25496,-108.695652173913,4,2,22,62,0,0
25672,-108.695652173913,4,2,22,62,0,0
35706,-121.951219512195,4,2,22,52,0,0
45758,-108.695652173913,4,2,22,62,0,0
53297,-98.0392156862745,4,2,22,62,0,0
54711,-108.695652173913,4,2,22,32,0,0
55339,-192.307692307692,4,2,22,32,0,0
55575,-192.307692307692,4,2,22,5,0,0
55661,314.13612565445,4,2,22,82,1,1
55661,-89.2857142857143,4,2,22,82,0,1
55818,314.13612565445,4,2,22,82,1,1
55818,-89.2857142857143,4,2,22,82,0,1
56996,-89.2857142857143,4,2,22,5,0,1
57075,-89.2857142857143,4,2,22,82,0,1
59824,-89.2857142857143,4,2,22,5,0,1
59902,-89.2857142857143,4,2,22,82,0,1
60452,-89.2857142857143,4,2,22,5,0,1
60530,-89.2857142857143,4,2,22,82,0,1
62023,-89.2857142857143,4,2,22,5,0,1
62101,-89.2857142857143,4,2,22,82,0,1
64456,-81.9672131147541,4,2,22,82,0,1
64693,-81.9672131147541,4,2,22,5,0,1
64771,-81.9672131147541,4,2,22,82,0,1
65007,-81.9672131147541,4,2,22,5,0,1
65085,-81.9672131147541,4,2,22,82,0,1
65321,-81.9672131147541,4,2,22,5,0,1
65400,-81.9672131147541,4,2,22,82,0,1
65634,-81.9672131147541,4,2,22,5,0,1
65713,-98.0392156862745,4,2,22,72,0,0
68462,-98.0392156862745,4,2,22,5,0,0
68541,-98.0392156862745,4,2,22,72,0,0
75765,-89.2857142857143,4,2,22,82,0,0
87545,-98.0392156862745,4,2,22,72,0,0
88016,-108.695652173913,4,2,22,72,0,0
88252,-108.695652173913,4,2,22,5,0,0
88331,-108.695652173913,4,2,22,72,0,0

[Colours]
Combo1 : 248,181,255
Combo2 : 251,255,87
Combo3 : 168,240,255

[HitObjects]
169,123,537,6,0,P|185:176|190:202,1,56.4199977616578,2|0,3:0|0:0,0:0:0:0:
267,28,851,1,0,3:0:0:0:
374,169,1008,2,0,P|364:195|357:222,2,56.4199977616578,2|0|0,0:0|0:0|0:0,0:0:0:0:
222,261,1479,1,2,3:0:0:0:
284,150,1636,1,0,0:0:0:0:
284,150,1715,1,0,0:0:0:0:
284,150,1793,1,0,0:0:0:0:
337,308,1950,1,2,0:0:0:0:
212,227,2107,2,0,P|169:195|151:181,1,56.4199977616578,0|0,3:0|0:0,0:0:0:0:
382,197,2421,5,2,3:0:0:0:
247,59,2578,1,0,3:0:0:0:
308,275,2735,1,2,3:0:0:0:
374,104,2893,5,0,0:0:0:0:
374,104,2971,1,0,0:0:0:0:
374,104,3050,2,0,P|384:50|384:30,1,56.4199977616578,2|0,3:0|0:0,0:0:0:0:
246,201,3364,1,0,3:0:0:0:
124,57,3521,2,0,P|127:85|134:112,1,56.4199977616578,2|0,0:0|0:0,0:0:0:0:
269,26,3835,1,0,0:0:0:0:
358,222,3992,2,0,P|354:250|347:277,1,56.4199977616578,2|0,3:0|0:0,0:0:0:0:
239,176,4306,6,0,P|230:138|229:127,3,28.2099988808289,0|0|0|0,3:0|3:0|3:0|3:0,0:0:0:0:
176,256,4620,1,2,3:0:0:0:
394,119,4777,1,2,3:0:0:0:
414,136,5392,6,0,B|297:117|344:197|196:171,1,185.640001133057,6|0,1:0|0:0,0:0:0:0:
95,64,5863,2,0,P|115:125|120:166,1,92.8200005665283,10|0,0:0|0:0,0:0:0:0:
231,298,6177,2,0,P|239:252|255:208,1,92.8200005665283,2|0,1:0|0:0,0:0:0:0:
78,260,6491,1,10,0:0:0:0:
248,82,6648,1,2,0:0:0:0:
350,336,6805,6,0,P|394:351|441:361,1,92.8200005665283,2|0,1:0|0:0,0:0:0:0:
253,172,7119,2,0,P|207:181|163:196,1,92.8200005665283,10|0,0:0|0:0,0:0:0:0:
49,351,7433,1,2,1:0:0:0:
264,272,7590,1,2,0:0:0:0:
46,156,7747,1,10,0:0:0:0:
307,11,7905,6,0,P|400:74|391:157,1,185.640001133057,2|0,0:0|1:0,0:0:0:0:
233,257,8376,2,0,P|215:303|206:349,1,92.8200005665283,10|0,0:0|0:0,0:0:0:0:
176,135,8690,2,0,P|150:65|148:26,1,92.8200005665283,2|0,1:0|0:0,0:0:0:0:
356,228,9004,2,0,P|347:273|328:315,1,92.8200005665283,10|0,0:0|0:0,0:0:0:0:
126,221,9318,6,0,P|62:198|26:192,1,92.8200005665283,2|0,1:0|0:0,0:0:0:0:
282,112,9632,2,0,P|325:94|370:84,1,92.8200005665283,10|0,0:0|0:0,0:0:0:0:
346,340,9946,1,10,0:0:0:0:
300,343,10025,1,8,0:0:0:0:
259,322,10103,1,10,0:0:0:0:
234,283,10182,1,8,0:0:0:0:
233,237,10261,2,0,P|244:179|241:167,1,46.4100002832642,8|8,0:0|0:0,0:0:0:0:
83,40,10418,6,0,P|121:188|129:260,1,185.640001133057,6|0,1:0|0:0,0:0:0:0:
242,59,10889,2,0,P|309:36|336:33,1,92.8200005665283,10|0,0:0|0:0,0:0:0:0:
419,248,11203,2,0,P|373:239|330:222,1,92.8200005665283,2|0,1:0|0:0,0:0:0:0:
148,106,11517,1,10,0:0:0:0:
260,284,11674,1,2,0:0:0:0:
395,106,11831,5,2,1:0:0:0:
164,241,11988,1,8,0:0:0:0:
231,86,12145,1,10,0:0:0:0:
231,86,12224,1,8,0:0:0:0:
231,86,12302,2,0,P|239:30|238:10,1,46.4100002832642,8|8,0:0|0:0,0:0:0:0:
118,242,12459,1,10,0:0:0:0:
78,218,12538,1,8,0:0:0:0:
55,178,12617,1,10,0:3:0:0:
54,132,12695,1,8,0:3:0:0:
76,92,12774,2,0,P|121:80|149:95,1,46.4100002832642,4|4,0:3|0:3,0:0:0:0:
280,214,12931,6,0,P|383:253|451:204,1,185.640001133057,6|0,1:0|0:0,0:0:0:0:
192,276,13402,2,0,P|130:302|83:302,1,92.8200005665283,10|0,0:0|0:0,0:0:0:0:
279,91,13716,2,0,P|324:97|365:118,1,92.8200005665283,2|0,1:0|0:0,0:0:0:0:
432,341,14030,1,10,0:0:0:0:
477,117,14187,1,2,0:0:0:0:
327,275,14344,5,10,0:0:0:0:
327,275,14423,1,8,0:0:0:0:
327,275,14501,2,0,L|338:329,1,46.4100002832642,0|0,1:0|1:0,0:0:0:0:
247,165,14658,1,10,0:3:0:0:
247,165,14737,1,8,0:3:0:0:
247,165,14816,2,0,L|256:119,1,46.4100002832642,4|4,0:3|0:3,0:0:0:0:
166,269,14973,1,10,0:3:0:0:
401,154,15130,2,0,L|454:132,2,46.4100002832642,2|0|10,1:0|1:0|0:0,0:0:0:0:
89,147,15444,6,0,P|86:80|176:48,1,149.240002277222,4|2,1:0|1:0,0:0:0:0:
231,182,15915,2,0,P|212:256|215:288,1,74.6200011386109,8|2,0:0|0:0,0:0:0:0:
376,128,16229,2,0,P|370:91|357:56,1,74.6200011386109,10|0,0:0|0:0,0:0:0:0:
244,193,16543,2,0,P|225:267|228:299,1,74.6200011386109,10|0,0:0|0:0,0:0:0:0:
179,58,16857,5,10,0:0:0:0:
327,129,17014,1,0,1:0:0:0:
149,67,17172,1,10,0:0:0:0:
286,32,17329,1,0,1:0:0:0:
127,167,17486,5,10,0:0:0:0:
379,228,17643,1,2,1:0:0:0:
119,196,17800,1,10,0:0:0:0:
356,121,17957,2,0,L|447:100,1,74.6200011386109,2|8,1:0|0:0,0:0:0:0:
217,212,18271,5,2,0:0:0:0:
429,300,18428,2,0,P|379:242|296:228,1,149.240002277222,10|10,0:0|0:0,0:0:0:0:
163,304,18899,1,2,1:0:0:0:
259,135,19056,1,10,0:0:0:0:
201,298,19213,1,2,1:0:0:0:
186,77,19370,6,0,P|249:30|329:40,1,149.240002277222,10|10,0:0|0:0,0:0:0:0:
417,182,19842,1,2,1:0:0:0:
198,198,19999,2,0,P|141:178|118:177,1,74.6200011386109,10|2,0:0|1:0,0:0:0:0:
96,195,20234,1,0,1:0:0:0:
96,195,20313,1,10,0:0:0:0:
284,124,20470,1,2,1:0:0:0:
132,290,20627,6,0,B|224:284|179:335|287:336,1,149.240002277222,8|10,0:0|0:0,0:0:0:0:
408,236,21098,1,2,1:0:0:0:
241,198,21255,2,0,P|185:173|157:168,1,74.6200011386109,10|0,0:0|0:0,0:0:0:0:
395,269,21569,2,0,P|430:258|463:241,1,74.6200011386109,10|0,0:0|0:0,0:0:0:0:
276,111,21884,5,10,0:0:0:0:
294,297,22041,1,0,1:0:0:0:
306,95,22198,1,10,0:0:0:0:
202,282,22355,1,0,1:0:0:0:
385,150,22512,5,10,0:0:0:0:
181,92,22669,1,2,1:0:0:0:
327,304,22826,1,10,0:0:0:0:
276,111,22983,1,2,1:0:0:0:
98,295,23140,6,0,P|55:241|88:153,1,149.240002277222,8|10,0:0|0:0,0:0:0:0:
232,241,23611,1,0,1:0:0:0:
232,241,23690,1,0,1:0:0:0:
232,241,23768,2,0,P|286:258|308:260,1,74.6200011386109,10|2,0:0|1:0,0:0:0:0:
334,243,24004,1,0,1:0:0:0:
334,243,24083,1,8,0:0:0:0:
114,60,24240,6,0,B|317:30|238:155|451:130,1,338.519986569947,6|2,1:0|0:0,0:0:0:0:
433,131,25496,6,0,P|346:133|295:217,1,167.439994379151,4|2,1:0|0:0,0:0:0:0:
166,312,25967,2,0,P|182:248|180:209,1,83.7199971895753,10|0,0:0|0:0,0:0:0:0:
56,72,26281,1,2,1:0:0:0:
228,122,26439,1,8,0:3:0:0:
60,241,26596,1,10,0:0:0:0:
201,95,26753,1,0,0:0:0:0:
283,284,26910,5,2,1:0:0:0:
364,102,27067,1,2,0:0:0:0:
262,255,27224,1,10,0:0:0:0:
176,71,27381,1,2,0:0:0:0:
389,197,27538,1,2,1:0:0:0:
170,292,27695,1,10,0:3:0:0:
375,339,27852,1,10,0:0:0:0:
155,154,28009,6,0,P|59:182|50:273,1,167.439994379151,2|2,1:0|0:0,0:0:0:0:
288,157,28480,2,0,P|353:123|381:117,1,83.7199971895753,10|0,0:0|0:0,0:0:0:0:
217,270,28795,1,2,1:0:0:0:
411,321,28952,1,8,0:3:0:0:
170,292,29109,1,10,0:0:0:0:
390,212,29266,1,0,0:0:0:0:
225,73,29423,5,2,1:0:0:0:
304,294,29580,1,2,0:0:0:0:
401,109,29737,1,10,0:0:0:0:
184,180,29894,1,2,0:0:0:0:
418,237,30051,1,2,1:0:0:0:
234,43,30208,1,10,0:3:0:0:
329,318,30365,1,10,0:0:0:0:
432,97,30522,2,0,P|443:34|441:9,1,83.7199971895753,2|4,0:0|1:0,0:0:0:0:
250,241,30836,5,2,0:0:0:0:
201,61,30994,1,10,0:0:0:0:
165,268,31151,1,0,0:0:0:0:
276,127,31308,1,2,1:0:0:0:
329,318,31465,1,10,0:3:0:0:
184,167,31622,1,10,0:0:0:0:
146,351,31779,1,0,0:0:0:0:
329,209,31936,6,0,P|372:187|419:179,1,83.7199971895753,2|0,1:0|0:0,0:0:0:0:
165,268,32250,2,0,P|124:258|87:238,1,83.7199971895753,10|0,0:0|0:0,0:0:0:0:
277,127,32564,1,2,1:0:0:0:
110,74,32721,1,10,0:3:0:0:
258,262,32878,2,0,P|284:321|285:357,1,83.7199971895753,10|0,0:0|0:0,0:0:0:0:
118,168,33192,6,0,P|125:127|145:90,1,83.7199971895753,2|0,1:0|0:0,0:0:0:0:
382,25,33507,2,0,P|402:61|409:102,1,83.7199971895753,10|0,0:0|0:0,0:0:0:0:
152,200,33821,2,0,P|186:176|226:164,1,83.7199971895753,2|8,1:0|0:3,0:0:0:0:
439,285,34135,2,0,P|427:325|403:359,1,83.7199971895753,10|0,0:0|0:0,0:0:0:0:
123,293,34449,6,0,P|92:280|70:259,3,41.8599985947876,10|0|0|0,0:0|1:0|1:0|1:0,0:0:0:0:
230,251,34763,2,0,P|247:239|267:233,3,41.8599985947876,10|0|0|0,0:3|1:0|1:0|1:0,0:0:0:0:
94,194,35077,2,0,P|63:181|41:160,3,41.8599985947876,6|0|0|0,0:3|1:0|1:0|1:0,0:0:0:0:
201,152,35391,2,0,P|218:140|238:134,3,41.8599985947876,2|0|0|0,1:0|1:0|1:0|1:0,0:0:0:0:
120,90,35706,6,0,P|150:30|235:33,1,149.240002277222,6|0,1:0|1:0,0:0:0:0:
364,177,36334,2,0,P|354:261|351:337,1,149.240002277222,2|0,1:0|1:0,0:0:0:0:
107,194,36962,2,0,B|196:189|157:144|265:146,1,149.240002277222,2|0,1:0|1:0,0:0:0:0:
469,188,37590,1,2,1:0:0:0:
256,33,37905,1,0,1:0:0:0:
400,100,38062,5,8,0:0:0:0:
400,100,38140,1,8,0:0:0:0:
400,100,38219,2,0,P|386:175|380:275,2,149.240002277222,4|0|0,1:0|1:0|1:0,0:0:0:0:
297,173,39004,1,0,0:0:0:0:
208,126,39161,2,0,P|158:108|133:108,1,74.6200011386109,0|0,1:0|0:0,0:0:0:0:
45,241,39475,6,0,P|84:316|155:335,1,149.240002277222,0|0,1:0|1:0,0:0:0:0:
322,210,39946,1,8,0:0:0:0:
146,230,40103,1,2,1:0:0:0:
365,318,40261,1,10,0:0:0:0:
185,255,40418,1,2,1:0:0:0:
356,194,40575,5,10,0:3:0:0:
198,86,40732,2,0,P|120:56|47:50,1,149.240002277222,4|2,1:0|1:0,0:0:0:0:
116,206,41203,1,2,0:0:0:0:
207,174,41360,2,0,P|262:180|299:196,1,74.6200011386109,0|0,1:0|0:0,0:0:0:0:
385,288,41674,1,2,1:0:0:0:
422,181,41831,5,2,0:0:0:0:
411,280,41988,2,0,P|424:332|427:360,1,74.6200011386109,0|0,1:0|0:0,0:0:0:0:
300,213,42302,1,2,1:0:0:0:
263,320,42459,1,2,0:0:0:0:
274,221,42617,2,0,P|261:169|258:141,1,74.6200011386109,0|0,1:0|0:0,0:0:0:0:
158,268,42931,1,2,1:0:0:0:
64,163,43088,5,10,0:0:0:0:
64,163,43166,1,8,0:0:0:0:
64,163,43245,2,0,P|95:93|183:86,2,149.240002277222,4|0|0,1:0|1:0|1:0,0:0:0:0:
297,242,44187,2,0,P|349:225|380:227,1,74.6200011386109,0|0,1:0|0:0,0:0:0:0:
242,144,44501,5,2,1:0:0:0:
416,75,44658,1,8,0:0:0:0:
267,117,44816,1,2,1:0:0:0:
398,248,44973,1,8,0:3:0:0:
353,147,45130,1,2,1:0:0:0:
240,328,45287,1,8,0:0:0:0:
147,139,45444,1,10,0:0:0:0:
111,131,45522,1,8,0:0:0:0:
75,141,45601,1,8,0:0:0:0:
50,169,45679,1,8,0:0:0:0:
42,204,45758,6,0,P|61:283|74:384,1,167.439994379151,6|8,1:0|0:0,0:0:0:0:
194,217,46229,1,0,0:0:0:0:
300,347,46386,2,0,P|317:289|320:260,1,83.7199971895753,2|0,1:0|1:0,0:0:0:0:
204,109,46700,2,0,P|210:150|223:189,1,83.7199971895753,8|2,0:0|0:0,0:0:0:0:
462,131,47014,6,0,P|453:44|354:29,1,167.439994379151,2|10,1:0|0:0,0:0:0:0:
322,171,47486,1,0,0:0:0:0:
173,66,47643,2,0,P|89:38|67:42,1,83.7199971895753,2|0,1:0|1:0,0:0:0:0:
38,247,47957,2,0,P|79:240|115:219,1,83.7199971895753,10|0,0:0|1:0,0:0:0:0:
182,162,48192,1,0,1:0:0:0:
182,162,48271,6,0,P|237:150|278:147,1,83.7199971895753,0|0,1:0|1:0,0:0:0:0:
350,303,48585,2,0,P|308:298|267:288,1,83.7199971895753,8|0,0:0|0:0,0:0:0:0:
395,158,48899,1,0,1:0:0:0:
464,274,49056,1,0,1:0:0:0:
416,74,49213,1,10,0:0:0:0:
295,199,49370,1,0,1:0:0:0:
295,199,49449,1,0,1:0:0:0:
295,199,49528,6,0,P|239:219|184:214,1,83.7199971895753,2|0,1:0|1:0,0:0:0:0:
52,67,49842,1,10,0:0:0:0:
119,274,49999,1,0,1:0:0:0:
272,71,50156,1,10,0:0:0:0:
61,198,50313,1,0,1:0:0:0:
308,320,50470,1,10,0:0:0:0:
186,184,50627,5,0,1:0:0:0:
186,184,50706,1,0,1:0:0:0:
186,184,50784,1,14,0:0:0:0:
429,241,50941,1,0,1:0:0:0:
213,210,51098,1,0,1:0:0:0:
369,68,51255,1,14,0:0:0:0:
292,288,51412,1,2,1:0:0:0:
328,82,51569,1,0,1:0:0:0:
141,277,51727,1,10,0:0:0:0:
340,180,51884,1,0,1:0:0:0:
78,70,52041,5,14,0:0:0:0:
221,244,52198,1,0,1:0:0:0:
105,35,52355,1,2,1:0:0:0:
105,293,52512,1,12,0:0:0:0:
245,97,52669,1,2,1:0:0:0:
67,272,52826,1,0,1:0:0:0:
361,216,52983,1,10,0:0:0:0:
150,152,53140,1,0,1:0:0:0:
285,353,53297,5,14,0:0:0:0:
410,131,53454,1,0,1:0:0:0:
410,131,53533,1,0,1:0:0:0:
410,131,53611,2,0,P|409:97|395:67,1,46.4100002832642,0|0,1:0|1:0,0:0:0:0:
213,246,53768,2,0,P|207:268|208:291,3,46.4100002832642,14|0|0|0,0:0|1:0|1:0|1:0,0:0:0:0:
266,175,54083,2,0,P|265:141|251:111,1,46.4100002832642,0|0,1:0|1:0,0:0:0:0:
75,297,54240,1,14,0:0:0:0:
115,70,54397,1,8,0:0:0:0:
115,70,54711,5,2,0:0:0:0:
163,149,54868,1,2,0:0:0:0:
249,98,55025,1,2,0:0:0:0:
342,249,55182,1,2,0:0:0:0:
331,149,55339,2,0,P|316:199|311:237,1,70.9799995667725,2|0,0:0|0:0,0:0:0:0:
262,282,55661,6,0,B|147:271|185:350|58:342,1,203.840002488281,6|0,1:0|0:0,0:0:0:0:
187,156,56132,2,0,P|208:86|209:50,1,101.920001244141,10|0,0:0|0:0,0:0:0:0:
362,241,56446,2,0,P|367:291|384:339,1,101.920001244141,2|0,1:0|0:0,0:0:0:0:
470,134,56760,2,0,P|469:49|389:19,1,152.880001866211,10|0,0:0|0:0,0:0:0:0:
390,34,57074,6,0,P|337:55|285:62,1,101.920001244141,2|0,1:0|0:0,0:0:0:0:
75,160,57388,1,10,0:0:0:0:
339,220,57545,1,2,0:0:0:0:
129,36,57702,2,0,P|109:118|111:171,1,101.920001244141,0|0,1:0|0:0,0:0:0:0:
319,306,58016,2,0,P|313:255|298:206,1,101.920001244141,8|2,0:0|0:0,0:0:0:0:
133,315,58331,5,2,1:0:0:0:
220,110,58488,1,2,0:0:0:0:
161,340,58645,1,10,0:0:0:0:
334,180,58802,1,2,0:0:0:0:
86,209,58959,1,2,1:0:0:0:
317,339,59116,1,2,0:0:0:0:
98,166,59273,2,0,P|87:97|89:40,1,101.920001244141,8|2,0:0|0:0,0:0:0:0:
275,242,59587,6,0,P|350:192|422:211,1,152.880001866211,2|0,1:0|0:0,0:0:0:0:
432,233,59901,2,0,P|458:164|456:126,1,101.920001244141,10|0,0:0|0:0,0:0:0:0:
234,93,60215,2,0,P|159:143|87:124,1,152.880001866211,2|0,1:0|0:0,0:0:0:0:
77,102,60530,2,0,P|51:171|53:209,1,101.920001244141,10|8,0:0|0:0,0:0:0:0:
110,272,60765,1,8,0:0:0:0:
110,272,60844,6,0,P|245:242|267:241,1,152.880001866211,6|0,1:0|0:0,0:0:0:0:
289,270,61158,2,0,P|353:302|389:310,1,101.920001244141,10|0,0:0|0:0,0:0:0:0:
477,57,61472,2,0,P|428:71|383:95,1,101.920001244141,2|0,1:0|0:0,0:0:0:0:
180,205,61786,2,0,P|127:142|175:83,1,152.880001866211,10|0,0:0|0:0,0:0:0:0:
194,78,62100,6,0,P|258:104|296:113,1,101.920001244141,2|0,1:0|0:0,0:0:0:0:
436,242,62414,2,0,P|389:262|340:275,1,101.920001244141,8|0,0:0|0:0,0:0:0:0:
98,157,62728,1,2,1:0:0:0:
320,67,62886,1,2,0:0:0:0:
226,308,63043,1,10,0:0:0:0:
158,50,63200,6,0,P|102:25|36:24,1,101.920001244141,10|0,0:0|1:0,0:0:0:0:
319,195,63514,1,10,0:0:0:0:
77,143,63671,2,0,P|62:211|60:228,1,50.9600006220703,0|0,1:0|1:0,0:0:0:0:
240,131,63828,1,10,0:0:0:0:
282,103,63907,1,8,0:0:0:0:
332,98,63985,1,8,0:0:0:0:
378,118,64064,1,8,0:0:0:0:
409,157,64142,1,10,0:0:0:0:
418,207,64221,1,8,0:0:0:0:
402,255,64299,2,0,P|356:311|339:314,1,50.9600006220703,8|4,0:3|0:3,0:0:0:0:
125,244,64456,6,0,P|83:165|150:94,1,166.529993139176,6|0,1:0|0:0,0:0:0:0:
201,128,64770,2,0,B|301:141|270:62|406:85,1,166.529993139176,10|0,1:3|0:0,0:0:0:0:
433,107,65085,2,0,P|438:192|457:305,1,166.529993139176,10|0,1:3|0:0,0:0:0:0:
382,331,65399,2,0,P|301:252|232:271,1,166.529993139176,10|0,1:2|0:0,0:0:0:0:
192,308,65713,6,0,P|132:292|-7:273,1,185.640001133057,6|0,1:0|0:0,0:0:0:0:
155,168,66184,2,0,P|209:136|250:128,1,92.8200005665283,0|0,1:0|0:0,0:0:0:0:
363,274,66498,2,0,B|318:260|267:226,1,92.8200005665283,2|0,1:0|0:0,0:0:0:0:
436,131,66812,1,2,1:0:0:0:
440,343,66969,2,0,B|403:367|342:382,1,92.8200005665283,2|0,0:0|1:0,0:0:0:0:
184,284,67283,1,2,0:0:0:0:
264,107,67441,2,0,P|295:178|300:219,1,92.8200005665283,0|0,1:0|0:0,0:0:0:0:
172,326,67755,5,2,1:0:0:0:
82,133,67912,1,10,0:3:0:0:
317,219,68069,1,6,0:3:0:0:
52,236,68226,2,0,P|99:165|168:145,1,139.230000849792,14|0,0:0|0:0,0:0:0:0:
187,166,68540,2,0,P|250:187|304:193,1,92.8200005665283,2|0,0:0|1:0,0:0:0:0:
407,25,68854,2,0,P|361:33|318:50,1,92.8200005665283,2|0,0:0|1:0,0:0:0:0:
405,316,69168,2,0,P|439:232|436:203,1,92.8200005665283,2|0,0:0|1:0,0:0:0:0:
354,136,69482,1,2,0:0:0:0:
165,315,69639,5,8,1:2:0:0:
119,321,69718,1,8,0:0:0:0:
79,300,69797,1,10,0:0:0:0:
60,258,69875,1,8,0:0:0:0:
70,214,69954,1,10,1:2:0:0:
109,189,70032,1,8,0:0:0:0:
154,184,70111,1,10,0:0:0:0:
198,199,70189,1,8,0:0:0:0:
232,240,70268,1,10,1:2:0:0:
271,264,70346,1,8,0:0:0:0:
316,269,70425,1,8,0:0:0:0:
360,254,70503,1,8,0:0:0:0:
392,221,70582,2,0,P|397:163|390:147,3,46.4100002832642,10|8|0|0,1:2|0:0|1:0|1:0,0:0:0:0:
441,304,70896,5,8,0:0:0:0:
301,155,71053,1,0,1:0:0:0:
409,330,71210,1,2,1:0:0:0:
411,99,71367,5,8,0:0:0:0:
271,264,71524,1,2,1:0:0:0:
428,136,71681,1,0,1:0:0:0:
217,89,71838,5,10,0:0:0:0:
392,221,71996,1,2,1:0:0:0:
159,220,72153,1,0,1:0:0:0:
326,41,72310,5,10,0:0:0:0:
262,233,72467,1,2,1:0:0:0:
208,60,72624,1,2,1:0:0:0:
414,254,72781,5,10,0:0:0:0:
168,70,72938,1,2,1:0:0:0:
130,328,73095,2,0,P|102:364|60:384,1,92.8200005665283,10|0,0:0|1:0,0:0:0:0:
84,152,73409,5,8,0:3:0:0:
234,262,73566,1,4,0:3:0:0:
234,262,73645,1,4,0:3:0:0:
234,262,73723,2,0,P|289:248|301:240,3,46.4100002832642,10|0|0|0,0:0|1:0|1:0|1:0,0:0:0:0:
156,136,74037,2,0,P|133:129|110:126,3,46.4100002832642,10|0|0|0,0:3|1:0|1:0|1:0,0:0:0:0:
268,79,74352,6,0,P|286:23|286:5,1,46.4100002832642,2|0,1:0|1:0,0:0:0:0:
354,181,74509,2,0,P|360:203|370:224,1,46.4100002832642,2|0,1:0|1:0,0:0:0:0:
467,95,74666,5,8,0:0:0:0:
435,61,74744,1,8,0:0:0:0:
391,46,74823,1,2,1:0:0:0:
346,53,74901,1,0,1:0:0:0:
309,81,74980,1,8,0:0:0:0:
272,108,75058,1,8,0:0:0:0:
226,115,75137,1,2,1:0:0:0:
183,100,75215,1,0,1:0:0:0:
151,67,75294,6,0,L|140:130,1,46.4100002832642,10|8,0:3|0:3,0:0:0:0:
85,266,75451,2,0,L|77:220,1,46.4100002832642,6|0,0:3|1:0,0:0:0:0:
243,21,75608,1,10,0:0:0:0:
358,303,75765,6,0,P|441:285|464:159,1,203.840002488281,6|0,1:0|0:0,0:0:0:0:
193,205,76236,2,0,P|171:290|175:331,1,101.920001244141,8|0,0:0|0:0,0:0:0:0:
367,151,76550,2,0,P|362:100|345:52,1,101.920001244141,0|0,1:0|0:0,0:0:0:0:
181,207,76865,2,0,P|159:292|163:333,1,101.920001244141,8|0,0:0|0:0,0:0:0:0:
276,123,77179,5,0,1:0:0:0:
88,190,77336,1,0,0:0:0:0:
274,302,77493,1,8,0:0:0:0:
257,120,77650,1,0,0:0:0:0:
93,233,77807,1,2,1:0:0:0:
301,293,77964,1,8,0:3:0:0:
153,76,78121,1,8,0:0:0:0:
199,342,78278,6,0,P|226:223|236:135,1,203.840002488281,6|0,1:0|0:0,0:0:0:0:
381,40,78749,2,0,P|414:129|435:169,1,101.920001244141,8|0,0:0|0:0,0:0:0:0:
324,321,79064,2,0,P|344:274|359:225,1,101.920001244141,0|0,1:0|0:0,0:0:0:0:
397,22,79378,2,0,P|430:111|451:151,1,101.920001244141,8|0,0:0|0:0,0:0:0:0:
226,72,79692,5,0,1:0:0:0:
337,195,79849,1,0,0:0:0:0:
157,203,80006,1,8,0:0:0:0:
245,54,80163,1,0,0:0:0:0:
356,177,80320,1,2,1:0:0:0:
176,185,80477,1,8,0:3:0:0:
397,22,80634,1,8,0:0:0:0:
223,303,80791,6,0,P|122:310|59:226,1,203.840002488281,6|0,1:0|0:0,0:0:0:0:
179,19,81263,2,0,P|217:84|229:135,1,101.920001244141,8|0,0:0|0:0,0:0:0:0:
336,305,81577,2,0,P|353:257|381:214,1,101.920001244141,0|0,1:0|0:0,0:0:0:0:
204,28,81891,2,0,P|242:93|254:144,1,101.920001244141,8|0,0:0|0:0,0:0:0:0:
89,287,82205,5,8,0:0:0:0:
89,287,82283,1,8,0:0:0:0:
89,287,82362,2,0,P|57:234|59:214,1,50.9600006220703,0|0,1:0|1:0,0:0:0:0:
144,105,82519,1,8,0:3:0:0:
144,105,82598,1,8,0:3:0:0:
144,105,82676,2,0,P|176:158|174:178,1,50.9600006220703,0|0,1:0|1:0,0:0:0:0:
209,302,82833,1,0,1:0:0:0:
207,322,82912,1,0,1:0:0:0:
206,342,82990,1,10,0:0:0:0:
196,359,83304,6,0,B|185:243|259:297|225:150,1,203.840002488281,6|0,1:0|0:0,0:0:0:0:
78,37,83776,2,0,P|111:124|119:163,1,101.920001244141,10|0,0:0|0:0,0:0:0:0:
340,235,84090,2,0,P|354:186|375:139,1,101.920001244141,2|0,1:0|0:0,0:0:0:0:
139,216,84404,1,10,0:0:0:0:
364,99,84561,1,2,0:0:0:0:
136,314,84718,6,0,P|59:284|40:249,1,101.920001244141,2|0,1:0|0:0,0:0:0:0:
235,61,85032,2,0,P|284:69|321:103,1,101.920001244141,10|0,0:0|0:0,0:0:0:0:
312,337,85346,1,2,1:0:0:0:
141,123,85503,1,2,0:0:0:0:
433,174,85660,1,10,0:0:0:0:
172,309,85817,1,2,0:0:0:0:
308,56,85975,5,8,0:0:0:0:
308,56,86053,1,0,1:0:0:0:
308,56,86132,2,0,P|322:117|322:136,1,50.9600006220703,0|0,1:0|1:0,0:0:0:0:
120,208,86289,1,10,0:0:0:0:
120,208,86367,1,0,1:0:0:0:
119,208,86446,2,0,P|127:183|131:158,1,50.9600006220703,2|0,1:0|1:0,0:0:0:0:
308,274,86603,1,10,0:0:0:0:
308,274,86681,1,0,1:0:0:0:
308,274,86760,2,0,P|365:296|379:296,1,50.9600006220703,0|0,1:0|1:0,0:0:0:0:
446,92,86917,1,10,0:0:0:0:
398,75,86996,1,0,1:0:0:0:
348,80,87074,1,0,1:0:0:0:
305,107,87153,1,0,1:0:0:0:
278,150,87231,6,0,P|183:136|95:102,1,169.866668740234,8|0,0:0|0:0,0:0:0:0:
105,95,87545,2,0,P|80:44|72:37,3,46.4100002832642,2|0|0|0,0:0|0:0|0:0|0:0,0:0:0:0:
159,13,87859,1,2,0:0:0:0:
188,163,88016,2,0,P|173:227|162:304,1,125.579995784363,2|0,0:0|0:0,0:0:0:0:
226,363,88331,5,6,1:0:0:0:
