osu file format v14

[General]
AudioFilename: audio.mp3
AudioLeadIn: 0
PreviewTime: 55555
Countdown: 0
SampleSet: Soft
StackLeniency: 0.7
Mode: 0
LetterboxInBreaks: 0
WidescreenStoryboard: 1

[Editor]
DistanceSpacing: 1
BeatDivisor: 16
GridSize: 32
TimelineZoom: 3.199999

[Metadata]
Title:ADAMAS (TV Size)
TitleUnicode:ADAMAS (TV Size)
Artist:LiSA
ArtistUnicode:LiSA
Creator:Sotarks
Version:Akitoshi's NORMAL
Source:ソードアート・オンライン アリシゼーション
Tags:sword art online sao alicization season three 3 kirito asuna eugeo alice opening op shogunmoon shunao -laura- corinn akitoshi armin a_r_m_i_n snownino_ reform kujinn
BeatmapID:1796419
BeatmapSetID:859718

[Difficulty]
HPDrainRate:4
CircleSize:3
OverallDifficulty:4
ApproachRate:5
SliderMultiplier:1
SliderTickRate:1

[Events]
//Background and Video events
Video,-40,"video.avi"
0,0,"bg.jpg",0,0
//Break Periods
//Storyboard Layer 0 (Background)
//Storyboard Layer 1 (Fail)
//Storyboard Layer 2 (Pass)
//Storyboard Layer 3 (Foreground)
//Storyboard Sound Samples

[TimingPoints]
537,314.13612565445,4,2,22,42,1,0
5392,314.13612565445,4,2,22,72,1,0
5549,314.13612565445,4,2,22,72,1,0
35706,-100,4,2,22,52,0,0
45758,-100,4,2,22,62,0,0
55661,314.13612565445,4,2,22,82,1,1
55818,314.13612565445,4,2,22,82,1,1
65713,-100,4,2,22,72,0,0
75765,-100,4,2,22,82,0,1
83304,-100,4,2,22,82,0,0
88331,-100,4,2,22,72,0,0

[Colours]
Combo1 : 248,181,255
Combo2 : 251,255,87
Combo3 : 168,240,255

[HitObjects]
131,104,537,6,0,L|22:111,2,100,2|0|0,3:0|3:0|0:0,0:0:0:0:
220,60,1479,2,0,L|329:67,1,100,2|0,3:0|0:0,0:0:0:0:
418,79,2107,1,0,3:0:0:0:
474,161,2421,2,0,P|486:212|472:265,1,100,2|2,3:0|3:0,0:0:0:0:
393,314,3050,6,0,P|342:326|289:312,2,100,2|0|0,3:0|3:0|0:0,0:0:0:0:
476,258,3992,1,2,3:0:0:0:
405,186,4306,2,0,B|306:198|306:198|263:166,1,150,0|2,3:0|3:0,0:0:0:0:
86,78,5392,6,0,P|81:127|75:188,1,100,6|0,1:0|0:0,0:0:0:0:
68,226,5863,1,10,0:0:0:0:
116,313,6177,2,0,P|166:324|217:313,1,100,2|10,1:0|0:0,0:0:0:0:
300,265,6805,1,2,1:0:0:0:
331,170,7119,1,10,0:0:0:0:
277,85,7433,2,0,L|219:81,1,50,2|2,1:0|0:0,0:0:0:0:
181,83,7747,1,8,0:0:0:0:
181,83,7905,6,0,B|134:104|134:104|71:96,1,100,2|0,0:0|0:0,0:0:0:0:
36,91,8376,1,10,0:0:0:0:
13,188,8690,2,0,P|18:245|23:305,1,100,2|10,1:0|0:0,0:0:0:0:
92,358,9318,1,2,1:0:0:0:
191,358,9632,1,10,0:0:0:0:
261,287,9946,2,0,L|330:292,2,50,10|10|8,0:0|0:0|0:0,0:0:0:0:
221,256,10418,6,0,P|209:208|219:152,1,100,6|0,1:0|0:0,0:0:0:0:
239,114,10889,1,10,0:0:0:0:
326,65,11203,2,0,P|375:67|437:69,1,100,2|10,1:0|0:0,0:0:0:0:
496,139,11831,2,0,L|488:209,1,50,2|8,1:0|0:0,0:0:0:0:
481,238,12145,1,10,0:0:0:0:
412,310,12459,2,0,L|420:380,2,50,10|10|4,0:0|0:3|0:3,0:0:0:0:
373,278,12931,6,0,P|355:231|361:176,1,100,6|0,1:0|0:0,0:0:0:0:
379,136,13402,1,10,0:0:0:0:
322,53,13716,2,0,L|206:60,1,100,2|10,1:0|0:0,0:0:0:0:
123,74,14344,1,10,0:0:0:0:
65,156,14658,1,10,0:3:0:0:
112,243,14973,2,0,L|108:298,2,50,10|2|10,0:3|1:0|0:0,0:0:0:0:
149,209,15444,6,0,P|217:229|297:202,1,150,4|8,1:0|0:0,0:0:0:0:
359,133,16229,2,0,L|463:140,1,100,10|10,0:0|0:0,0:0:0:0:
497,232,16857,2,0,L|490:336,2,100,10|10|10,0:0|0:0|0:0,0:0:0:0:
458,139,17800,1,10,0:0:0:0:
382,73,18114,6,0,P|315:71|273:92,1,100,8|10,0:0|0:0,0:0:0:0:
204,142,18742,2,0,P|137:144|95:123,1,100,10|10,0:0|0:0,0:0:0:0:
7,121,19370,2,0,L|18:236,1,100,10|10,0:0|0:0,0:0:0:0:
27,273,19842,1,2,1:0:0:0:
27,273,19999,2,0,L|21:330,2,50,10|2|10,0:0|1:0|0:0,0:0:0:0:
122,243,20627,6,0,P|174:240|232:237,1,100,8|10,0:0|0:0,0:0:0:0:
304,181,21255,2,0,P|356:184|414:187,1,100,10|10,0:0|0:0,0:0:0:0:
477,254,21884,2,0,P|492:309|477:364,2,100,10|10|10,0:0|0:0|0:0,0:0:0:0:
403,186,22826,1,10,0:0:0:0:
334,258,23140,6,0,L|226:250,1,100,8|10,0:0|0:0,0:0:0:0:
186,233,23611,1,0,1:0:0:0:
186,233,23768,2,0,L|78:241,1,100,10|8,0:0|0:0,0:0:0:0:
41,262,24240,1,6,1:0:0:0:
41,262,25496,6,0,P|33:208|49:164,1,100,4|2,1:0|0:0,0:0:0:0:
91,140,25967,1,10,0:0:0:0:
165,73,26281,2,0,L|159:23,2,50,2|8|10,1:0|0:3|0:0,0:0:0:0:
230,149,26910,2,0,L|220:254,1,100,2|10,1:0|0:0,0:0:0:0:
211,348,27538,1,2,1:0:0:0:
305,381,27852,1,10,0:0:0:0:
400,350,28166,6,0,P|417:301|406:248,1,100,0|10,0:0|0:0,0:0:0:0:
344,178,28795,2,0,L|349:119,2,50,2|8|10,1:0|0:3|0:0,0:0:0:0:
263,237,29423,2,0,P|214:230|157:226,1,100,2|10,1:0|0:0,0:0:0:0:
63,227,30051,2,0,L|58:168,1,50,2|10,1:0|0:3,0:0:0:0:
31,135,30365,2,0,L|36:76,1,50,10|2,0:0|0:0,0:0:0:0:
61,42,30679,6,0,B|112:55|112:55|178:39,1,100,4|10,1:0|0:0,0:0:0:0:
256,27,31308,1,2,1:0:0:0:
335,88,31622,1,10,0:0:0:0:
291,178,31936,2,0,P|281:220|294:278,2,100,2|10|2,1:0|0:0|1:0,0:0:0:0:
335,88,32878,1,10,0:0:0:0:
432,109,33192,6,0,L|441:216,1,100,2|10,1:0|0:0,0:0:0:0:
446,308,33821,1,2,1:0:0:0:
360,359,34135,1,10,0:0:0:0:
263,331,34449,2,0,P|246:288|252:233,1,100,10|10,0:0|0:3,0:0:0:0:
283,141,35077,1,6,0:3:0:0:
215,66,35391,1,2,1:0:0:0:
116,49,35706,6,0,P|38:110|33:205,1,200,6|2,1:0|1:0,0:0:0:0:
83,290,36648,1,0,1:0:0:0:
176,253,36962,2,0,B|304:231|246:299|371:278,1,200,2|0,1:0|1:0,0:0:0:0:
430,199,37905,1,0,1:0:0:0:
330,185,38219,6,0,B|280:144|280:144|137:163,1,200,4|0,1:0|1:0,0:0:0:0:
108,69,39161,1,0,1:0:0:0:
207,56,39475,2,0,L|325:43,1,100,0|0,1:0|1:0,0:0:0:0:
358,64,39946,1,8,0:0:0:0:
358,64,40103,2,0,L|349:8,2,50,2|10|2,1:0|0:0|1:0,0:0:0:0:
423,139,40732,6,0,P|455:202|445:282,2,150,4|2|2,1:0|0:0|1:0,0:0:0:0:
358,64,41988,2,0,P|288:72|188:84,2,150,0|2|2,1:0|0:0|1:0,0:0:0:0:
457,51,43245,6,0,B|487:99|487:99|455:251,1,200,4|0,1:0|1:0,0:0:0:0:
375,296,44187,1,0,1:0:0:0:
283,255,44501,2,0,P|225:257|183:278,1,100,2|2,1:0|1:0,0:0:0:0:
93,309,45130,1,2,1:0:0:0:
5,260,45444,1,10,0:0:0:0:
40,166,45758,6,0,P|86:147|154:155,2,100,6|8|2,1:0|0:0|1:0,0:0:0:0:
5,260,46700,1,8,0:0:0:0:
93,309,47014,2,0,L|202:300,1,100,2|10,1:0|0:0,0:0:0:0:
292,291,47643,1,2,1:0:0:0:
363,221,47957,2,0,P|370:186|364:160,1,50,10|0,0:0|1:0,0:0:0:0:
355,123,48271,6,0,L|463:128,2,100,0|8|0,1:0|0:0|1:0,0:0:0:0:
256,102,49213,2,0,L|187:108,1,50,10|0,0:0|1:0,0:0:0:0:
157,119,49528,2,0,P|142:166|151:218,1,100,2|10,1:0|0:0,0:0:0:0:
202,300,50156,1,10,0:0:0:0:
297,269,50470,2,0,L|365:271,1,50,10|0,0:0|1:0,0:0:0:0:
396,270,50784,6,0,P|411:222|403:173,1,100,14|0,0:0|1:0,0:0:0:0:
375,132,51255,2,0,P|327:147|278:139,1,100,14|0,0:0|1:0,0:0:0:0:
235,113,51727,1,10,0:0:0:0:
164,42,52041,2,0,L|62:52,1,100,14|2,0:0|1:0,0:0:0:0:
16,65,52512,2,0,P|3:115|19:177,1,100,12|0,0:0|1:0,0:0:0:0:
31,207,52983,1,10,0:0:0:0:
114,262,53297,6,0,L|219:254,1,100,14|0,0:0|1:0,0:0:0:0:
258,231,53768,2,0,L|363:239,1,100,14|0,0:0|1:0,0:0:0:0:
411,249,54240,1,14,0:0:0:0:
411,249,54397,1,10,0:0:0:0:
411,249,55661,6,0,P|404:193|395:128,1,100,6|0,1:0|0:0,0:0:0:0:
390,100,56132,1,10,0:0:0:0:
294,69,56446,2,0,P|245:89|193:87,1,100,2|10,1:0|0:0,0:0:0:0:
99,72,57074,2,0,P|79:121|81:173,1,100,2|10,1:0|0:0,0:0:0:0:
91,216,57545,2,0,P|140:215|186:235,1,100,2|0,0:0|0:0,0:0:0:0:
221,271,58016,1,8,0:0:0:0:
197,368,58331,6,0,L|92:363,1,100,2|10,1:0|0:0,0:0:0:0:
26,292,58959,1,2,1:0:0:0:
26,192,59273,1,8,0:0:0:0:
96,121,59587,2,0,P|164:109|205:120,1,100,2|10,1:0|0:0,0:0:0:0:
280,163,60215,1,2,1:0:0:0:
330,249,60530,2,0,L|325:311,1,50,10|8,0:0|0:0,0:0:0:0:
321,348,60844,6,0,P|369:360|418:353,1,100,6|10,1:0|0:0,0:0:0:0:
489,282,61472,1,2,1:0:0:0:
489,182,61786,1,10,0:0:0:0:
418,111,62100,2,0,P|368:104|320:116,1,100,2|8,1:0|0:0,0:0:0:0:
226,150,62728,2,0,L|158:145,1,50,2|2,1:0|0:0,0:0:0:0:
129,147,63043,1,10,0:0:0:0:
129,147,63200,6,0,P|112:210|121:252,1,100,10|10,0:0|0:0,0:0:0:0:
141,294,63671,1,0,1:0:0:0:
141,294,63828,2,0,P|204:277|246:286,1,100,10|10,0:0|0:0,0:0:0:0:
332,313,64456,2,0,L|454:300,1,100,6|10,1:0|1:3,0:0:0:0:
487,219,65085,1,10,1:3:0:0:
454,124,65399,1,10,1:2:0:0:
361,85,65713,6,0,P|301:106|215:67,1,150,6|0,1:0|1:0,0:0:0:0:
128,44,66498,2,0,L|121:145,1,100,2|2,1:0|1:0,0:0:0:0:
95,186,66969,2,0,P|67:261|77:294,1,100,2|2,0:0|0:0,0:0:0:0:
92,322,67441,1,0,1:0:0:0:
184,361,67755,2,0,L|245:355,1,50,2|10,1:0|0:3,0:0:0:0:
283,354,68069,1,6,0:3:0:0:
283,354,68226,6,0,L|272:246,1,100,14|2,0:0|0:0,0:0:0:0:
231,165,68854,2,0,L|241:57,1,100,2|2,0:0|0:0,0:0:0:0:
332,26,69482,2,0,P|383:24|432:53,1,100,2|10,0:0|0:0,0:0:0:0:
455,86,69954,1,10,1:2:0:0:
479,182,70268,2,0,L|474:240,2,50,10|8|10,1:2|0:0|1:2,0:0:0:0:
382,156,70896,6,0,P|329:165|267:167,1,100,8|2,0:0|1:0,0:0:0:0:
235,152,71367,2,0,P|182:143|120:141,1,100,8|0,0:0|1:0,0:0:0:0:
86,148,71838,1,10,0:0:0:0:
14,217,72153,1,0,1:0:0:0:
13,217,72310,2,0,P|4:265|14:314,1,100,10|2,0:0|1:0,0:0:0:0:
36,359,72781,1,10,0:0:0:0:
133,377,73095,1,10,0:0:0:0:
218,324,73409,6,0,L|212:215,1,100,8|10,0:3|0:0,0:0:0:0:
144,150,74037,2,0,P|138:96|155:50,1,100,10|2,0:3|1:0,0:0:0:0:
190,20,74509,2,0,P|238:23|294:25,1,100,2|2,1:0|1:0,0:0:0:0:
339,30,74980,1,8,0:0:0:0:
417,92,75294,2,0,L|479:85,2,50,10|6|10,0:3|0:3|0:0,0:0:0:0:
378,123,75765,6,0,P|362:172|366:232,1,100,6|0,1:0|0:0,0:0:0:0:
374,268,76236,1,8,0:0:0:0:
309,344,76550,2,0,L|197:338,1,100,0|8,1:0|0:0,0:0:0:0:
109,329,77179,1,0,1:0:0:0:
48,249,77493,1,8,0:0:0:0:
81,154,77807,2,0,P|125:131|191:132,1,100,2|8,1:0|0:0,0:0:0:0:
222,140,78278,6,0,L|215:251,1,100,6|0,1:0|0:0,0:0:0:0:
210,289,78749,1,8,0:0:0:0:
284,354,79064,2,0,P|344:366|399:351,1,100,0|8,1:0|0:0,0:0:0:0:
469,311,79692,1,0,1:0:0:0:
500,216,80006,1,8,0:0:0:0:
445,132,80320,2,0,L|334:139,1,100,2|8,1:0|0:0,0:0:0:0:
299,159,80791,6,0,L|188:152,1,100,6|0,1:0|0:0,0:0:0:0:
149,149,81263,1,8,0:0:0:0:
65,204,81577,2,0,P|44:251|48:317,1,100,0|8,1:0|0:0,0:0:0:0:
131,345,82205,2,0,L|193:339,1,50,8|0,0:0|1:0,0:0:0:0:
226,319,82519,2,0,L|288:325,1,50,8|0,0:3|1:0,0:0:0:0:
325,330,82833,2,0,P|339:282|334:223,1,100,0|0,1:0|0:0,0:0:0:0:
331,182,83304,6,0,B|379:168|429:189|429:189|484:156,1,150,6|10,1:0|0:0,0:0:0:0:
499,66,84090,1,2,1:0:0:0:
410,20,84404,1,10,0:0:0:0:
334,84,84718,2,0,P|323:136|337:195,1,100,2|10,1:0|0:0,0:0:0:0:
346,280,85346,2,0,L|283:287,1,50,2|2,1:0|0:0,0:0:0:0:
251,306,85660,2,0,L|188:299,1,50,10|2,0:0|0:0,0:0:0:0:
160,270,85975,6,0,P|117:288|55:279,1,100,8|10,0:0|0:0,0:0:0:0:
7,200,86603,2,0,P|12:153|51:104,1,100,10|10,0:0|0:0,0:0:0:0:
142,103,87231,2,0,B|238:159|328:87|328:87|279:173|307:244,1,350,8|6,0:0|1:0,0:0:0:0:
