osu file format v14

[General]
AudioFilename: audio.mp3
AudioLeadIn: 0
PreviewTime: 55555
Countdown: 0
SampleSet: Soft
StackLeniency: 0.7
Mode: 0
LetterboxInBreaks: 0
WidescreenStoryboard: 1

[Editor]
DistanceSpacing: 0.9
BeatDivisor: 4
GridSize: 8
TimelineZoom: 2.599999

[Metadata]
Title:ADAMAS (TV Size)
TitleUnicode:ADAMAS (TV Size)
Artist:LiSA
ArtistUnicode:LiSA
Creator:Sotarks
Version:A r M i N's EXTRA
Source:ソードアート・オンライン アリシゼーション
Tags:sword art online sao alicization season three 3 kirito asuna eugeo alice opening op shogunmoon shunao -laura- corinn akitoshi armin a_r_m_i_n snownino_ reform kujinn
BeatmapID:1796418
BeatmapSetID:859718

[Difficulty]
HPDrainRate:5.2
CircleSize:3.8
OverallDifficulty:9
ApproachRate:9.3
SliderMultiplier:1.8
SliderTickRate:1

[Events]
//Background and Video events
0,0,"bg.jpg",0,0
Video,-40,"video.avi"
//Break Periods
//Storyboard Layer 0 (Background)
//Storyboard Layer 1 (Fail)
//Storyboard Layer 2 (Pass)
//Storyboard Layer 3 (Foreground)
//Storyboard Sound Samples

[TimingPoints]
537,314.13612565445,4,2,22,42,1,0
537,-166.666666666667,4,2,22,42,0,0
5392,314.13612565445,4,2,22,72,1,0
5549,314.13612565445,4,2,22,72,1,0
15758,-125,4,2,22,52,0,0
24240,-250,4,2,22,52,0,0
25496,-111.111111111111,4,2,22,62,0,0
35706,-125,4,2,22,52,0,0
45758,-100,4,2,22,62,0,0
54711,-100,4,2,22,32,0,0
55339,-400,4,2,22,32,0,0
55575,-400,4,2,22,5,0,0
55661,314.13612565445,4,2,22,82,1,1
55661,-83.3333333333333,4,2,22,82,0,1
55818,314.13612565445,4,2,22,82,1,1
55818,-83.3333333333333,4,2,22,82,0,1
65713,-83.3333333333333,4,2,22,72,0,0
75765,-100,4,2,22,82,0,0
87231,-125,4,2,22,82,0,0
87545,-125,4,2,22,72,0,0
88252,-125,4,2,22,5,0,0
88331,-500,4,2,22,72,0,0

[Colours]
Combo1 : 248,181,255
Combo2 : 251,255,87
Combo3 : 168,240,255

[HitObjects]
33,301,537,6,0,L|43:356,2,53.9999983520508,2|0|0,3:0|0:0|3:0,0:0:0:0:
97,219,1008,2,0,L|87:165,2,53.9999983520508,2|0|0,0:0|0:0|0:0,0:0:0:0:
187,269,1479,2,0,L|197:324,2,53.9999983520508,2|0|0,3:0|0:0|0:0,0:0:0:0:
251,187,1950,2,0,L|241:133,2,53.9999983520508,2|0|0,0:0|3:0|0:0,0:0:0:0:
33,301,2421,1,2,3:0:0:0:
97,219,2578,1,0,3:0:0:0:
187,269,2735,1,2,3:0:0:0:
251,187,2893,1,0,0:0:0:0:
343,233,3050,6,0,P|369:227|393:216,2,53.9999983520508,2|0|0,3:0|0:0|3:0,0:0:0:0:
337,130,3521,2,0,P|340:103|336:76,2,53.9999983520508,2|0|0,0:0|0:0|0:0,0:0:0:0:
238,104,3992,2,0,P|213:92|187:87,2,53.9999983520508,2|0|0,3:0|0:0|3:0,0:0:0:0:
185,192,4463,2,0,P|166:211|153:235,2,53.9999983520508,0|2|2,3:0|3:0|3:0,0:0:0:0:
250,272,4934,1,0,0:0:0:0:
250,272,5392,6,0,B|342:248|329:326|421:302,1,180,6|0,1:0|0:0,0:0:0:0:
368,87,5863,2,0,L|345:174,1,90,10|0,0:0|0:0,0:0:0:0:
512,256,6177,2,0,P|484:220|444:203,1,90,2|0,1:0|0:0,0:0:0:0:
291,307,6491,2,0,P|335:301|371:275,1,90,10|2,0:0|0:0,0:0:0:0:
204,252,6805,6,0,P|188:294|192:337,1,90,2|0,1:0|0:0,0:0:0:0:
295,204,7119,2,0,P|267:168|227:151,1,90,10|0,0:0|0:0,0:0:0:0:
63,238,7433,1,2,1:0:0:0:
291,307,7590,2,0,P|335:301|371:275,1,90,2|8,0:0|0:0,0:0:0:0:
295,34,7905,6,0,B|267:155|267:155|298:209,1,180,2|0,0:0|0:0,0:0:0:0:
388,370,8376,2,0,L|301:346,1,90,10|0,0:0|0:0,0:0:0:0:
376,138,8690,2,0,L|462:161,1,90,2|0,1:0|0:0,0:0:0:0:
208,259,9004,2,0,P|192:217|196:173,1,90,10|0,0:0|0:0,0:0:0:0:
399,283,9318,6,0,P|403:327|387:369,1,90,2|0,1:0|0:0,0:0:0:0:
295,203,9632,2,0,L|381:179,1,90,10|0,0:0|0:0,0:0:0:0:
240,359,9946,1,10,0:0:0:0:
207,363,10025,1,8,0:0:0:0:
174,357,10103,1,10,0:0:0:0:
144,340,10182,1,8,0:0:0:0:
121,315,10261,2,0,L|132:271,1,45,8|8,0:0|0:0,0:0:0:0:
187,59,10418,6,0,B|157:14|157:14|125:136,1,180,6|0,1:0|0:0,0:0:0:0:
273,251,10889,2,0,P|246:216|206:199,1,90,10|0,0:0|0:0,0:0:0:0:
31,271,11203,2,0,P|75:265|111:239,1,90,2|0,1:0|0:0,0:0:0:0:
136,49,11517,2,0,P|119:90|125:135,1,90,10|2,0:0|0:0,0:0:0:0:
274,252,11831,5,2,1:0:0:0:
223,106,11988,1,8,0:0:0:0:
151,331,12145,1,10,0:0:0:0:
145,352,12224,1,8,0:0:0:0:
140,375,12302,2,0,L|184:364,1,45,8|8,0:0|0:0,0:0:0:0:
393,296,12459,5,10,0:0:0:0:
370,271,12538,1,8,0:0:0:0:
340,254,12617,1,10,0:3:0:0:
307,248,12695,1,8,0:3:0:0:
274,252,12774,2,0,L|262:295,1,45,4|4,0:3|0:3,0:0:0:0:
488,341,12931,6,0,B|499:287|499:287|475:223|475:223|487:167,1,180,6|0,1:0|0:0,0:0:0:0:
301,80,13402,2,0,L|324:166,1,90,10|0,0:0|0:0,0:0:0:0:
491,64,13716,2,0,P|447:70|412:97,1,90,2|0,1:0|0:0,0:0:0:0:
306,319,14030,2,0,L|393:296,1,90,10|2,0:0|0:0,0:0:0:0:
200,110,14344,5,10,0:0:0:0:
200,110,14423,1,8,0:0:0:0:
200,110,14501,2,0,L|188:153,1,45,0|0,1:0|1:0,0:0:0:0:
75,190,14658,1,10,0:3:0:0:
75,190,14737,1,8,0:3:0:0:
75,190,14816,2,0,L|86:233,1,45,4|4,0:3|0:3,0:0:0:0:
200,270,14973,5,10,0:3:0:0:
93,81,15130,1,2,1:0:0:0:
93,81,15208,1,0,1:0:0:0:
93,81,15287,1,10,0:0:0:0:
17,320,15444,2,0,L|104:343,1,90,4|0,1:0|0:0,0:0:0:0:
269,251,15758,6,0,L|200:270,1,72,2|8,0:0|0:0,0:0:0:0:
336,331,16072,1,2,0:0:0:0:
370,232,16229,2,0,L|388:162,1,72,10|0,0:0|0:0,0:0:0:0:
267,79,16543,2,0,L|286:149,1,72,10|0,0:0|0:0,0:0:0:0:
153,285,16857,5,10,0:0:0:0:
193,190,17014,1,0,1:0:0:0:
130,310,17172,1,10,0:0:0:0:
82,218,17329,1,0,1:0:0:0:
254,272,17486,5,10,0:0:0:0:
69,376,17643,1,2,1:0:0:0:
264,305,17800,1,10,0:0:0:0:
82,218,17957,2,0,L|63:148,1,72,2|8,1:0|0:0,0:0:0:0:
220,55,18271,5,2,0:0:0:0:
186,213,18428,2,0,L|168:144,1,72,10|0,0:0|0:0,0:0:0:0:
322,52,18742,1,10,0:0:0:0:
274,143,18899,1,2,1:0:0:0:
353,37,19056,1,10,0:0:0:0:
411,124,19213,1,2,1:0:0:0:
220,55,19370,6,0,L|150:36,1,72,10|0,0:0|0:0,0:0:0:0:
97,219,19685,1,10,0:0:0:0:
168,144,19842,1,2,1:0:0:0:
0,186,19999,1,10,0:0:0:0:
113,330,20156,1,2,1:0:0:0:
113,330,20234,1,0,1:0:0:0:
113,330,20313,1,10,0:0:0:0:
71,111,20470,1,2,1:0:0:0:
196,244,20627,6,0,L|265:225,1,72,8|0,0:0|0:0,0:0:0:0:
385,348,20941,1,10,0:0:0:0:
431,255,21098,1,2,1:0:0:0:
353,357,21255,5,10,0:0:0:0:
487,342,21412,1,0,0:0:0:0:
329,257,21569,1,10,0:0:0:0:
485,167,21727,1,0,0:0:0:0:
385,348,21884,5,10,0:0:0:0:
301,157,22041,1,0,1:0:0:0:
225,368,22198,1,10,0:0:0:0:
335,153,22355,1,0,1:0:0:0:
82,213,22512,5,10,0:0:0:0:
329,257,22669,1,2,1:0:0:0:
169,134,22826,1,10,0:0:0:0:
215,330,22983,1,2,1:0:0:0:
335,153,23140,6,0,L|316:83,1,72,8|0,0:0|0:0,0:0:0:0:
230,228,23454,1,10,0:0:0:0:
429,195,23611,1,0,1:0:0:0:
455,188,23690,1,0,1:0:0:0:
481,181,23768,1,10,0:0:0:0:
215,98,23925,1,2,1:0:0:0:
189,91,24004,1,0,1:0:0:0:
163,84,24083,1,8,0:0:0:0:
319,256,24240,6,0,L|337:325,3,72,6|0|0|2,1:0|0:0|0:0|0:0,0:0:0:0:
337,325,25496,6,0,P|272:276|194:283,1,161.999995056153,4|2,1:0|0:0,0:0:0:0:
34,368,25967,2,0,L|44:288,1,80.9999975280763,10|0,0:0|0:0,0:0:0:0:
199,151,26281,1,2,1:0:0:0:
11,64,26439,1,8,0:3:0:0:
117,214,26596,1,10,0:0:0:0:
194,47,26753,1,0,0:0:0:0:
212,254,26910,5,2,1:0:0:0:
104,111,27067,1,2,0:0:0:0:
130,317,27224,1,10,0:0:0:0:
199,151,27381,1,2,0:0:0:0:
325,316,27538,1,2,1:0:0:0:
117,214,27695,1,10,0:3:0:0:
355,131,27852,1,10,0:0:0:0:
130,317,28009,6,0,L|50:307,1,80.9999975280763,2|0,1:0|0:0,0:0:0:0:
199,151,28323,1,2,0:0:0:0:
233,310,28480,2,0,P|225:354|205:385,1,80.9999975280763,10|0,0:0|0:0,0:0:0:0:
117,214,28795,1,2,1:0:0:0:
324,260,28952,1,8,0:3:0:0:
130,317,29109,1,10,0:0:0:0:
307,230,29266,1,0,0:0:0:0:
139,115,29423,5,2,1:0:0:0:
233,310,29580,1,2,0:0:0:0:
237,85,29737,1,10,0:0:0:0:
130,317,29894,1,2,0:0:0:0:
40,144,30051,1,2,1:0:0:0:
233,310,30208,1,10,0:3:0:0:
164,13,30365,1,10,0:0:0:0:
22,288,30522,2,0,L|32:368,1,80.9999975280763,2|4,0:0|1:0,0:0:0:0:
235,206,30836,5,2,0:0:0:0:
40,144,30994,1,10,0:0:0:0:
233,310,31151,1,0,0:0:0:0:
303,98,31308,1,2,1:0:0:0:
145,256,31465,1,10,0:3:0:0:
413,226,31622,2,0,L|333:236,1,80.9999975280763,10|0,0:0|0:0,0:0:0:0:
143,360,31936,5,2,1:0:0:0:
149,148,32093,1,0,0:0:0:0:
233,310,32250,1,10,0:0:0:0:
303,98,32407,1,0,0:0:0:0:
145,256,32564,1,2,1:0:0:0:
74,22,32721,1,10,0:3:0:0:
235,206,32878,2,0,L|315:216,1,80.9999975280763,10|0,0:0|0:0,0:0:0:0:
136,177,33192,6,0,P|133:217|145:256,1,80.9999975280763,2|0,1:0|0:0,0:0:0:0:
307,237,33507,2,0,P|274:213|234:205,1,80.9999975280763,10|0,0:0|0:0,0:0:0:0:
168,354,33821,2,0,P|204:337|232:308,1,80.9999975280763,2|8,1:0|0:3,0:0:0:0:
136,177,34135,2,0,P|133:217|145:256,1,80.9999975280763,10|0,0:0|0:0,0:0:0:0:
329,271,34449,6,0,L|408:258,1,80.9999975280763,10|0,0:0|1:0,0:0:0:0:
511,241,34685,1,0,1:0:0:0:
511,241,34763,2,0,L|498:162,1,80.9999975280763,10|0,0:3|1:0,0:0:0:0:
426,87,34999,1,0,1:0:0:0:
426,87,35077,2,0,L|432:47,3,40.4999987640381,6|0|0|0,0:3|1:0|1:0|1:0,0:0:0:0:
341,146,35391,2,0,L|347:185,3,40.4999987640381,2|0|0|0,1:0|1:0|1:0|1:0,0:0:0:0:
265,79,35706,6,0,P|211:69|170:143,1,144,6|0,1:0|1:0,0:0:0:0:
8,232,36334,2,0,P|61:222|102:296,1,144,2|0,1:0|1:0,0:0:0:0:
297,360,36962,6,0,B|322:310|322:310|296:222,1,144,2|0,1:0|1:0,0:0:0:0:
103,157,37590,2,0,B|78:207|78:207|104:295,1,144,2|0,1:0|1:0,0:0:0:0:
254,131,38062,1,8,0:0:0:0:
254,131,38140,1,8,0:0:0:0:
254,131,38219,6,0,P|326:127|384:169,1,144,4|0,1:0|1:0,0:0:0:0:
330,355,38847,2,0,P|290:293|298:223,1,144,0|0,1:0|1:0,0:0:0:0:
512,132,39475,6,0,P|439:128|381:170,1,144,0|0,1:0|1:0,0:0:0:0:
376,271,39946,1,8,0:0:0:0:
468,226,40103,1,2,1:0:0:0:
291,213,40261,1,10,0:0:0:0:
369,374,40418,1,2,1:0:0:0:
384,168,40575,1,10,0:3:0:0:
384,168,40653,1,8,0:3:0:0:
384,168,40732,6,0,P|332:119|261:114,1,144,4|2,1:0|1:0,0:0:0:0:
192,188,41203,1,2,0:0:0:0:
330,340,41360,2,0,P|333:269|291:212,1,144,0|2,1:0|1:0,0:0:0:0:
192,188,41831,1,2,0:0:0:0:
0,168,41988,6,0,P|52:119|123:114,1,144,0|2,1:0|1:0,0:0:0:0:
192,188,42459,1,2,0:0:0:0:
54,340,42617,2,0,P|50:269|92:212,1,144,0|2,1:0|1:0,0:0:0:0:
200,196,43088,1,10,0:0:0:0:
200,196,43166,1,8,0:0:0:0:
200,196,43245,6,0,L|213:275,1,72,4|0,1:0|0:0,0:0:0:0:
307,213,43559,2,0,L|320:292,1,72,0|0,1:0|0:0,0:0:0:0:
389,151,43873,2,0,L|402:72,1,72,0|0,1:0|0:0,0:0:0:0:
496,134,44187,2,0,L|509:55,1,72,0|0,1:0|0:0,0:0:0:0:
299,101,44501,6,0,L|220:114,1,72,2|8,1:0|0:0,0:0:0:0:
229,215,44737,1,0,1:0:0:0:
229,215,44816,2,0,L|301:204,1,72,2|8,1:0|0:3,0:0:0:0:
163,33,45130,1,2,1:0:0:0:
89,302,45287,1,8,0:0:0:0:
299,101,45444,1,10,0:0:0:0:
334,106,45522,1,8,0:0:0:0:
370,112,45601,1,8,0:0:0:0:
405,118,45679,1,8,0:0:0:0:
441,124,45758,6,0,B|405:185|405:185|441:288,1,180,6|8,1:0|0:0,0:0:0:0:
230,364,46229,1,0,0:0:0:0:
304,205,46386,2,0,L|334:291,1,90,2|0,1:0|1:0,0:0:0:0:
115,205,46700,2,0,L|144:120,1,90,8|2,0:0|0:0,0:0:0:0:
182,23,46936,1,0,0:0:0:0:
182,23,47014,6,0,P|137:16|95:29,1,90,2|0,1:0|0:0,0:0:0:0:
217,210,47329,2,0,P|262:217|304:204,1,90,10|0,0:0|0:0,0:0:0:0:
144,120,47643,2,0,P|115:155|105:198,1,90,2|0,1:0|1:0,0:0:0:0:
200,363,47957,2,0,P|184:321|152:291,1,90,10|0,0:0|1:0,0:0:0:0:
50,285,48192,1,0,1:0:0:0:
50,285,48271,6,0,L|20:369,1,90,0|0,1:0|1:0,0:0:0:0:
217,210,48585,1,8,0:0:0:0:
44,102,48742,1,0,0:0:0:0:
151,291,48899,1,0,1:0:0:0:
239,108,49056,1,0,1:0:0:0:
336,301,49213,2,0,L|420:271,1,90,10|0,0:0|1:0,0:0:0:0:
501,206,49449,1,0,1:0:0:0:
501,206,49528,6,0,P|465:177|422:167,1,90,2|0,1:0|1:0,0:0:0:0:
226,292,49842,2,0,L|255:376,1,90,10|0,0:0|1:0,0:0:0:0:
372,78,50156,5,10,0:0:0:0:
420,271,50313,1,0,1:0:0:0:
239,108,50470,1,10,0:0:0:0:
144,368,50627,1,0,1:0:0:0:
144,368,50706,1,0,1:0:0:0:
144,368,50784,5,14,0:0:0:0:
256,213,50941,1,0,1:0:0:0:
62,158,51098,1,0,1:0:0:0:
235,316,51255,5,14,0:0:0:0:
174,127,51412,1,2,1:0:0:0:
42,273,51569,1,0,1:0:0:0:
333,283,51727,5,10,0:0:0:0:
141,225,51884,1,0,1:0:0:0:
389,157,52041,5,14,0:0:0:0:
235,316,52198,1,0,1:0:0:0:
415,368,52355,1,2,1:0:0:0:
141,225,52512,5,12,0:0:0:0:
333,283,52669,1,2,1:0:0:0:
156,382,52826,1,0,1:0:0:0:
276,54,52983,5,10,0:0:0:0:
333,283,53140,1,0,1:0:0:0:
141,225,53297,5,14,0:0:0:0:
164,187,53376,1,0,1:0:0:0:
202,162,53454,1,0,1:0:0:0:
246,156,53533,1,0,1:0:0:0:
289,168,53611,2,0,L|303:210,1,45,0|0,1:0|1:0,0:0:0:0:
161,327,53768,5,14,0:0:0:0:
116,326,53847,1,0,1:0:0:0:
75,305,53925,1,0,1:0:0:0:
47,269,54004,1,0,1:0:0:0:
38,226,54083,2,0,L|52:183,1,45,0|0,1:0|1:0,0:0:0:0:
227,37,54240,5,14,0:0:0:0:
336,352,54397,1,8,0:0:0:0:
336,352,54711,5,2,0:0:0:0:
477,297,54868,1,2,0:0:0:0:
311,249,55025,1,2,0:0:0:0:
501,321,55182,1,2,0:0:0:0:
312,375,55339,6,0,L|274:361,1,33.75,2|0,0:0|0:0,0:0:0:0:
215,285,55661,6,0,B|104:255|120:350|10:321,1,215.999993408203,6|0,1:0|0:0,0:0:0:0:
287,211,56132,2,0,P|314:256|315:310,1,107.999996704102,10|0,0:0|0:0,0:0:0:0:
47,224,56446,2,0,P|50:164|75:125,1,107.999996704102,2|0,1:0|0:0,0:0:0:0:
275,74,56760,2,0,P|228:100|175:100,1,107.999996704102,10|0,0:0|0:0,0:0:0:0:
347,1,57074,6,0,P|374:46|375:100,1,107.999996704102,2|0,1:0|0:0,0:0:0:0:
215,285,57388,1,10,0:0:0:0:
410,356,57545,2,0,B|464:305|454:227|454:227|427:198|387:203,1,215.999993408203,2|0,0:0|0:0,0:0:0:0:
215,285,58016,1,8,0:0:0:0:
275,74,58174,1,2,0:0:0:0:
331,290,58331,5,2,1:0:0:0:
193,136,58488,1,2,0:0:0:0:
121,358,58645,1,10,0:0:0:0:
287,177,58802,1,2,0:0:0:0:
384,379,58959,1,2,1:0:0:0:
205,239,59116,2,0,L|99:257,1,107.999996704102,2|8,0:0|0:0,0:0:0:0:
275,74,59430,1,2,0:0:0:0:
278,314,59587,6,0,P|231:339|177:339,1,107.999996704102,2|0,1:0|0:0,0:0:0:0:
384,215,59901,2,0,P|429:242|455:289,1,107.999996704102,10|0,0:0|0:0,0:0:0:0:
246,173,60215,2,0,P|246:119|274:73,1,107.999996704102,2|0,1:0|0:0,0:0:0:0:
356,316,60530,2,0,L|250:298,1,107.999996704102,10|8,0:0|0:0,0:0:0:0:
150,270,60765,1,8,0:0:0:0:
150,270,60844,6,0,P|149:323|175:370,1,107.999996704102,6|0,1:0|0:0,0:0:0:0:
124,165,61158,2,0,P|78:137|24:136,1,107.999996704102,10|0,0:0|0:0,0:0:0:0:
227,194,61472,2,0,P|273:167|301:122,1,107.999996704102,2|0,1:0|0:0,0:0:0:0:
50,237,61786,2,0,L|32:343,1,107.999996704102,10|0,0:0|0:0,0:0:0:0:
202,93,62100,6,0,B|163:39|163:39|84:27|19:84,2,215.999993408203,2|8|2,1:0|0:0|1:0,0:0:0:0:
251,285,62886,1,2,0:0:0:0:
350,25,63043,1,10,0:0:0:0:
466,332,63200,6,0,L|360:350,1,107.999996704102,10|0,0:0|1:0,0:0:0:0:
109,137,63514,1,10,0:0:0:0:
96,308,63671,2,0,L|149:298,1,53.9999983520508,0|0,1:0|1:0,0:0:0:0:
264,206,63828,1,10,0:0:0:0:
258,245,63907,1,8,0:0:0:0:
251,285,63985,2,0,L|241:338,1,53.9999983520508,8|8,0:0|0:0,0:0:0:0:
359,350,64142,1,10,0:0:0:0:
365,311,64221,1,8,0:0:0:0:
372,271,64299,2,0,L|381:217,1,53.9999983520508,8|4,0:3|0:3,0:0:0:0:
350,25,64456,5,6,1:0:0:0:
56,248,64770,5,10,1:3:0:0:
479,341,65085,5,10,1:3:0:0:
74,37,65399,5,10,1:2:0:0:
474,195,65713,6,0,B|363:165|379:260|269:231,1,215.999993408203,6|0,1:0|0:0,0:0:0:0:
164,64,66184,2,0,P|191:110|192:164,1,107.999996704102,0|0,1:0|0:0,0:0:0:0:
11,354,66498,2,0,P|69:268|173:265,1,215.999993408203,2|2,1:0|1:0,0:0:0:0:
331,336,66969,2,0,L|225:354,1,107.999996704102,2|0,0:0|1:0,0:0:0:0:
351,130,67283,6,0,B|401:180|396:256|396:256|399:204|434:177,1,215.999993408203,2|0,0:0|0:0,0:0:0:0:
512,130,67755,1,2,1:0:0:0:
499,256,67912,1,10,0:3:0:0:
432,65,68069,1,6,0:3:0:0:
331,336,68226,6,0,L|225:318,1,107.999996704102,14|0,0:0|0:0,0:0:0:0:
167,120,68540,2,0,P|194:166|195:220,1,107.999996704102,2|0,0:0|1:0,0:0:0:0:
51,368,68854,2,0,P|78:322|124:295,1,107.999996704102,2|0,0:0|1:0,0:0:0:0:
331,336,69168,2,0,L|313:230,1,107.999996704102,2|0,0:0|1:0,0:0:0:0:
276,30,69482,1,2,0:0:0:0:
512,84,69639,5,8,1:2:0:0:
489,122,69718,1,8,0:0:0:0:
451,147,69797,1,10,0:0:0:0:
407,153,69875,1,8,0:0:0:0:
364,140,69954,1,10,1:2:0:0:
321,127,70032,1,8,0:0:0:0:
277,133,70111,1,10,0:0:0:0:
239,158,70189,1,8,0:0:0:0:
216,196,70268,6,0,L|207:249,3,53.9999983520508,10|8|8|8,1:2|0:0|0:0|0:0,0:0:0:0:
105,256,70582,2,0,L|114:203,3,53.9999983520508,10|8|0|0,1:2|0:0|1:0|1:0,0:0:0:0:
22,157,70896,5,8,0:0:0:0:
161,342,71053,1,0,1:0:0:0:
250,99,71210,2,0,P|275:45|302:-1,1,107.999996704102,2|8,1:0|0:0,0:0:0:0:
448,198,71524,2,0,P|474:244|497:293,1,107.999996704102,2|0,1:0|1:0,0:0:0:0:
347,158,71838,1,10,0:0:0:0:
316,356,71996,2,0,P|339:307|366:261,1,107.999996704102,2|0,1:0|1:0,0:0:0:0:
512,117,72310,5,10,0:0:0:0:
268,225,72467,1,2,1:0:0:0:
497,293,72624,1,2,1:0:0:0:
330,65,72781,5,10,0:0:0:0:
223,318,72938,1,2,1:0:0:0:
410,130,73095,1,10,0:0:0:0:
437,377,73252,1,0,1:0:0:0:
268,225,73409,6,0,L|215:216,3,53.9999983520508,8|8|4|4,0:3|0:3|0:3|0:3,0:0:0:0:
112,204,73723,2,0,L|94:98,1,107.999996704102,10|0,0:0|1:0,0:0:0:0:
166,23,73959,1,0,1:0:0:0:
166,23,74037,2,0,P|193:68|193:122,1,107.999996704102,10|0,0:3|1:0,0:0:0:0:
219,220,74273,1,0,1:0:0:0:
219,220,74352,2,0,P|264:192|318:192,1,107.999996704102,2|2,1:0|1:0,0:0:0:0:
395,262,74587,1,0,1:0:0:0:
395,262,74666,6,0,L|386:315,3,53.9999983520508,8|8|2|0,0:0|0:0|1:0|1:0,0:0:0:0:
484,346,74980,2,0,L|493:293,3,53.9999983520508,8|8|0|0,0:0|0:0|0:0|1:0,0:0:0:0:
512,190,75294,6,0,L|459:181,1,53.9999983520508,10|8,0:3|0:3,0:0:0:0:
401,33,75451,2,0,L|420:84,1,53.9999983520508,6|0,0:3|1:0,0:0:0:0:
322,207,75608,2,0,L|357:166,1,53.9999983520508,10|0,0:0|0:0,0:0:0:0:
165,39,75765,6,0,B|40:61|40:61|92:84,1,180,6|0,1:0|0:0,0:0:0:0:
226,245,76236,2,0,L|208:351,1,90,8|0,0:0|0:0,0:0:0:0:
177,154,76550,2,0,P|219:141|263:148,1,90,0|0,1:0|0:0,0:0:0:0:
124,243,76865,2,0,P|91:212|75:170,1,90,8|0,0:0|0:0,0:0:0:0:
226,245,77179,6,0,L|314:260,1,90,0|0,1:0|0:0,0:0:0:0:
455,165,77493,2,0,P|411:158|369:171,1,90,8|0,0:0|0:0,0:0:0:0:
379,340,77807,2,0,P|407:305|418:262,1,90,2|8,1:0|0:3,0:0:0:0:
263,148,78121,1,8,0:0:0:0:
171,330,78278,6,0,P|226:263|314:260,1,180,6|0,1:0|0:0,0:0:0:0:
199,66,78749,2,0,P|171:101|161:145,1,90,8|0,0:0|0:0,0:0:0:0:
388,64,79064,2,0,P|346:48|302:52,1,90,0|0,1:0|0:0,0:0:0:0:
448,242,79378,2,0,P|450:197|433:156,1,90,8|0,0:0|0:0,0:0:0:0:
263,148,79692,6,0,L|278:236,1,90,0|0,1:0|0:0,0:0:0:0:
421,355,80006,2,0,P|386:327|343:317,1,90,8|0,0:0|0:0,0:0:0:0:
169,382,80320,2,0,P|211:366|242:334,1,90,2|8,1:0|0:3,0:0:0:0:
263,148,80634,1,8,0:0:0:0:
83,137,80791,6,0,P|150:192|154:280,1,180,6|0,1:0|0:0,0:0:0:0:
183,83,81263,2,0,P|217:54|261:44,1,90,8|0,0:0|0:0,0:0:0:0:
351,163,81577,2,0,L|262:147,1,90,0|0,1:0|0:0,0:0:0:0:
415,82,81891,2,0,P|443:116|453:160,1,90,8|0,0:0|0:0,0:0:0:0:
382,372,82205,5,8,0:0:0:0:
337,364,82283,1,8,0:0:0:0:
293,356,82362,1,0,1:0:0:0:
248,349,82441,1,0,1:0:0:0:
204,341,82519,2,0,L|159:333,3,45,8|8|0|0,0:3|0:3|1:0|1:0,0:0:0:0:
138,232,82833,5,0,1:0:0:0:
148,188,82912,1,0,1:0:0:0:
176,153,82990,2,0,P|110:160|53:124,1,135,10|0,0:0|0:0,0:0:0:0:
34,23,83304,6,0,B|94:11|94:11|150:35|150:35|210:23,1,180,6|0,1:0|0:0,0:0:0:0:
264,168,83776,2,0,L|175:152,1,90,10|0,0:0|0:0,0:0:0:0:
328,86,84090,2,0,P|356:120|366:164,1,90,2|0,1:0|0:0,0:0:0:0:
279,334,84404,2,0,P|289:290|317:255,1,90,10|2,0:0|0:0,0:0:0:0:
460,375,84718,6,0,P|425:346|381:336,1,90,2|0,1:0|0:0,0:0:0:0:
185,376,85032,2,0,L|169:287,1,90,10|0,0:0|0:0,0:0:0:0:
130,59,85346,1,2,1:0:0:0:
67,219,85503,1,2,0:0:0:0:
225,99,85660,1,10,0:0:0:0:
270,264,85817,1,2,0:0:0:0:
320,59,85975,6,0,L|312:14,3,45,8|0|0|0,0:0|1:0|1:0|1:0,0:0:0:0:
422,76,86289,2,0,L|429:120,3,45,10|0|2|0,0:0|1:0|1:0|1:0,0:0:0:0:
361,215,86603,5,10,0:0:0:0:
332,181,86681,1,0,1:0:0:0:
291,162,86760,1,0,1:0:0:0:
246,163,86838,1,0,1:0:0:0:
206,183,86917,1,10,0:0:0:0:
166,203,86996,1,0,1:0:0:0:
121,203,87074,1,0,1:0:0:0:
80,185,87153,1,0,1:0:0:0:
51,151,87231,6,0,P|46:201|26:275,1,120,8|0,0:0|0:0,0:0:0:0:
13,288,87545,2,0,L|23:328,3,36,2|0|0|0,0:0|0:0|0:0|0:0,0:0:0:0:
97,366,87859,1,2,0:0:0:0:
213,223,88016,2,0,P|161:225|135:270,1,108,2|0,0:0|0:0,0:0:0:0:
222,326,88331,5,6,1:0:0:0:
