osu file format v14

[General]
AudioFilename: audio.mp3
AudioLeadIn: 0
PreviewTime: 55584
Countdown: 0
SampleSet: Soft
StackLeniency: 0.2
Mode: 0
LetterboxInBreaks: 0
WidescreenStoryboard: 1

[Editor]
Bookmarks: 10584,65086
DistanceSpacing: 1
BeatDivisor: 4
GridSize: 4
TimelineZoom: 2.1

[Metadata]
Title:ADAMAS (TV Size)
TitleUnicode:ADAMAS (TV Size)
Artist:LiSA
ArtistUnicode:LiSA
Creator:Regou
Version:kanor's Insane
Source:ソードアート・オンライン アリシゼーション
Tags:sword art online sao alicization season three 3 kirito asuna eugeo alice opening 織部里沙 oribe risa Flask kanor Yugu Chaoslitz
BeatmapID:1800431
BeatmapSetID:860219

[Difficulty]
HPDrainRate:6
CircleSize:4.2
OverallDifficulty:8
ApproachRate:9
SliderMultiplier:1.6
SliderTickRate:1

[Events]
//Background and Video events
0,0,"BG.jpg",0,0
//Break Periods
//Storyboard Layer 0 (Background)
//Storyboard Layer 1 (Fail)
//Storyboard Layer 2 (Pass)
//Storyboard Layer 3 (Foreground)
//Storyboard Sound Samples

[TimingPoints]
532,314.13612565445,4,2,2,35,1,0
5392,314.13612565445,4,1,4,50,1,0
5549,314.13612565445,4,1,1,50,1,0
7582,-133.333333333333,4,1,1,50,0,0
7897,-100,4,1,1,50,0,0
12923,-100,4,1,4,45,0,0
13237,-100,4,1,1,50,0,0
14336,-100,4,1,1,55,0,0
15444,-133.333333333333,4,1,3,30,0,0
15585,314.13612565445,4,1,3,30,1,0
15742,-133.333333333333,4,2,1,45,0,0
17627,-133.333333333333,4,2,1,40,0,0
17784,-133.333333333333,4,2,1,45,0,0
17941,-133.333333333333,4,2,1,40,0,0
18106,314.13612565445,4,2,1,45,1,0
18106,-133.333333333333,4,2,1,45,0,0
19834,-133.333333333333,4,2,1,40,0,0
19991,-133.333333333333,4,2,1,45,0,0
20148,-133.333333333333,4,2,1,40,0,0
20305,-133.333333333333,4,2,1,45,0,0
20941,314.13612565445,4,2,1,45,1,0
20941,-133.333333333333,4,2,1,45,0,0
21883,314.13612565445,4,2,1,45,1,0
21883,-133.333333333333,4,2,1,45,0,0
22355,-133.333333333333,4,2,1,40,0,0
22512,-133.333333333333,4,2,1,45,0,0
22669,-133.333333333333,4,2,1,40,0,0
22826,-133.333333333333,4,2,1,45,0,0
22983,-133.333333333333,4,2,1,40,0,0
23140,-133.333333333333,4,2,1,45,0,0
25505,314.13612565445,4,2,3,50,1,0
25505,-100,4,2,3,50,0,0
25662,314.13612565445,4,2,3,50,1,0
25663,-100,4,2,3,50,0,0
25820,-100,4,2,1,50,0,0
35714,-200,4,2,3,30,0,0
36028,-200,4,2,1,40,0,0
36342,-200,4,2,1,45,0,0
38227,-200,4,2,3,35,0,0
38541,-200,4,2,1,45,0,0
40740,-200,4,2,3,35,0,0
41054,-200,4,2,1,45,0,0
43253,-200,4,2,3,30,0,0
43567,-200,4,2,1,45,0,0
44509,-133.333333333333,4,2,1,45,0,0
45766,-100,4,2,1,50,0,0
50792,-100,4,2,3,60,0,0
50949,-100,4,2,1,50,0,0
52049,-100,4,2,3,60,0,0
52206,-100,4,2,1,50,0,0
55347,-100,4,2,1,45,0,0
55661,-100,4,2,4,45,0,1
55976,-100,4,2,1,55,0,1
60845,-100,4,2,4,45,0,1
61002,-100,4,2,1,55,0,1
63515,-100,4,2,1,65,0,1
63672,-100,4,2,1,62,0,1
63829,-100,4,2,1,58,0,1
63986,-100,4,2,1,55,0,1
64143,-100,4,2,1,52,0,1
64300,-100,4,2,1,49,0,1
64457,-100,4,2,1,55,0,1
65714,-100,4,2,3,45,0,1
66028,-100,4,2,1,45,0,1
66499,-100,4,2,1,45,0,1
69640,-100,4,2,1,55,0,1
70347,-100,4,2,1,52,0,1
70426,-100,4,2,1,48,0,1
70504,-100,4,2,1,45,0,1
70583,-100,4,2,1,35,0,1
70897,-100,4,2,4,45,0,1
71054,-100,4,2,1,45,0,1
73410,-100,4,2,4,45,0,1
73489,-100,4,2,1,48,0,1
74038,-100,4,2,1,52,0,1
74353,-100,4,2,1,55,0,1
74667,-100,4,2,1,59,0,1
74981,-100,4,2,1,62,0,1
75295,-100,4,2,1,55,0,1
75452,-100,4,2,1,60,0,1
75609,-100,4,2,1,65,0,1
75766,-100,4,2,4,55,0,1
76080,-100,4,2,1,55,0,1
80792,-100,4,2,4,45,0,1
81106,-100,4,2,1,55,0,1
82991,-133.333333333333,4,2,1,45,0,1
83305,-100,4,2,4,45,0,1
83620,-100,4,2,1,55,0,1
88332,-100,4,2,1,55,0,0

[Colours]
Combo1 : 255,255,83
Combo2 : 254,104,61
Combo3 : 60,148,255
Combo4 : 254,69,124

[HitObjects]
0,208,5392,6,0,B|103:189|57:255|159:228,1,160,4|2,1:1|1:2,1:0:0:0:
176,104,5863,2,0,P|136:85|88:95,1,80,8|0,1:0|1:0,1:0:0:0:
128,160,6177,1,2,1:0:0:0:
128,160,6334,1,0,1:0:0:0:
252,100,6491,2,0,P|237:58|196:31,1,80,8|0,1:0|1:0,1:0:0:0:
176,104,6805,5,2,1:2:0:0:
176,104,6962,1,0,1:0:0:0:
312,152,7119,2,0,P|331:112|320:64,1,80,8|0,1:0|1:0,1:0:0:0:
252,100,7433,1,2,1:2:0:0:
151,229,7590,6,0,L|139:328,1,90.0000034332277,2|0,1:0|2:0,1:0:0:0:
60,328,7905,6,0,B|116:312|116:312|160:324|160:324|220:304,1,160,6|2,1:0|1:0,1:0:0:0:
384,241,8376,2,0,P|343:255|302:243,1,80,8|0,1:0|1:2,1:0:0:0:
205,192,8690,2,0,P|246:203|272:237,1,80,2|0,1:2|1:0,1:0:0:0:
321,336,9004,2,0,P|294:302|293:259,1,80,8|0,1:2|1:0,1:0:0:0:
312,152,9318,6,0,P|313:194|289:230,1,80,2|0,1:2|1:0,1:0:0:0:
211,305,9632,2,0,P|234:269|275:254,1,80,8|0,1:0|1:0,1:0:0:0:
340,156,9946,1,2,1:0:0:0:
367,159,10025,1,0,1:0:0:0:
395,162,10103,1,0,1:0:0:0:
423,165,10182,1,0,1:0:0:0:
451,169,10261,2,0,L|464:96,1,40,10|0,1:0|1:0,1:0:0:0:
488,52,10418,6,0,B|385:33|431:99|329:72,1,160,6|2,1:0|1:0,1:0:0:0:
212,92,10889,2,0,P|193:52|203:4,1,80,8|0,1:0|1:0,1:0:0:0:
268,44,11203,1,2,1:0:0:0:
268,44,11360,1,0,1:0:0:0:
208,168,11517,2,0,P|166:153|139:112,1,80,8|0,1:0|1:0,1:0:0:0:
212,92,11831,5,0,1:0:0:0:
200,248,11988,1,8,1:0:0:0:
144,126,12145,2,0,L|71:139,3,40,8|8|8|8,1:0|1:0|1:0|1:0,1:0:0:0:
32,112,12459,5,8,1:0:0:0:
29,139,12538,1,8,1:0:0:0:
26,167,12617,1,8,1:0:0:0:
23,195,12695,1,8,1:0:0:0:
19,223,12774,2,0,L|92:236,1,40,8|8,1:0|1:0,1:0:0:0:
136,208,12931,6,0,B|124:268|124:268|140:312|140:312|128:380,1,160,6|0,0:1|0:2,0:0:0:0:
200,256,13402,2,0,L|308:272,1,80,8|0,0:0|0:0,0:0:0:0:
130,363,13716,2,0,L|22:347,1,80,2|0,0:0|0:0,0:0:0:0:
216,336,14030,2,0,L|324:352,1,80,8|0,0:0|0:0,0:0:0:0:
500,320,14344,6,0,L|444:332,3,40,8|8|8|8,0:0|0:0|0:0|0:0,0:0:0:0:
392,304,14658,2,0,L|336:292,3,40,8|8|8|8,0:0|0:0|0:0|0:0,0:0:0:0:
448,248,14973,1,0,0:0:0:0:
404,376,15130,1,2,0:0:0:0:
336,216,15287,1,8,0:0:0:0:
295,347,15444,6,0,P|232:372|176:344,1,113.5,14|0,0:0|0:0,0:0:0:0:
120,248,15899,2,0,L|132:312,1,60.0000022888184,8|0,0:0|0:0,0:0:0:0:
108,376,16213,2,0,B|68:352|68:352|53:280,1,120.000004577637,8|8,0:0|0:0,0:0:0:0:
120,248,16684,1,0,0:0:0:0:
36,184,16841,6,0,L|95:178,1,60.0000022888184,8|2,0:0|0:2,0:0:0:0:
8,112,17155,2,0,L|67:106,1,60.0000022888184,8|2,0:0|0:2,0:0:0:0:
200,84,17469,2,0,L|140:78,1,60.0000022888184,8|2,0:0|0:3,0:0:0:0:
228,12,17783,2,0,L|168:6,1,60.0000022888184,8|2,0:0|0:3,0:0:0:0:
264,128,18106,6,0,B|292:120|292:120|323:122,1,60.0000022888184,8|0,0:0|0:0,0:0:0:0:
472,84,18420,2,0,B|432:60|432:60|368:64,1,90.0000034332277,8|0,0:0|0:0,0:0:0:0:
368,64,18734,1,8,0:0:0:0:
368,64,18891,1,0,0:0:0:0:
400,192,19048,2,0,L|416:112,1,60.0000022888184,8|0,0:0|0:0,0:0:0:0:
296,192,19362,5,8,0:0:0:0:
295,191,19676,2,0,L|307:250,1,60.0000022888184,8|2,0:0|0:3,0:0:0:0:
436,272,19990,2,0,P|406:267|377:275,1,60.0000022888184,8|2,0:0|0:3,0:0:0:0:
420,344,20226,1,2,0:3:0:0:
420,344,20305,2,0,P|449:352|479:348,1,60.0000022888184,8|0,0:0|0:0,0:0:0:0:
320,320,20619,5,8,0:0:0:0:
320,320,20941,2,0,L|261:332,1,60.0000022888184,8|0,0:0|0:3,0:0:0:0:
306,249,21255,2,0,L|247:261,1,60.0000022888184,8|0,0:0|0:0,0:0:0:0:
192,360,21569,1,8,0:0:0:0:
192,360,21726,1,0,0:0:0:0:
144,184,21883,6,0,P|176:200|196:244,1,60.0000022888184,8|0,0:0|0:0,0:0:0:0:
68,260,22197,2,0,P|101:248|147:265,1,60.0000022888184,8|2,0:0|0:3,0:0:0:0:
72,368,22511,2,0,P|88:335|132:316,1,60.0000022888184,8|2,0:0|0:3,0:0:0:0:
16,208,22825,1,8,0:0:0:0:
32,136,22982,1,2,0:3:0:0:
12,60,23139,6,0,B|48:56|72:72|72:72|84:48|128:36,1,120.000004577637,8|8,0:0|0:0,0:0:0:0:
144,116,23610,1,0,0:0:0:0:
144,116,23689,1,8,0:0:0:0:
144,116,23767,1,8,0:0:0:0:
188,0,23924,1,2,0:3:0:0:
272,92,24081,1,8,0:0:0:0:
117,39,24239,1,4,0:0:0:0:
256,192,24317,12,4,25505,1:0:0:0:
488,96,25819,5,2,0:0:0:0:
488,96,25976,2,0,P|444:100|408:84,1,80,8|0,1:0|0:0,0:0:0:0:
364,32,26290,1,0,1:0:0:0:
388,160,26447,1,2,0:0:0:0:
264,96,26604,2,0,P|308:92|344:108,1,80,8|2,1:0|0:0,0:0:0:0:
316,236,26918,5,2,1:0:0:0:
296,164,27075,1,0,0:0:0:0:
296,308,27232,1,10,1:0:0:0:
316,236,27389,1,0,0:0:0:0:
336,368,27546,2,0,P|376:384|420:364,1,80,2|2,1:0|0:0,0:0:0:0:
316,236,27860,1,10,1:0:0:0:
248,368,28018,6,0,B|145:387|191:321|89:348,1,160,2|0,0:0|0:0,0:0:0:0:
212,220,28489,2,0,B|204:256|204:256|220:300,1,80,8|0,1:0|0:0,0:0:0:0:
248,368,28803,1,0,1:0:0:0:
212,220,28960,1,2,0:0:0:0:
95,346,29117,2,0,B|103:310|103:310|87:266,1,80,8|2,1:0|0:0,0:0:0:0:
0,152,29431,5,2,1:0:0:0:
56,204,29588,1,0,0:0:0:0:
0,152,29745,1,10,1:0:0:0:
12,264,29902,1,0,0:0:0:0:
104,144,30059,2,0,L|109:64,1,80,0|2,1:0|0:0,0:0:0:0:
52,8,30374,1,8,1:0:0:0:
104,144,30531,6,0,B|164:132|164:132|208:148|208:148|276:136,1,160,0|2,0:0|0:0,0:0:0:0:
308,8,31002,2,0,P|296:56|320:104,1,80,8|2,1:0|0:1,0:0:0:0:
440,32,31316,1,4,1:2:0:0:
368,48,31473,1,2,0:1:0:0:
492,120,31630,1,8,1:0:0:0:
420,104,31787,1,2,0:1:0:0:
356,216,31944,6,0,P|344:168|368:120,1,80,0|2,1:0|0:0,0:0:0:0:
508,216,32258,2,0,P|520:264|496:312,1,80,8|2,1:0|0:0,0:0:0:0:
376,284,32572,1,0,1:0:0:0:
444,256,32730,1,2,0:0:0:0:
452,380,32887,2,0,B|396:360|396:360|336:376,1,120,8|0,1:0|0:0,0:0:0:0:
307,383,33201,6,0,B|295:343|295:343|311:279,1,80,4|0,1:2|0:0,0:0:0:0:
203,383,33515,2,0,B|215:343|215:343|199:279,1,80,8|0,1:0|0:0,0:0:0:0:
304,305,33829,2,0,B|292:265|292:265|308:201,1,80,4|0,1:2|0:0,0:0:0:0:
206,306,34143,2,0,B|218:266|218:266|202:202,1,80,8|0,1:2|0:0,0:0:0:0:
331,164,34457,6,0,B|293:154|293:154|253:166,1,80,4|0,2:0|0:0,0:0:0:0:
177,163,34771,2,0,B|214:153|214:153|254:165,1,80,8|0,0:0|0:0,0:0:0:0:
368,55,35086,2,0,B|329:58|329:58|296:83,1,80,8|0,0:3|0:3,0:0:0:0:
143,55,35400,2,0,B|181:58|181:58|214:83,1,80,8|0,0:0|0:0,0:0:0:0:
256,20,35714,5,2,2:3:0:0:
256,20,36028,1,0,1:0:0:0:
256,20,36342,1,0,1:0:0:0:
256,20,36656,1,0,1:0:0:0:
296,156,36970,6,0,L|380:144,1,80,0|0,1:0|1:0,0:0:0:0:
384,220,37599,2,0,L|300:232,1,80,0|0,1:0|1:0,0:0:0:0:
216,156,38070,5,0,1:0:0:0:
216,156,38148,1,0,1:0:0:0:
216,156,38227,2,0,L|132:144,1,80,8|0,1:3|1:0,0:0:0:0:
128,220,38855,2,0,L|212:232,1,80,0|0,1:0|1:0,0:0:0:0:
256,288,39483,6,0,L|256:384,1,80,0|0,1:0|1:0,0:0:0:0:
24,304,39955,1,8,0:0:0:0:
24,304,40112,2,0,L|76:312,1,40,0|8,0:0|0:0,0:0:0:0:
128,360,40426,2,0,L|180:340,1,40,2|8,0:0|0:0,0:0:0:0:
256,364,40740,5,6,0:3:0:0:
256,364,41054,1,8,0:0:0:0:
256,364,41368,1,2,0:0:0:0:
256,364,41682,1,8,0:0:0:0:
188,228,41997,6,0,B|148:240|148:240|104:232,1,80,2|8,0:0|0:0,0:0:0:0:
104,156,42625,2,0,B|144:144|144:144|188:152,1,80,2|8,0:0|0:0,0:0:0:0:
296,228,43096,5,0,1:0:0:0:
296,228,43175,1,0,1:0:0:0:
296,228,43253,2,0,B|336:240|336:240|380:232,1,80,4|8,0:3|0:0,0:0:0:0:
380,156,43881,2,0,B|340:144|340:144|296:152,1,80,2|0,0:0|0:0,0:0:0:0:
302,14,44353,5,0,0:0:0:0:
302,14,44431,1,0,0:0:0:0:
302,14,44510,2,0,P|310:46|298:86,1,60.0000022888184,0|8,0:0|0:0,0:0:0:0:
186,82,44824,2,0,P|209:59|250:49,1,60.0000022888184,0|8,0:0|0:0,0:0:0:0:
302,150,45138,2,0,P|270:140|241:110,1,60.0000022888184,0|8,0:0|0:0,0:0:0:0:
384,40,45452,5,8,0:0:0:0:
404,37,45531,1,8,0:0:0:0:
425,35,45609,1,8,0:0:0:0:
446,33,45688,1,8,0:0:0:0:
472,20,45766,6,0,L|472:128,1,80,4|2,0:0|0:0,0:0:0:0:
348,152,46080,2,0,P|390:146|434:170,1,80,8|0,1:0|0:0,0:0:0:0:
371,295,46394,1,2,1:2:0:0:
374,221,46552,1,0,0:0:0:0:
402,365,46709,2,0,P|359:370|315:346,1,80,8|0,1:0|0:0,0:0:0:0:
200,244,47023,6,0,P|160:228|112:240,1,80,2|0,1:0|0:0,0:0:0:0:
110,365,47337,2,0,P|152:370|196:346,1,80,8|0,1:0|0:0,0:0:0:0:
312,244,47651,2,0,P|352:228|400:240,1,80,2|0,1:0|0:0,0:0:0:0:
256,304,47965,1,8,1:0:0:0:
256,156,48122,5,0,0:0:0:0:
256,156,48201,1,0,0:0:0:0:
256,156,48279,2,0,L|256:64,1,80,2|0,1:2|0:0,0:0:0:0:
392,16,48593,2,0,P|352:40|304:28,1,80,8|2,1:0|0:0,0:0:0:0:
191,36,48908,2,0,P|152:38|120:16,1,80,0|2,2:0|0:0,0:0:0:0:
256,76,49222,2,0,L|256:156,1,80,8|0,1:0|0:0,0:0:0:0:
108,144,49536,6,0,P|140:121|179:123,1,80,0|0,1:0|0:0,0:0:0:0:
404,144,49850,2,0,P|371:121|332:123,1,80,8|0,1:0|0:0,0:0:0:0:
216,256,50164,1,8,1:0:0:0:
256,156,50321,1,0,0:0:0:0:
300,300,50478,1,8,1:0:0:0:
476,216,50635,5,0,0:0:0:0:
464,220,50714,1,0,0:0:0:0:
452,222,50792,2,0,B|408:229|408:229|368:210,1,80,6|0,0:2|2:0,0:0:0:0:
300,300,51107,1,8,0:0:0:0:
300,300,51264,2,0,B|356:286|356:286|400:306|400:306|468:294,1,160,0|0,1:0|0:0,0:0:0:0:
383,376,51735,2,0,B|350:361|350:361|307:373,1,80,8|0,1:0|0:0,0:0:0:0:
135,214,52049,6,0,B|103:229|103:229|60:222,1,80,6|0,0:2|0:0,0:0:0:0:
58,296,52363,1,8,0:0:0:0:
58,296,52520,2,0,B|112:306|112:306|156:286|156:286|212:300,1,160,0|0,0:0|0:0,0:0:0:0:
204,373,52991,2,0,B|161:361|161:361|129:376,1,80,8|0,0:0|0:0,0:0:0:0:
208,224,53305,6,0,P|202:179|172:152,2,80,12|0|0,0:0|0:0|0:0,0:0:0:0:
304,224,53777,2,0,P|310:179|340:152,2,80,12|0|0,0:0|0:0|0:0,0:0:0:0:
256,292,54248,1,12,0:0:0:0:
256,128,54405,1,12,0:0:0:0:
256,192,54483,12,2,55347,0:1:0:0:
8,196,55662,6,0,P|80:212|136:144,1,160,14|0,1:0|2:0,0:0:0:0:
52,60,56133,2,0,L|60:164,1,80,8|0,1:0|0:0,0:0:0:0:
88,284,56447,1,2,1:2:0:0:
88,284,56604,1,0,0:0:0:0:
209,155,56761,2,0,B|170:142|170:142|134:154,1,80,8|0,1:0|0:0,0:0:0:0:
256,56,57075,6,0,B|295:69|295:69|331:57,1,80,2|0,1:0|0:0,0:0:0:0:
484,48,57389,1,8,1:0:0:0:
484,48,57546,2,0,B|396:16|420:96|320:52,1,160,0|0,0:0|0:0,0:0:0:0:
452,120,58017,2,0,P|468:152|456:204,1,80,8|2,1:0|0:0,0:0:0:0:
324,204,58332,5,0,1:0:0:0:
392,168,58489,1,2,0:0:0:0:
256,168,58646,1,8,1:0:0:0:
324,204,58803,1,2,0:0:0:0:
196,216,58960,1,2,1:0:0:0:
196,216,59117,2,0,P|180:184|192:132,1,80,0|8,2:0|1:0,0:0:0:0:
244,24,59431,1,0,0:0:0:0:
244,24,59588,6,0,P|224:53|173:69,1,80,2|0,1:0|0:0,0:0:0:0:
48,80,59902,2,0,P|83:82|122:118,1,80,8|0,1:0|0:0,0:0:0:0:
28,232,60216,1,2,1:2:0:0:
56,160,60373,1,0,0:0:0:0:
4,304,60531,5,8,1:0:0:0:
30,311,60609,1,0,0:0:0:0:
58,307,60688,1,0,0:0:0:0:
80,291,60766,1,0,0:0:0:0:
94,267,60845,6,0,B|75:315|95:363|95:363|135:323,1,120,10|0,1:0|0:0,0:0:0:0:
136,340,61159,2,0,P|170:330|224:348,1,80,10|0,1:2|0:0,0:0:0:0:
280,384,61473,1,2,1:0:0:0:
280,384,61630,1,0,0:0:0:0:
424,340,61787,2,0,P|390:349|336:332,1,80,10|0,1:2|0:0,0:0:0:0:
284,224,62101,6,0,L|280:332,1,80,2|0,1:0|0:0,0:0:0:0:
496,384,62415,2,0,L|500:276,1,80,8|0,1:0|0:0,0:0:0:0:
384,276,62729,5,2,1:0:0:0:
512,156,62887,1,2,0:1:0:0:
498,304,63044,1,8,1:0:0:0:
440,132,63201,2,0,P|394:114|360:120,1,80,4|0,0:0|0:0,0:0:0:0:
160,48,63515,2,0,P|199:50|235:34,1,80,8|8,0:0|0:0,0:0:0:0:
304,12,63750,1,8,0:0:0:0:
304,12,63829,6,0,L|320:76,3,40,8|8|8|8,0:0|0:0|0:0|0:0,0:0:0:0:
260,112,64143,2,0,L|244:176,3,40,8|8|8|8,0:0|0:3|0:3|0:3,0:0:0:0:
284,224,64457,5,4,0:0:0:0:
248,288,64771,1,12,0:0:0:0:
272,356,65086,1,4,0:0:0:0:
272,356,65400,1,12,0:0:0:0:
36,352,65714,6,0,B|124:384|100:304|200:348,1,160,4|0,0:1|0:0,0:0:0:0:
72,284,66185,2,0,L|68:188,1,80,8|0,1:0|0:0,0:0:0:0:
68,96,66499,1,2,0:0:0:0:
16,152,66656,1,0,0:0:0:0:
68,204,66813,1,8,1:0:0:0:
136,64,66970,6,0,P|69:22|1:58,1,160
2,55,67442,1,8,1:0:0:0:
293,26,67756,2,0,B|256:36|256:36|216:24,1,80,0|8,0:0|0:0,0:0:0:0:
376,64,68070,1,8,0:0:0:0:
508,55,68227,6,0,P|439:22|376:64,1,160,0|2,0:0|0:0,0:0:0:0:
282,109,68698,1,8,0:0:0:0:
292,184,68855,2,0,B|332:180|332:180|364:192|364:192|416:184,1,120,0|0,0:0|0:0,0:0:0:0:
436,176,69169,2,0,L|444:96,1,80,2|8,0:0|1:0,0:0:0:0:
492,236,69483,5,0,0:0:0:0:
492,236,69562,1,0,0:0:0:0:
492,236,69640,2,0,L|496:304,3,40,8|8|8|8,0:0|0:0|0:0|0:0,0:0:0:0:
420,272,69955,2,0,L|424:340,3,40,8|8|8|8,0:0|0:0|0:0|0:0,0:0:0:0:
352,240,70269,5,8,0:3:0:0:
326,233,70347,1,8,0:3:0:0:
298,237,70426,1,4,0:3:0:0:
276,253,70504,1,4,0:3:0:0:
260,272,70583,2,0,L|256:188,1,80,8|8,1:0|1:0,0:0:0:0:
276,124,70818,1,8,1:0:0:0:
276,124,70897,6,0,P|228:124|192:156,1,80,14|0,1:0|0:0,0:0:0:0:
256,192,71211,1,0,0:0:0:0:
168,76,71368,2,0,P|134:109|131:158,1,80,8|0,1:0|0:2,0:0:0:0:
202,141,71682,1,0,0:0:0:0:
58,119,71839,2,0,P|58:166|90:203,1,80,8|2,1:0|0:0,0:0:0:0:
128,140,72154,5,0,0:0:0:0:
11,227,72311,2,0,P|44:260|93:263,1,80,8|0,1:0|0:0,0:0:0:0:
75,192,72625,1,2,0:0:0:0:
55,337,72782,2,0,P|102:337|139:304,1,80,10|0,1:0|0:0,0:0:0:0:
260,272,73096,2,0,P|212:272|176:239,1,80,10|0,1:0|0:0,0:0:0:0:
228,120,73410,6,0,L|244:236,2,80,12|0|8,1:1|2:0|2:0,0:0:0:0:
272,8,73881,1,8,0:3:0:0:
272,8,73960,1,8,0:3:0:0:
272,8,74038,2,0,P|316:0|356:24,1,80,8|0,0:0|0:0,0:0:0:0:
336,140,74353,1,8,0:0:0:0:
336,140,74510,6,0,P|307:105|307:59,1,80,8|8,0:0|0:0,0:0:0:0:
420,20,74824,2,0,P|404:62|364:84,1,80,8|8,0:0|0:0,0:0:0:0:
346,14,75138,1,8,0:0:0:0:
416,152,75295,1,8,0:1:0:0:
496,36,75452,1,8,0:1:0:0:
472,240,75609,5,10,0:1:0:0:
472,240,75688,1,8,0:1:0:0:
472,240,75766,2,0,B|369:221|415:287|313:260,1,160,14|0,1:0|2:2,0:0:0:0:
296,136,76237,2,0,P|336:117|384:127,1,80,8|0,1:0|0:0,0:0:0:0:
344,192,76551,5,2,1:2:0:0:
344,192,76709,1,0,0:0:0:0:
220,132,76866,2,0,P|235:90|276:63,1,80,8|0,1:0|0:0,0:0:0:0:
296,136,77180,5,2,1:0:0:0:
296,136,77337,1,0,0:0:0:0:
160,184,77494,2,0,P|141:144|152:96,1,80,8|0,1:0|0:0,0:0:0:0:
220,132,77808,1,2,0:0:0:0:
196,252,77965,1,0,0:0:0:0:
145,109,78122,1,8,1:0:0:0:
24,260,78279,6,0,B|44:252|76:268|76:268|120:252|120:252|144:272|188:256,1,160,4|0,1:0|0:0,0:0:0:0:
336,308,78750,2,0,P|296:292|244:300,1,80,8|0,1:0|0:0,0:0:0:0:
288,364,79065,1,2,1:0:0:0:
288,364,79222,1,0,0:0:0:0:
420,256,79379,2,0,P|460:240|512:248,1,80,8|0,1:0|0:0,0:0:0:0:
468,312,79693,5,2,1:0:0:0:
468,312,79850,1,0,0:0:0:0:
368,164,80007,2,0,P|328:148|276:156,1,80,8|0,1:0|0:0,0:0:0:0:
320,220,80321,1,2,1:0:0:0:
340,76,80478,1,0,0:0:0:0:
444,220,80635,1,8,1:0:0:0:
488,72,80792,6,0,B|436:68|424:28|424:28|400:68|352:64,1,160,8|0,1:0|0:0,0:0:0:0:
212,28,81264,2,0,L|320:16,1,80,8|0,1:0|0:0,0:0:0:0:
340,76,81578,1,2,1:0:0:0:
340,76,81735,1,0,0:0:0:0:
184,128,81892,2,0,L|292:116,1,80,8|0,1:0|0:0,0:0:0:0:
328,172,82127,1,0,0:0:0:0:
328,172,82206,6,0,L|320:220,3,40,8|8|8|8,0:0|0:0|0:0|0:0,0:0:0:0:
400,140,82520,2,0,L|408:188,3,40,8|8|8|8,0:0|0:0|0:0|0:0,0:0:0:0:
476,112,82834,1,8,0:3:0:0:
512,268,82991,6,0,B|464:284|464:284|424:260,1,90.0000034332277,0|0,0:0|0:0,0:0:0:0:
472,208,83305,6,0,L|464:368,1,160,10|2,1:0|1:0,0:0:0:0:
284,252,83777,2,0,P|328:236|388:260,1,80,8|0,1:0|1:2,0:0:0:0:
252,324,84091,2,0,P|216:293|206:229,1,80,2|0,1:0|1:1,0:0:0:0:
328,312,84405,2,0,P|319:358|269:398,1,80,8|0,1:0|1:1,0:0:0:0:
228,192,84719,1,2,1:0:0:0:
128,284,84876,5,0,1:0:0:0:
252,324,85033,1,8,1:0:0:0:
204,263,85190,1,0,1:0:0:0:
152,356,85347,1,2,1:0:0:0:
104,212,85504,1,0,1:0:0:0:
60,324,85661,1,8,1:0:0:0:
44,136,85818,5,0,1:2:0:0:
60,324,85976,2,8,L|56:368,3,40,0|0|0|0,1:0|0:0|1:0|0:0,0:0:0:0:
16,208,86290,2,0,L|20:252,3,40,8|8|8|8,0:0|0:0|0:0|0:0,0:0:0:0:
44,136,86604,5,8,0:0:0:0:
71,132,86682,1,8,0:0:0:0:
99,129,86761,1,8,0:0:0:0:
127,126,86839,1,8,0:0:0:0:
155,123,86918,2,0,L|151:167,1,40,8|8,0:0|0:0,0:0:0:0:
232,200,87075,2,0,L|228:156,1,40,8|8,0:0|0:0,0:0:0:0:
288,116,87232,1,8,0:0:0:0:
256,192,87311,12,4,88332,0:0:0:0:
