osu file format v14

[General]
AudioFilename: audio.mp3
AudioLeadIn: 0
PreviewTime: 55496
Countdown: 0
SampleSet: Soft
StackLeniency: 0.4
Mode: 0
LetterboxInBreaks: 0
WidescreenStoryboard: 1

[Editor]
Bookmarks: 5392,15444,25496,35706,45758,55661,65713,70896,75765,83304
DistanceSpacing: 0.3
BeatDivisor: 4
GridSize: 32
TimelineZoom: 1

[Metadata]
Title:ADAMAS (TV Size)
TitleUnicode:ADAMAS (TV Size)
Artist:LiSA
ArtistUnicode:LiSA
Creator:Ohwow
Version:Insane
Source:ソードアート・オンライン アリシゼーション
Tags:sword art online sao alicization season three 3 kirito asuna eugeo alice opening
BeatmapID:1801705
BeatmapSetID:859772

[Difficulty]
HPDrainRate:5
CircleSize:3.8
OverallDifficulty:7
ApproachRate:9
SliderMultiplier:1.7
SliderTickRate:1

[Events]
//Background and Video events
0,0,"bg.jpg",0,0
//Break Periods
//Storyboard Layer 0 (Background)
//Storyboard Layer 1 (Fail)
//Storyboard Layer 2 (Pass)
//Storyboard Layer 3 (Foreground)
//Storyboard Sound Samples

[TimingPoints]
537,314.13612565445,4,2,1,40,1,0
537,-125,4,2,1,40,0,0
5392,314.13612565445,4,2,1,70,1,0
5392,-90.9090909090909,4,2,1,70,0,0
5549,314.13612565445,4,2,1,70,1,0
5549,-90.9090909090909,4,2,1,70,0,0
15444,-100,4,2,1,60,0,0
25496,-90.9090909090909,4,2,1,60,0,0
35706,-100,4,2,1,50,0,0
45758,-90.9090909090909,4,2,1,60,0,0
55661,314.13612565445,4,2,1,80,1,1
55661,-83.3333333333333,4,2,1,80,0,1
55818,314.13612565445,4,2,1,80,1,1
55818,-83.3333333333333,4,2,1,80,0,1
64770,-125,4,2,1,80,0,1
65006,-125,4,2,1,5,0,1
65085,-100,4,2,1,80,0,1
65320,-100,4,2,1,5,0,1
65399,-83.3333333333333,4,2,1,80,0,1
65634,-83.3333333333333,4,2,1,5,0,1
65713,-90.9090909090909,4,2,1,70,0,0
75765,-83.3333333333333,4,2,1,80,0,1
83226,-83.3333333333333,4,2,1,5,0,1
83304,-90.9090909090909,4,2,1,80,0,0
87231,-125,4,2,1,80,0,0

[Colours]
Combo1 : 255,203,21
Combo2 : 65,62,102
Combo3 : 231,141,99
Combo4 : 71,196,243

[HitObjects]
37,60,537,6,0,L|61:153,2,68
125,67,1008,2,0,L|149:160,2,68
239,132,1479,2,0,L|222:197,2,68
327,139,1950,2,0,L|310:204,2,68
457,52,2421,2,0,L|391:68,1,68
262,22,2735,2,0,L|327:5,1,68
464,206,3050,6,0,L|446:141,1,68
379,216,3364,1,0,0:0:0:0:
302,129,3521,2,0,L|284:193,1,68
217,119,3835,1,0,0:0:0:0:
140,206,3992,2,0,L|122:141,1,68
55,216,4306,1,0,0:0:0:0:
16,45,4463,5,0,0:0:0:0:
103,56,4620,1,0,0:0:0:0:
190,67,4777,1,0,0:0:0:0:
190,67,5392,6,0,P|171:142|184:258,1,187.000005706787
334,373,5863,2,0,P|380:369|419:344,1,93.5000028533936
362,175,6177,2,0,P|315:178|276:203,1,93.5000028533936
235,381,6491,1,0,0:0:0:0:
348,274,6648,1,0,0:0:0:0:
163,309,6805,6,0,P|138:269|134:223,1,93.5000028533936
247,117,7119,2,0,P|272:157|276:203,1,93.5000028533936
147,104,7433,1,0,0:0:0:0:
289,22,7590,2,0,P|238:96|148:104,1,187.000005706787
38,23,8062,6,0,L|53:115,1,93.5000028533936
49,277,8376,2,0,L|142:264,1,93.5000028533936
240,91,8690,2,0,L|147:104,1,93.5000028533936
233,251,9004,1,0,0:0:0:0:
313,146,9161,1,0,0:0:0:0:
470,283,9318,6,0,L|457:190,1,93.5000028533936
313,146,9632,2,0,L|326:239,1,93.5000028533936
505,100,9946,1,0,0:0:0:0:
482,95,10024,1,0,0:0:0:0:
459,90,10103,1,0,0:0:0:0:
436,85,10181,1,0,0:0:0:0:
414,80,10260,1,0,0:0:0:0:
391,74,10338,1,0,0:0:0:0:
367,68,10418,6,0,P|299:126|187:115,1,187.000005706787
77,33,10889,2,0,P|98:74|113:118,1,93.5000028533936
227,301,11203,2,0,P|241:256|263:215,1,93.5000028533936
242,51,11517,1,0,0:0:0:0:
170,195,11674,1,0,0:0:0:0:
370,162,11831,6,0,P|328:140|284:125,1,93.5000028533936
88,170,12146,1,0,0:0:0:0:
103,188,12224,1,0,0:0:0:0:
124,198,12303,1,0,0:0:0:0:
147,201,12381,1,0,0:0:0:0:
170,195,12459,2,0,L|185:135,1,46.7500014266968
224,62,12617,2,0,L|209:2,3,46.7500014266968
298,122,12931,6,0,L|493:88,1,187.000005706787
468,306,13402,1,0,0:0:0:0:
451,214,13559,1,0,0:0:0:0:
389,367,13716,1,0,0:0:0:0:
356,182,13873,1,0,0:0:0:0:
295,336,14030,2,0,L|278:238,1,93.5000028533936
137,116,14344,6,0,L|128:162,1,46.7500014266968
24,249,14501,2,0,L|67:232,1,46.7500014266968
196,281,14658,2,0,L|160:251,3,46.7500014266968
228,174,14973,6,0,P|249:162|271:156,1,46.7500014266968
305,72,15130,2,0,P|325:84|342:100,1,46.7500014266968
431,87,15287,2,0,P|430:111|425:133,1,46.7500014266968
512,205,15444,6,0,P|434:179|361:219,1,170
287,300,15915,2,0,P|279:258|264:218,1,85
159,134,16229,2,0,P|231:173|309:147,1,170
358,66,16700,1,0,0:0:0:0:
428,127,16857,6,0,L|512:136,1,85
491,218,17172,2,0,L|406:208,1,85
384,289,17486,2,0,L|469:299,1,85
447,380,17800,2,0,L|362:370,1,85
299,269,18114,6,0,B|266:309|266:309|137:290,1,170
96,225,18585,1,0,0:0:0:0:
24,270,18742,2,0,P|4:308|4:350,2,85
96,225,19213,1,0,0:0:0:0:
170,184,19370,6,0,B|199:69|199:69|171:25,1,170
80,3,19842,1,0,0:0:0:0:
2,55,19999,2,0,P|-2:96|11:135,1,85
21,144,20234,1,0,0:0:0:0:
31,151,20313,1,0,0:0:0:0:
112,197,20470,1,0,0:0:0:0:
183,135,20627,6,0,L|368:115,1,170
426,60,21098,1,0,0:0:0:0:
497,119,21255,2,0,P|505:160|495:201,1,85
351,198,21569,2,0,P|342:157|352:116,1,85
489,285,21884,6,0,L|404:272,1,85
244,336,22198,2,0,L|328:323,1,85
292,158,22512,2,0,L|279:242,1,85
441,107,22826,2,0,L|453:191,1,85
314,33,23140,6,0,B|272:65|272:65|156:42,1,170
47,109,23611,1,0,0:0:0:0:
49,121,23690,1,0,0:0:0:0:
51,133,23768,1,0,0:0:0:0:
160,177,23925,1,0,0:0:0:0:
162,165,24003,1,0,0:0:0:0:
164,153,24082,1,0,0:0:0:0:
34,256,24240,5,0,0:0:0:0:
34,256,25496,6,0,B|95:245|95:245|147:276|147:276|210:266,1,187.000005706787
261,172,25967,2,0,B|168:186,1,93.5000028533936
70,330,26281,1,0,0:0:0:0:
210,266,26439,1,0,0:0:0:0:
85,177,26596,1,0,0:0:0:0:
122,258,26753,1,0,0:0:0:0:
137,105,26910,6,0,B|44:90,1,93.5000028533936
210,266,27224,2,0,B|302:251,1,93.5000028533936
220,114,27538,1,0,0:0:0:0:
168,186,27695,1,0,0:0:0:0:
309,124,27852,1,0,0:0:0:0:
139,14,28009,6,0,P|128:59|137:105,1,93.5000028533936
344,206,28323,1,0,0:0:0:0:
210,266,28480,2,0,B|118:251,1,93.5000028533936
309,124,28795,1,0,0:0:0:0:
379,288,28952,1,0,0:0:0:0:
255,196,29109,1,0,0:0:0:0:
432,214,29266,1,0,0:0:0:0:
307,369,29423,6,0,B|292:277,1,93.5000028533936
447,121,29737,2,0,B|432:213,1,93.5000028533936
237,70,30051,1,0,0:0:0:0:
344,206,30208,1,0,0:0:0:0:
203,265,30365,1,0,0:0:0:0:
291,138,30522,1,0,0:0:0:0:
414,304,30679,6,0,P|460:302|514:279,1,93.5000028533936
442,78,30994,1,0,0:0:0:0:
344,206,31151,1,0,0:0:0:0:
342,67,31308,1,0,0:0:0:0:
444,217,31465,1,0,0:0:0:0:
432,90,31622,1,0,0:0:0:0:
353,193,31779,1,0,0:0:0:0:
228,59,31936,6,0,P|207:101|197:146,1,93.5000028533936
40,0,32250,2,0,P|60:42|70:87,1,93.5000028533936
259,223,32564,2,0,P|212:228|167:241,1,93.5000028533936
9,164,32878,2,0,P|55:169|100:182,1,93.5000028533936
144,332,33192,6,0,L|174:216,1,93.5000028533936
396,304,33507,2,0,L|305:280,1,93.5000028533936
368,52,33821,2,0,L|344:142,1,93.5000028533936
116,80,34135,2,0,L|232:110,1,93.5000028533936
421,195,34449,6,0,L|466:183,3,46.7500014266968
363,270,34763,2,0,L|395:303,3,46.7500014266968
278,225,35077,1,0,0:0:0:0:
258,222,35155,1,0,0:0:0:0:
238,223,35234,1,0,0:0:0:0:
218,228,35312,1,0,0:0:0:0:
201,237,35391,1,0,0:0:0:0:
185,249,35469,1,0,0:0:0:0:
172,265,35548,1,0,0:0:0:0:
163,282,35626,1,0,0:0:0:0:
159,302,35706,6,0,P|107:302|-10:279,1,170
119,57,36334,2,0,P|201:37|286:34,1,170
512,157,36962,6,0,P|457:217|375:209,1,170
261,117,37433,2,0,P|285:198|296:283,1,170
232,347,37905,2,0,P|193:362|150:359,1,85
117,334,38140,1,0,0:0:0:0:
117,334,38219,6,0,L|97:250,1,85
167,180,38533,2,0,L|185:262,1,85
253,190,38847,2,0,L|234:107,1,85
303,36,39161,2,0,L|321:118,1,85
432,150,39475,6,0,P|480:146|530:112,1,85
485,22,39789,2,0,P|437:26|387:60,1,85
321,119,40103,1,0,0:0:0:0:
303,36,40261,1,0,0:0:0:0:
238,158,40418,1,0,0:0:0:0:
220,75,40576,1,0,0:0:0:0:
144,205,40732,6,0,P|206:200|313:269,1,170
389,269,41203,1,0,0:0:0:0:
389,269,41360,2,0,B|431:233|431:233|413:113,1,170
463,40,41831,1,0,0:0:0:0:
463,40,41988,2,0,L|275:23,1,170
203,1,42459,1,0,0:0:0:0:
203,1,42617,2,0,P|256:62|233:140,1,170
151,93,43088,1,0,0:0:0:0:
151,93,43166,1,0,0:0:0:0:
151,93,43245,6,0,L|64:112,1,85
49,202,43559,2,0,L|132:183,1,85
113,273,43873,2,0,L|30:292,1,85
11,382,44187,2,0,L|94:363,1,85
207,257,44501,6,0,L|189:353,1,85
288,186,44816,2,0,L|306:282,1,85
400,115,45130,2,0,L|382:211,1,85
512,301,45444,1,0,0:0:0:0:
491,297,45522,1,0,0:0:0:0:
470,293,45601,1,0,0:0:0:0:
449,289,45679,1,0,0:0:0:0:
428,285,45758,6,0,B|399:337|399:337|270:351,1,187.000005706787
193,285,46229,1,0,0:0:0:0:
136,370,46386,2,0,L|162:184,1,187.000005706787
103,105,46857,1,0,0:0:0:0:
103,105,46936,1,0,0:0:0:0:
103,105,47014,6,0,P|149:98|193:85,1,93.5000028533936
290,47,47329,2,0,P|276:91|269:137,1,93.5000028533936
193,207,47643,2,0,P|239:214|283:227,1,93.5000028533936
380,265,47958,2,0,P|366:220|359:174,1,93.5000028533936
396,137,48192,1,0,0:0:0:0:
396,137,48271,6,0,L|488:121,1,93.5000028533936
358,29,48585,2,0,L|265:13,1,93.5000028533936
194,169,48899,2,0,L|286:153,1,93.5000028533936
156,61,49213,2,0,L|63:45,1,93.5000028533936
23,77,49449,1,0,0:0:0:0:
23,77,49528,6,0,P|15:123|28:168,1,93.5000028533936
119,304,49842,2,0,P|126:258|113:213,1,93.5000028533936
40,365,50156,1,0,0:0:0:0:
40,365,50313,1,0,0:0:0:0:
214,304,50470,1,0,0:0:0:0:
214,304,50627,1,0,0:0:0:0:
145,118,50784,6,0,B|119:304,1,187.000005706787
235,136,51255,2,0,B|222:43,1,93.5000028533936
55,100,51569,1,0,0:0:0:0:
132,211,51727,2,0,B|145:118,1,93.5000028533936
371,94,52041,6,0,P|282:109|221:43,1,187.000005706787
454,32,52512,2,0,P|465:77|466:123,1,93.5000028533936
339,191,52826,1,0,0:0:0:0:
313,21,52983,2,0,P|346:54|371:94,1,93.5000028533936
294,274,53297,6,0,L|168:250,1,93.5000028533936
188,253,53533,1,0,0:0:0:0:
174,250,53611,1,0,0:0:0:0:
38,384,53768,2,0,L|164:360,1,93.5000028533936
144,363,54004,1,0,0:0:0:0:
158,360,54082,1,0,0:0:0:0:
63,198,54240,5,0,0:0:0:0:
256,96,54397,1,0,0:0:0:0:
75,271,55661,6,0,P|172:239|273:225,1,203.999993774414
399,290,56132,2,0,P|376:244|362:195,1,101.999996887207
354,54,56446,2,0,P|325:96|290:133,1,101.999996887207
173,210,56760,2,0,P|224:213|273:225,1,101.999996887207
453,167,57074,6,0,P|382:101|290:133,1,203.999993774414
173,210,57545,2,0,L|161:108,1,101.999996887207
73,18,57859,1,0,0:0:0:0:
56,139,58016,2,0,L|44:240,1,101.999996887207
64,365,58331,5,0,0:0:0:0:
119,292,58488,1,0,0:0:0:0:
155,374,58645,1,0,0:0:0:0:
210,302,58802,1,0,0:0:0:0:
245,384,58959,1,0,0:0:0:0:
300,312,59116,2,0,L|315:199,1,101.999996887207
393,57,59430,1,0,0:0:0:0:
255,141,59587,6,0,P|207:123|162:101,1,101.999996887207
395,260,59901,2,0,P|441:237|488:220,1,101.999996887207
340,130,60215,1,0,0:0:0:0:
226,237,60372,1,0,0:0:0:0:
161,101,60530,1,0,0:0:0:0:
16,196,60687,1,0,0:0:0:0:
16,196,60765,1,0,0:0:0:0:
16,196,60844,6,0,L|27:297,1,101.999996887207
161,101,61158,2,0,L|172:0,1,101.999996887207
116,232,61472,2,0,L|218:221,1,101.999996887207
360,71,61786,2,0,L|259:60,1,101.999996887207
182,315,62100,6,0,L|386:337,1,203.999993774414
488,146,62571,1,0,0:0:0:0:
330,228,62728,1,0,0:0:0:0:
409,69,62886,1,0,0:0:0:0:
439,245,63043,1,0,0:0:0:0:
251,102,63200,6,0,P|240:52|240:2,1,101.999996887207
355,143,63514,2,0,P|343:165|327:185,3,50.9999984436036
237,215,63828,5,0,0:0:0:0:
212,210,63906,1,0,0:0:0:0:
189,199,63985,1,0,0:0:0:0:
170,182,64063,1,0,0:0:0:0:
156,160,64142,1,0,0:0:0:0:
123,129,64220,1,0,0:0:0:0:
81,118,64299,1,0,0:0:0:0:
38,128,64377,1,0,0:0:0:0:
5,158,64456,5,0,0:0:0:0:
49,340,64770,6,0,P|68:292|78:242,1,102
156,160,65085,6,0,P|164:222|184:282,1,127.5
265,366,65399,6,0,P|308:306|381:310,1,152.999995330811
457,366,65713,6,0,B|414:321|414:321|436:197,1,187.000005706787
358,120,66184,2,0,B|341:212,1,93.5000028533936
242,231,66498,2,0,B|258:138,1,93.5000028533936
199,65,66812,1,0,0:0:0:0:
130,129,66969,6,0,P|85:144|39:151,1,93.5000028533936
174,288,67283,2,0,P|91:244|0:231,1,187.000005706787
64,56,67755,1,0,0:0:0:0:
143,140,67912,2,0,P|155:159|164:181,2,46.7500014266968
0,317,68226,6,0,P|44:301|90:294,1,93.5000028533936
254,204,68540,2,0,P|207:196|163:180,1,93.5000028533936
173,381,68854,2,0,P|180:334|196:290,1,93.5000028533936
337,117,69168,2,0,P|344:163|360:207,1,93.5000028533936
504,346,69482,1,0,0:0:0:0:
492,247,69639,6,0,P|468:250|447:260,3,46.7500014266968
351,300,69954,2,0,P|327:296|306:286,3,46.7500014266968
200,267,70268,5,0,0:0:0:0:
214,241,70346,1,0,0:0:0:0:
219,212,70425,1,0,0:0:0:0:
214,184,70503,1,0,0:0:0:0:
200,158,70582,1,0,0:0:0:0:
178,139,70660,1,0,0:0:0:0:
151,128,70739,1,0,0:0:0:0:
122,126,70817,1,0,0:0:0:0:
93,133,70896,6,0,P|135:110|179:97,1,93.5000028533936
397,160,71210,1,0,0:0:0:0:
415,53,71367,2,0,P|326:56|290:137,1,187.000005706787
506,223,71838,6,0,L|490:130,1,93.5000028533936
284,229,72153,1,0,0:0:0:0:
366,344,72310,2,0,L|397:159,1,187.000005706787
212,63,72781,5,0,0:0:0:0:
193,181,72938,1,0,0:0:0:0:
94,14,73095,2,0,P|103:60|109:107,1,93.5000028533936
8,293,73409,6,0,L|54:285,3,46.7500014266968
103,201,73723,2,0,L|56:193,3,46.7500014266968
164,302,74037,1,0,0:0:0:0:
187,276,74115,1,0,0:0:0:0:
218,259,74194,1,0,0:0:0:0:
252,255,74272,1,0,0:0:0:0:
286,262,74352,2,0,L|293:215,1,46.7500014266968
360,123,74509,6,0,L|367:169,3,46.7500014266968
280,44,74823,2,0,L|272:90,3,46.7500014266968
403,32,75137,1,0,0:0:0:0:
403,32,75215,1,0,0:0:0:0:
402,32,75294,2,0,P|419:16|440:7,1,46.7500014266968
471,96,75451,2,0,P|492:103|512:117,1,46.7500014266968
447,187,75608,2,0,P|451:209|449:233,1,46.7500014266968
276,351,75765,6,0,P|350:314|460:368,1,203.999993774414
204,280,76236,2,0,P|183:233|171:183,1,101.999996887207
367,169,76550,2,0,P|320:189|270:201,1,101.999996887207
256,6,76865,2,0,P|276:52|288:102,1,101.999996887207
93,117,77179,6,0,P|139:96|189:84,1,101.999996887207
367,169,77493,2,0,P|320:189|270:201,1,101.999996887207
46,232,77807,2,0,P|139:207|203:279,1,203.999993774414
101,336,78278,1,0,0:0:0:0:
296,354,78435,6,0,L|435:313,1,101.999996887207
288,143,78749,2,0,L|316:240,1,101.999996887207
498,135,79064,2,0,L|400:163,1,101.999996887207
506,345,79378,2,0,L|477:247,1,101.999996887207
296,354,79692,6,0,L|393:325,1,101.999996887207
498,135,80006,2,0,L|400:163,1,101.999996887207
172,245,80320,2,0,B|225:286|225:286|356:248,1,203.999993774414
310,34,80791,6,0,P|310:129|220:162,1,203.999993774414
56,64,81263,2,0,P|106:69|152:91,1,101.999996887207
55,256,81577,2,0,P|60:205|82:159,1,101.999996887207
247,257,81891,2,0,P|196:251|150:229,1,101.999996887207
241,116,82205,6,0,P|232:140|219:162,3,50.9999984436036
328,85,82519,2,0,P|332:110|332:135,3,50.9999984436036
434,144,82833,1,0,0:0:0:0:
434,144,82912,1,0,0:0:0:0:
434,144,82990,2,0,P|361:160|323:224,1,152.999995330811
327,238,83304,6,0,B|188:257|188:257|154:224,1,187.000005706787
42,101,83776,1,0,0:0:0:0:
59,193,83933,1,0,0:0:0:0:
121,40,84090,1,0,0:0:0:0:
154,225,84247,1,0,0:0:0:0:
215,71,84404,2,0,L|232:169,1,93.5000028533936
306,304,84718,5,0,0:0:0:0:
323,212,84875,1,0,0:0:0:0:
385,365,85032,1,0,0:0:0:0:
418,180,85189,1,0,0:0:0:0:
487,287,85346,2,0,L|480:334,1,46.7500014266968
385,364,85503,2,0,L|393:318,1,46.7500014266968
313,257,85660,2,0,L|306:304,1,46.7500014266968
211,334,85817,2,0,L|219:288,1,46.7500014266968
166,205,85975,6,0,P|145:196|122:192,3,46.7500014266968
115,99,86289,2,0,P|91:101|70:110,3,46.7500014266968
219,116,86603,1,0,0:0:0:0:
241,120,86681,1,0,0:0:0:0:
265,118,86760,1,0,0:0:0:0:
287,111,86838,1,0,0:0:0:0:
307,99,86917,1,0,0:0:0:0:
326,86,86996,1,0,0:0:0:0:
348,79,87074,1,0,0:0:0:0:
372,77,87153,1,0,0:0:0:0:
395,82,87231,6,0,L|412:186,1,102
425,280,87545,1,0,0:0:0:0:
416,285,87624,1,0,0:0:0:0:
407,290,87702,1,0,0:0:0:0:
398,295,87781,1,0,0:0:0:0:
389,300,87859,2,0,L|303:281,1,68
256,96,88331,5,0,0:0:0:0:
