osu file format v14

[General]
AudioFilename: audio.mp3
AudioLeadIn: 0
PreviewTime: 55496
Countdown: 0
SampleSet: Soft
StackLeniency: 0.4
Mode: 0
LetterboxInBreaks: 0
WidescreenStoryboard: 1

[Editor]
Bookmarks: 5392,15444,25496,35706,45758,55661,65713,70896,75765,83304
DistanceSpacing: 1
BeatDivisor: 4
GridSize: 32
TimelineZoom: 1

[Metadata]
Title:ADAMAS (TV Size)
TitleUnicode:ADAMAS (TV Size)
Artist:LiSA
ArtistUnicode:LiSA
Creator:Ohwow
Version:Easy
Source:ソードアート・オンライン アリシゼーション
Tags:sword art online sao alicization season three 3 kirito asuna eugeo alice opening
BeatmapID:1797371
BeatmapSetID:859772

[Difficulty]
HPDrainRate:3
CircleSize:3
OverallDifficulty:3
ApproachRate:3
SliderMultiplier:0.9
SliderTickRate:1

[Events]
//Background and Video events
0,0,"bg.jpg",0,0
//Break Periods
//Storyboard Layer 0 (Background)
//Storyboard Layer 1 (Fail)
//Storyboard Layer 2 (Pass)
//Storyboard Layer 3 (Foreground)
//Storyboard Sound Samples

[TimingPoints]
537,314.13612565445,4,2,1,40,1,0
5392,314.13612565445,4,2,1,70,1,0
5392,-100,4,2,1,70,0,0
5549,314.13612565445,4,2,1,70,1,0
15444,-100,4,2,1,60,0,0
35706,-100,4,2,1,50,0,0
45758,-100,4,2,1,60,0,0
55661,314.13612565445,4,2,1,80,1,1
55661,-100,4,2,1,80,0,1
55818,314.13612565445,4,2,1,80,1,1
65713,-100,4,2,1,70,0,0
75765,-100,4,2,1,80,0,1
83304,-100,4,2,1,80,0,0

[Colours]
Combo1 : 255,203,21
Combo2 : 65,62,102
Combo3 : 231,141,99
Combo4 : 71,196,243

[HitObjects]
124,78,537,6,0,P|198:63|274:37,2,135
7,145,1950,2,0,P|81:160|157:186,1,135
200,242,2735,1,0,0:0:0:0:
273,189,3050,6,0,L|299:54,2,135
405,218,4463,2,0,L|413:277,2,45
471,54,5392,6,0,B|410:80|410:80|344:63,1,135
264,21,6177,2,0,P|219:19|177:34,1,90
115,100,6805,2,0,L|99:208,1,90
83,277,7433,1,0,0:0:0:0:
197,349,7905,6,0,B|233:317|233:317|319:327,1,135
394,377,8690,2,0,B|483:365,1,90
510,280,9318,2,0,B|498:190,1,90
484,101,9946,1,0,0:0:0:0:
384,192,10418,6,0,P|320:215|253:222,1,135
188,158,11203,2,0,P|165:197|163:241,1,90
141,329,11831,2,0,P|102:351|58:353,1,90
0,285,12459,1,0,0:0:0:0:
80,176,12931,6,0,P|92:109|102:42,1,135
189,20,13716,2,0,P|230:36|275:44,1,90
362,21,14344,2,0,P|369:65|386:106,1,90
446,174,14973,2,0,L|302:150,1,135
180,128,15915,5,0,0:0:0:0:
115,190,16229,2,0,L|134:289,1,90
201,335,16857,2,0,L|300:316,1,90
371,354,17486,2,0,L|400:212,1,135
425,89,18428,5,0,0:0:0:0:
348,136,18742,2,0,P|303:138|261:121,1,90
200,55,19370,2,0,P|158:38|113:40,1,90
31,76,19999,2,0,P|45:144|16:220,1,135
12,339,20941,5,0,0:0:0:0:
90,294,21255,2,0,L|179:305,1,90
256,351,21884,2,0,L|345:340,1,90
428,373,22512,2,0,B|452:332|452:332|432:246,1,135
355,135,23454,5,0,0:0:0:0:
271,167,23768,2,0,P|253:232|244:299,1,135
48,208,25496,6,0,P|39:141|21:75,1,135
95,23,26281,2,0,L|184:32,1,90
264,73,26910,1,0,0:0:0:0:
343,30,27224,1,0,0:0:0:0:
422,71,27538,2,0,P|431:136|440:216,1,135
363,316,28480,5,0,0:0:0:0:
299,249,28795,2,0,P|256:239|211:233,1,90
122,248,29423,1,0,0:0:0:0:
49,194,29737,1,0,0:0:0:0:
84,111,30051,2,0,P|78:67|69:23,2,90
49,194,30994,5,0,0:0:0:0:
122,248,31308,2,0,P|134:292|143:336,1,90
216,382,31936,2,0,P|259:370|303:361,1,90
356,288,32564,2,0,P|400:296|443:308,1,90
491,230,33192,6,0,P|501:187|508:142,2,90
443,308,34135,1,0,0:0:0:0:
379,244,34449,2,0,P|366:200|349:158,2,90
334,322,35391,1,0,0:0:0:0:
263,264,35706,6,0,P|176:244|86:234,1,180
2,266,36648,1,0,0:0:0:0:
21,178,36962,2,0,P|14:110|-1:45,2,135
2,267,38219,6,0,P|112:227|232:307,1,270
310,348,39475,2,0,P|353:336|397:328,1,90
441,249,40103,2,0,P|396:240|353:229,1,90
301,155,40732,6,0,P|214:175|124:185,1,180
35,169,41674,1,0,0:0:0:0:
4,84,41988,2,0,P|57:15|143:22,1,180
201,90,42931,1,0,0:0:0:0:
290,78,43245,6,0,B|414:59|414:59|461:87,1,180
498,169,44187,1,0,0:0:0:0:
452,246,44501,2,0,P|460:297|483:343,2,90
498,169,45444,1,0,0:0:0:0:
408,162,45758,6,0,L|318:175,1,90
260,243,46386,2,0,L|170:229,1,90
82,251,47014,2,0,P|82:207|104:168,2,90
149,312,47957,1,0,0:0:0:0:
236,290,48271,6,0,P|257:251|258:207,1,90
196,141,48899,2,0,P|196:96|217:57,1,90
303,28,49528,2,0,L|392:38,1,90
455,103,50156,2,0,L|444:192,1,90
377,254,50784,6,0,P|443:240|506:263,2,135
307,310,52041,2,0,P|254:350|187:349,2,135
292,221,53297,5,0,0:0:0:0:
160,188,53768,1,0,0:0:0:0:
27,154,54240,2,0,L|-16:142,1,45
0,337,55661,6,0,P|65:320|132:313,1,135
212,355,56446,1,0,0:0:0:0:
277,292,56760,1,0,0:0:0:0:
352,341,57074,2,0,P|436:341|497:273,1,180
506,184,58016,1,0,0:0:0:0:
443,118,58331,6,0,L|337:128,1,90
271,88,58959,2,0,L|262:177,1,90
253,267,59587,1,0,0:0:0:0:
165,288,59901,1,0,0:0:0:0:
119,210,60215,1,0,0:0:0:0:
178,142,60530,1,0,0:0:0:0:
262,177,60844,6,0,P|306:170|349:158,1,90
438,142,61472,2,0,P|426:185|419:229,1,90
461,309,62100,2,0,B|420:269|420:269|288:291,1,180
166,317,63200,6,0,P|123:303|79:294,2,90
244,361,64142,1,0,0:0:0:0:
298,289,64456,1,0,0:0:0:0:
370,342,64770,2,0,B|412:327|412:327|473:340,2,90
298,289,65713,6,0,P|281:223|272:156,1,135
330,88,66498,2,0,P|290:69|207:94,2,135
382,161,67755,1,0,0:0:0:0:
464,267,68226,6,0,L|449:368,2,90
512,191,69168,1,0,0:0:0:0:
467,112,69482,2,0,B|442:74|442:74|353:64,1,135
273,21,70268,2,0,B|184:30,1,90
104,74,70896,5,0,0:0:0:0:
16,55,71210,1,0,0:0:0:0:
32,143,71524,2,0,L|58:280,1,135
21,358,72310,2,0,P|75:319|141:308,1,135
229,328,73095,2,0,L|245:239,1,90
259,150,73723,5,0,0:0:0:0:
337,194,74037,2,0,B|426:179|426:179|463:130,1,135
453,53,74823,2,0,P|398:16|332:24,1,135
199,45,75765,6,0,P|223:109|231:176,1,135
164,237,76550,2,0,P|150:279|156:323,1,90
235,367,77179,2,0,P|278:357|314:331,1,90
351,248,77807,1,0,0:0:0:0:
437,143,78278,6,0,P|370:152|306:132,1,135
217,148,79064,2,0,L|202:237,1,90
135,297,79692,2,0,L|46:282,1,90
5,201,80320,1,0,0:0:0:0:
45,72,80791,6,0,B|89:92|89:92|129:75|173:75,1,135
256,109,81577,2,0,P|301:114|347:98,1,90
409,39,82205,2,0,B|387:193|387:193|432:245,1,225
481,320,83304,6,0,P|420:290|353:283,1,135
282,337,84090,2,0,L|186:348,1,90
108,316,84718,1,0,0:0:0:0:
178,260,85032,2,0,L|267:249,1,90
333,188,85660,1,0,0:0:0:0:
393,255,85975,6,0,P|410:298|431:337,2,90
425,171,86917,1,0,0:0:0:0:
369,101,87231,2,0,B|317:90|317:90|253:118|253:118|197:105,1,180
65,75,88331,5,0,0:0:0:0:
