osu file format v14

[General]
AudioFilename: audio.mp3
AudioLeadIn: 0
PreviewTime: 55574
Countdown: 0
SampleSet: Soft
StackLeniency: 0.7
Mode: 0
LetterboxInBreaks: 0
WidescreenStoryboard: 1

[Editor]
Bookmarks: 45767,50793,69641
DistanceSpacing: 0.8
BeatDivisor: 4
GridSize: 4
TimelineZoom: 1.6

[Metadata]
Title:ADAMAS (TV Size)
TitleUnicode:ADAMAS (TV Size)
Artist:LiSA
ArtistUnicode:LiSA
Creator:Doormat
Version:Kyle73's Insane
Source:ソードアート・オンライン アリシゼーション
Tags:Kibbleru Monstrata Kyle73 StarrStyx sword art online sao alicization season three 3 kirito asuna eugeo alice opening 織部里沙 oribe risa
BeatmapID:1796685
BeatmapSetID:859608

[Difficulty]
HPDrainRate:6
CircleSize:4
OverallDifficulty:8
ApproachRate:9
SliderMultiplier:1.73
SliderTickRate:1

[Events]
//Background and Video events
Video,-40,"sao-a op.avi"
0,0,"alice.jpg",0,0
//Break Periods
//Storyboard Layer 0 (Background)
//Storyboard Layer 1 (Fail)
//Storyboard Layer 2 (Pass)
//Storyboard Layer 3 (Foreground)
//Storyboard Sound Samples

[TimingPoints]
537,314.13612565445,4,2,1,40,1,0
537,-136.986301369863,4,2,1,40,0,0
5392,314.13612565445,4,2,1,70,1,0
5392,-100,4,2,1,70,0,0
5549,314.13612565445,4,2,1,70,1,0
5549,-100,4,2,1,70,0,0
14344,-80,4,2,1,70,0,0
15444,-100,4,2,1,60,0,0
15758,-111.111111111111,4,2,1,60,0,0
24240,-111.111111111111,4,2,1,40,0,0
25496,-100,4,2,1,70,0,0
35706,-136.986301369863,4,2,1,50,0,0
44658,-111.111111111111,4,2,1,50,0,0
45758,-111.111111111111,4,2,1,70,0,0
50784,-100,4,2,1,80,0,0
53297,-80,4,2,1,80,0,0
55661,314.13612565445,4,2,1,90,1,1
55661,-100,4,2,1,90,0,1
55818,314.13612565445,4,2,1,90,1,1
64142,-100,4,2,1,90,0,1
64456,-80,4,2,1,70,0,1
64770,-136.986301369863,4,2,1,70,0,1
65084,-120.481927710843,4,2,1,70,0,1
65399,-107.52688172043,4,2,1,70,0,1
65713,-100,4,2,1,70,0,0
70268,-80,4,2,1,70,0,0
70896,-100,4,2,1,80,0,0
73409,-80,4,2,1,80,0,0
74666,-80,4,2,1,80,0,0
75765,-100,4,2,1,90,0,1
82519,-80,4,2,1,90,0,1
83304,-100,4,2,1,90,0,0
85975,-80,4,2,1,90,0,0
87545,-80,4,2,1,80,0,0
88016,-100,4,2,1,80,0,0
88173,-100,4,2,1,5,0,0
88331,-100,4,2,1,80,0,0

[Colours]
Combo1 : 163,31,182
Combo2 : 69,233,224
Combo3 : 218,33,204
Combo4 : 243,179,44

[HitObjects]
79,42,537,5,0,0:0:0:0:
154,99,694,1,0,0:0:0:0:
69,140,851,2,0,P|72:171|76:202,1,63.1450017343293,2|0,0:3|0:0,0:0:0:0:
90,291,1165,1,0,0:0:0:0:
248,313,1322,2,0,P|244:281|240:250,1,63.1450017343293,0|2,0:0|0:3,0:0:0:0:
227,162,1636,1,0,0:0:0:0:
225,152,1715,1,0,0:0:0:0:
222,142,1793,5,0,0:0:0:0:
307,97,1950,1,0,0:0:0:0:
268,242,2107,1,2,0:3:0:0:
371,191,2264,1,0,0:0:0:0:
222,142,2421,5,0,0:0:0:0:
399,183,2578,1,0,0:0:0:0:
240,250,2735,1,2,0:3:0:0:
370,320,2893,1,0,0:0:0:0:
378,324,2971,1,0,0:0:0:0:
386,328,3050,5,0,0:0:0:0:
387,209,3207,1,0,0:0:0:0:
229,281,3364,2,0,P|197:277|166:273,1,63.1450017343293,2|0,0:3|0:0,0:0:0:0:
57,203,3678,1,0,0:0:0:0:
167,156,3835,1,0,0:0:0:0:
34,113,3992,2,0,P|37:144|41:175,1,63.1450017343293,2|0,0:3|0:0,0:0:0:0:
181,287,4306,5,0,0:0:0:0:
181,287,4385,1,0,0:0:0:0:
181,287,4463,1,0,0:0:0:0:
181,287,4542,1,0,0:0:0:0:
181,287,4620,1,2,0:3:0:0:
255,104,4777,5,0,0:0:0:0:
255,103,5392,6,0,P|174:120|122:56,1,173,6|0,0:0|0:0,0:0:0:0:
28,162,5863,2,0,P|48:200|61:241,1,86.5,10|0,0:0|0:0,0:0:0:0:
179,329,6177,2,0,P|191:287|212:249,1,86.5,2|0,1:2|0:0,0:0:0:0:
399,325,6491,2,0,P|357:337|316:349,1,86.5,10|0,0:0|0:0,0:0:0:0:
347,217,6805,6,0,P|409:198|471:179,1,129.75,2|0,1:2|0:0,0:0:0:0:
471,179,7119,2,0,P|485:139|478:97,1,86.5,10|0,0:0|0:0,0:0:0:0:
389,18,7433,1,2,1:2:0:0:
324,188,7590,1,2,0:0:0:0:
217,84,7747,1,8,0:0:0:0:
81,223,7905,6,0,P|163:219|211:287,1,173,2|0,0:0|0:0,0:0:0:0:
96,333,8376,2,0,P|54:326|11:320,1,86.5,10|0,0:0|0:0,0:0:0:0:
107,118,8690,2,0,P|149:111|192:105,1,86.5,2|0,1:2|0:0,0:0:0:0:
385,221,9004,2,0,P|342:214|299:208,1,86.5,10|0,0:0|0:0,0:0:0:0:
178,220,9318,5,2,1:2:0:0:
328,84,9475,1,0,0:0:0:0:
162,25,9632,2,0,P|180:63|191:105,1,86.5,10|0,0:0|0:0,0:0:0:0:
93,231,9946,5,8,3:0:0:0:
121,227,10025,1,8,3:0:0:0:
150,223,10103,1,8,3:0:0:0:
178,220,10182,1,8,3:0:0:0:
207,216,10261,1,8,3:0:0:0:
236,213,10339,1,8,3:0:0:0:
264,209,10418,6,0,B|310:251|310:251|286:359,1,173,6|0,0:0|0:0,0:0:0:0:
111,336,10889,2,0,P|153:326|195:316,1,86.5,10|0,0:0|0:0,0:0:0:0:
172,131,11203,2,0,P|129:121|87:111,1,86.5,2|0,1:2|0:0,0:0:0:0:
6,229,11517,2,0,P|49:230|93:231,1,86.5,10|0,0:0|0:0,0:0:0:0:
295,188,11831,5,2,1:2:0:0:
195,315,11988,1,8,0:0:0:0:
338,355,12145,1,8,3:0:0:0:
355,341,12224,1,8,3:0:0:0:
374,331,12302,1,8,3:0:0:0:
395,324,12381,1,8,3:0:0:0:
416,319,12459,5,4,3:0:0:0:
432,305,12538,1,4,3:0:0:0:
444,287,12617,1,4,3:0:0:0:
451,267,12695,1,4,3:0:0:0:
453,245,12774,1,4,3:0:0:0:
449,224,12852,1,4,3:0:0:0:
441,204,12931,6,0,B|399:154|399:154|431:51,1,173,4|0,0:0|0:0,0:0:0:0:
264,28,13402,2,0,P|277:68|289:110,1,86.5,8|0,0:0|0:0,0:0:0:0:
176,180,13716,2,0,P|162:139|150:97,1,86.5,0|0,1:2|0:0,0:0:0:0:
26,275,14030,2,0,P|68:281|111:289,1,86.5,8|0,0:0|0:0,0:0:0:0:
322,254,14344,6,0,P|295:247|269:241,1,54.0625,8|8,3:0|3:0,0:0:0:0:
123,193,14501,2,0,P|149:186|175:180,1,54.0625,8|8,3:0|3:0,0:0:0:0:
293,38,14658,1,8,3:0:0:0:
287,64,14737,1,8,3:0:0:0:
282,91,14816,1,8,3:0:0:0:
277,117,14894,1,8,3:0:0:0:
272,144,14973,5,4,1:3:0:0:
400,100,15130,1,8,3:0:0:0:
149,66,15287,1,8,3:0:0:0:
149,66,15444,2,0,P|165:105|176:147,1,86.5,4|0,0:0|0:0,0:0:0:0:
414,176,15758,6,0,P|407:138|400:100,1,77.8499976242066,0|8,0:0|0:0,0:0:0:0:
180,151,16072,1,0,0:0:0:0:
180,151,16229,2,0,P|187:189|194:227,1,77.8499976242066,8|0,0:0|0:0,0:0:0:0:
232,368,16543,2,0,P|269:357|307:348,1,77.8499976242066,8|0,0:0|0:0,0:0:0:0:
455,238,16857,6,0,P|417:227|379:218,1,77.8499976242066,8|2,0:0|0:0,0:0:0:0:
261,110,17172,2,0,P|298:99|336:90,1,77.8499976242066,8|2,0:0|0:0,0:0:0:0:
449,53,17486,1,8,0:0:0:0:
395,188,17643,1,2,0:0:0:0:
231,101,17800,1,8,0:0:0:0:
285,236,17957,1,2,0:0:0:0:
154,194,18114,6,0,P|115:191|76:189,1,77.8499976242066,8|0,0:0|0:0,0:0:0:0:
158,74,18428,2,0,P|196:71|235:69,1,77.8499976242066,8|0,0:0|0:0,0:0:0:0:
342,265,18742,2,0,P|303:262|264:260,1,77.8499976242066,8|0,0:0|0:0,0:0:0:0:
346,145,19056,2,0,P|384:142|423:140,1,77.8499976242066,8|0,0:0|0:0,0:0:0:0:
473,274,19370,6,0,P|464:311|460:350,1,77.8499976242066,8|0,0:0|0:0,0:0:0:0:
264,260,19685,2,0,P|259:221|251:183,1,77.8499976242066,8|2,0:0|0:0,0:0:0:0:
367,95,19999,1,8,0:0:0:0:
228,50,20156,1,2,3:2:0:0:
228,50,20234,1,2,3:2:0:0:
228,50,20313,1,10,3:2:0:0:
122,130,20470,6,0,P|84:124|46:118,1,77.8499976242066,2|8,0:0|0:0,0:0:0:0:
184,225,20784,1,0,0:0:0:0:
184,225,20941,2,0,P|222:219|260:213,1,77.8499976242066,8|0,0:0|0:0,0:0:0:0:
122,320,21255,2,0,P|83:314|45:308,1,77.8499976242066,8|0,0:0|0:0,0:0:0:0:
230,360,21569,2,0,P|268:354|306:348,1,77.8499976242066,8|0,0:0|0:0,0:0:0:0:
441,276,21884,6,0,P|446:237|460:201,1,77.8499976242066,8|2,0:0|0:0,0:0:0:0:
353,146,22198,2,0,P|347:107|333:71,1,77.8499976242066,8|2,0:0|0:0,0:0:0:0:
455,89,22512,1,8,0:0:0:0:
252,164,22669,1,2,0:0:0:0:
430,206,22826,1,8,0:0:0:0:
310,50,22983,1,2,0:0:0:0:
353,146,23140,5,8,0:0:0:0:
353,146,23454,5,8,0:0:0:0:
438,213,23611,1,2,3:2:0:0:
438,213,23690,1,2,3:2:0:0:
438,213,23768,1,2,3:2:0:0:
336,278,23925,1,2,3:2:0:0:
336,278,24004,1,2,3:2:0:0:
336,278,24083,1,2,3:2:0:0:
473,346,24240,5,2,3:2:0:0:
331,272,25496,6,0,P|247:276|202:346,1,173,4|0,0:0|0:0,0:0:0:0:
89,263,25967,2,0,P|82:220|71:178,1,86.5,8|0,0:0|0:0,0:0:0:0:
151,84,26281,1,0,1:2:0:0:
30,59,26439,1,0,0:0:0:0:
181,89,26596,2,0,P|223:93|266:98,1,86.5,8|0,0:0|0:0,0:0:0:0:
394,56,26910,5,0,1:2:0:0:
323,201,27067,1,0,0:0:0:0:
299,98,27224,1,8,0:0:0:0:
429,225,27381,1,0,0:0:0:0:
260,343,27538,2,0,P|248:301|235:259,1,86.5,0|0,1:2|0:0,0:0:0:0:
151,84,27852,1,8,0:0:0:0:
5,190,28009,6,0,B|69:176|69:176|106:196|106:196|170:183,1,173,0|0,0:0|0:0,0:0:0:0:
323,201,28480,2,0,P|316:158|308:115,1,86.5,8|0,0:0|0:0,0:0:0:0:
245,31,28795,1,0,1:2:0:0:
170,183,28952,1,0,0:0:0:0:
39,59,29109,2,0,P|82:62|125:67,1,86.5,8|0,0:0|0:0,0:0:0:0:
308,115,29423,5,0,1:2:0:0:
188,216,29580,1,0,0:0:0:0:
200,98,29737,1,8,0:0:0:0:
323,245,29894,1,0,0:0:0:0:
424,95,30051,2,0,P|381:103|339:110,1,86.5,0|0,1:2|0:0,0:0:0:0:
170,183,30365,1,8,0:0:0:0:
349,273,30522,1,0,0:0:0:0:
349,273,30601,1,0,0:0:0:0:
349,273,30679,5,4,1:2:0:0:
276,189,30836,1,0,0:0:0:0:
211,301,30994,2,0,P|226:341|240:382,1,86.5,8|0,0:0|0:0,0:0:0:0:
81,335,31308,2,0,P|65:294|51:253,1,86.5,0|0,1:2|0:0,0:0:0:0:
140,101,31622,2,0,P|155:141|169:182,1,86.5,8|0,0:0|0:0,0:0:0:0:
211,301,31936,5,0,1:2:0:0:
297,162,32093,1,0,0:0:0:0:
149,207,32250,2,0,P|191:213|234:220,1,86.5,8|0,0:0|0:0,0:0:0:0:
376,179,32564,5,0,1:2:0:0:
290,40,32721,1,0,0:0:0:0:
438,85,32878,2,0,P|395:91|352:98,1,86.5,8|0,0:0|0:0,0:0:0:0:
173,24,33192,6,0,P|215:30|258:37,1,86.5,2|0,1:2|0:0,0:0:0:0:
461,165,33507,2,0,P|418:171|375:178,1,86.5,10|0,0:0|0:0,0:0:0:0:
211,301,33821,2,0,P|201:258|187:217,1,86.5,2|0,1:2|0:0,0:0:0:0:
392,260,34135,2,0,P|401:302|415:343,1,86.5,10|0,0:0|0:0,0:0:0:0:
105,321,34449,6,0,P|148:322|191:325,1,86.5,8|8,3:2|3:0,0:0:0:0:
279,132,34763,2,0,P|235:130|192:127,1,86.5,8|8,3:0|3:0,0:0:0:0:
22,67,35077,2,0,P|30:109|38:151,1,86.5,4|4,3:0|3:0,0:0:0:0:
234,257,35391,2,0,P|225:299|217:341,1,86.5,4|4,3:0|3:0,0:0:0:0:
53,281,35706,5,4,3:2:0:0:
53,281,36020,1,2,0:0:0:0:
53,281,36334,1,2,0:0:0:0:
53,281,36648,1,2,0:0:0:0:
53,281,36962,6,0,P|43:251|33:220,1,63.1450017343293,2|0,0:0|0:0,0:0:0:0:
125,192,37276,2,0,P|134:162|144:131,1,63.1450017343293,2|0,0:0|0:0,0:0:0:0:
53,102,37590,2,0,P|43:72|33:41,1,63.1450017343293,2|0,0:0|0:0,0:0:0:0:
127,41,37905,1,2,0:0:0:0:
217,67,38062,1,8,0:0:0:0:
226,68,38140,1,8,0:0:0:0:
235,69,38219,5,6,0:0:0:0:
364,107,38533,1,2,0:0:0:0:
326,236,38847,1,2,0:0:0:0:
197,198,39161,1,2,0:0:0:0:
234,69,39475,6,0,P|264:58|294:48,1,63.1450017343293,2|0,0:0|0:0,0:0:0:0:
397,145,39789,1,2,0:0:0:0:
397,145,39946,2,0,P|367:134|337:124,1,63.1450017343293,8|2,0:0|0:0,0:0:0:0:
224,213,40261,2,0,P|254:202|284:192,1,63.1450017343293,8|2,0:0|0:0,0:0:0:0:
400,261,40575,1,0,0:0:0:0:
400,261,40653,1,0,0:0:0:0:
400,261,40732,5,6,0:0:0:0:
224,213,41046,1,2,0:0:0:0:
397,145,41360,1,2,0:0:0:0:
234,69,41674,1,2,0:0:0:0:
234,69,41988,6,0,P|202:74|171:79,1,63.1450017343293,2|0,0:0|0:0,0:0:0:0:
77,69,42302,2,0,P|82:100|87:131,1,63.1450017343293,2|0,0:0|0:0,0:0:0:0:
174,170,42617,2,0,P|168:201|163:232,1,63.1450017343293,2|0,0:0|0:0,0:0:0:0:
141,324,42931,1,2,0:0:0:0:
352,333,43088,1,8,0:0:0:0:
361,334,43166,1,8,0:0:0:0:
370,335,43245,6,0,P|373:303|378:272,1,63.1450017343293,6|0,0:0|0:0,0:0:0:0:
275,214,43559,2,0,P|271:182|266:151,1,63.1450017343293,2|0,0:0|0:0,0:0:0:0:
383,242,43873,6,0,P|386:210|391:179,1,63.1450017343293,2|0,0:0|0:0,0:0:0:0:
262,121,44187,2,0,P|258:89|253:58,1,63.1450017343293,2|0,0:0|0:0,0:0:0:0:
357,86,44501,5,2,0:0:0:0:
266,151,44658,2,0,P|227:143|189:135,1,77.8499976242066,8|2,0:0|0:0,0:0:0:0:
383,242,44973,2,0,P|421:234|459:226,1,77.8499976242066,8|2,0:0|0:0,0:0:0:0:
239,303,45287,1,8,3:0:0:0:
67,196,45444,1,8,3:0:0:0:
59,168,45522,1,8,3:0:0:0:
51,140,45601,1,8,3:0:0:0:
44,111,45679,1,8,3:0:0:0:
39,82,45758,6,0,P|113:87|157:27,1,155.699995248413,4|8,1:2|0:0,0:0:0:0:
283,51,46229,1,0,0:0:0:0:
386,168,46386,2,0,P|348:175|311:185,1,77.8499976242066,0|0,1:0|0:0,0:0:0:0:
162,286,46700,2,0,P|201:293|239:303,1,77.8499976242066,8|0,0:0|1:0,0:0:0:0:
328,360,46936,1,0,1:0:0:0:
328,360,47014,6,0,P|337:322|349:285,1,77.8499976242066,0|0,1:2|0:0,0:0:0:0:
224,211,47329,2,0,P|214:173|202:136,1,77.8499976242066,8|0,0:0|0:0,0:0:0:0:
413,157,47643,2,0,P|375:166|341:185,1,77.8499976242066,0|0,1:0|0:0,0:0:0:0:
277,309,47957,1,8,0:0:0:0:
166,291,48114,1,0,1:0:0:0:
156,286,48192,1,0,1:0:0:0:
145,282,48271,6,0,P|136:244|124:207,1,77.8499976242066,0|0,1:2|0:0,0:0:0:0:
125,63,48585,1,8,0:0:0:0:
42,131,48742,1,0,0:0:0:0:
202,136,48899,2,0,P|235:117|273:108,1,77.8499976242066,0|0,1:0|0:0,0:0:0:0:
403,78,49213,1,8,0:0:0:0:
340,203,49370,1,0,1:0:0:0:
332,211,49449,1,0,1:0:0:0:
325,220,49528,6,0,P|336:257|347:294,1,77.8499976242066,0|0,1:2|0:0,0:0:0:0:
165,294,49842,2,0,P|176:257|187:220,1,77.8499976242066,8|0,0:0|0:0,0:0:0:0:
428,114,50156,2,0,P|389:105|351:97,1,77.8499976242066,0|0,1:0|0:0,0:0:0:0:
84,114,50470,2,0,P|122:105|160:97,1,77.8499976242066,8|0,0:0|1:0,0:0:0:0:
246,74,50706,1,0,1:0:0:0:
246,74,50784,6,0,P|249:117|253:160,1,86.5,4|0,1:2|0:0,0:0:0:0:
273,269,51098,1,0,0:0:0:0:
72,218,51255,2,0,P|115:212|158:206,1,86.5,4|0,1:2|0:0,0:0:0:0:
255,165,51569,1,0,0:0:0:0:
160,97,51727,1,4,1:2:0:0:
288,293,51884,1,0,0:0:0:0:
440,218,52041,6,0,P|397:212|354:206,1,86.5,4|0,1:2|0:0,0:0:0:0:
255,165,52355,1,0,0:0:0:0:
74,84,52512,2,0,P|117:90|160:97,1,86.5,4|0,1:2|0:0,0:0:0:0:
255,165,52826,1,0,0:0:0:0:
437,84,52983,2,0,P|394:90|352:97,1,86.5,4|0,1:2|0:0,0:0:0:0:
255,165,53297,6,0,P|255:192|256:219,1,54.0625,8|8,3:0|3:0,0:0:0:0:
313,313,53454,1,8,3:0:0:0:
285,313,53533,1,8,3:0:0:0:
258,313,53611,1,8,3:0:0:0:
231,313,53690,1,8,3:0:0:0:
204,313,53768,2,0,P|176:311|149:311,1,54.0625,4|4,3:0|3:0,0:0:0:0:
38,220,53925,5,4,3:0:0:0:
74,226,54004,1,4,3:0:0:0:
110,214,54083,1,4,3:0:0:0:
137,188,54161,1,4,3:0:0:0:
148,152,54240,6,0,P|147:125|142:98,1,54.0625,0|0,1:0|0:0,0:0:0:0:
257,24,54397,2,0,P|251:50|250:77,1,54.0625,0|0,1:0|0:0,0:0:0:0:
433,301,55661,6,0,B|365:284|365:284|287:351,1,173,4|0,1:2|0:0,0:0:0:0:
142,272,56132,2,0,P|182:256|222:240,1,86.5,8|0,0:0|0:0,0:0:0:0:
363,161,56446,2,0,P|322:145|282:129,1,86.5,0|0,1:2|0:0,0:0:0:0:
140,69,56760,2,0,P|163:105|178:145,1,86.5,8|0,0:0|0:0,0:0:0:0:
386,308,57074,6,0,P|407:247|443:192,1,129.75,0|0,1:2|0:0,0:0:0:0:
443,192,57388,2,0,P|402:176|362:160,1,86.5,8|0,0:0|0:0,0:0:0:0:
222,240,57702,2,0,P|263:256|303:272,1,86.5,0|0,1:2|0:0,0:0:0:0:
161,350,58016,2,0,P|121:334|80:319,1,86.5,8|0,0:0|0:0,0:0:0:0:
120,153,58331,5,0,1:2:0:0:
222,240,58488,1,0,0:0:0:0:
81,319,58645,2,0,P|63:279|43:241,1,86.5,8|0,0:0|0:0,0:0:0:0:
206,87,58959,5,0,1:2:0:0:
125,183,59116,1,0,0:0:0:0:
1,50,59273,2,0,P|43:55|86:60,1,86.5,8|0,0:0|0:0,0:0:0:0:
325,187,59587,6,0,P|261:191|221:239,1,129.75,0|0,1:2|0:0,0:0:0:0:
221,239,59901,2,0,P|241:277|253:318,1,86.5,8|0,0:0|0:0,0:0:0:0:
410,253,60215,2,0,P|421:211|442:173,1,86.5,0|0,1:2|0:0,0:0:0:0:
337,20,60530,1,8,0:0:0:0:
449,80,60687,1,8,0:0:0:0:
449,80,60765,1,8,0:0:0:0:
449,80,60844,6,0,P|407:93|366:106,1,86.5,4|0,1:2|0:0,0:0:0:0:
188,180,61158,2,0,P|250:191|290:240,1,129.75,8|0,0:0|0:0,0:0:0:0:
290,240,61472,2,0,P|272:279|265:322,1,86.5,0|0,1:2|0:0,0:0:0:0:
110,246,61786,2,0,P|91:207|85:164,1,86.5,8|0,0:0|0:0,0:0:0:0:
263,69,62100,6,0,P|276:155|290:240,1,173,0|8,1:2|0:0,0:0:0:0:
384,312,62571,1,0,0:0:0:0:
428,83,62728,1,0,1:2:0:0:
184,176,62886,1,0,0:0:0:0:
476,242,63043,1,8,0:0:0:0:
275,349,63200,6,0,P|232:355|189:362,1,86.5,4|0,1:2|0:0,0:0:0:0:
383,224,63514,2,0,P|425:217|468:210,1,86.5,4|0,1:2|0:0,0:0:0:0:
263,69,63828,5,0,3:0:0:0:
266,90,63907,1,0,3:0:0:0:
269,111,63985,1,0,3:0:0:0:
272,133,64064,1,0,3:0:0:0:
275,154,64142,1,0,3:0:0:0:
279,175,64221,1,0,3:0:0:0:
282,197,64299,1,0,3:0:0:0:
286,218,64378,1,0,3:0:0:0:
289,239,64456,5,2,1:2:0:0:
494,144,64770,6,0,P|447:135|400:128,1,94.7175026014939,2|0,1:2|0:0,0:0:0:0:
392,104,65085,6,0,P|445:95|498:86,1,107.692501561094,2|0,1:2|0:0,0:0:0:0:
511,59,65399,6,0,P|451:49|392:38,1,120.667503774542,2|0,1:2|0:0,0:0:0:0:
291,31,65713,6,0,P|306:116|321:201,1,173,4|0,1:2|0:0,0:0:0:0:
321,201,66184,2,0,P|279:211|237:222,1,86.5
170,301,66498,2,0,P|211:311|253:322,1,86.5,2|0,0:0|0:0,0:0:0:0:
346,371,66812,1,2,0:0:0:0:
346,371,66969,6,0,P|353:328|366:287,1,86.5,2|0,0:0|0:0,0:0:0:0:
477,185,67283,2,0,P|386:185|338:118,1,173,2|0,0:0|0:0,0:0:0:0:
304,36,67755,1,2,0:0:0:0:
228,83,67912,2,0,P|185:91|142:98,1,86.5,2|0,0:0|0:0,0:0:0:0:
33,76,68226,6,0,P|41:118|48:161,1,86.5,6|0,0:0|0:0,0:0:0:0:
26,271,68540,2,0,P|68:263|111:256,1,86.5,2|0,0:0|0:0,0:0:0:0:
221,278,68854,2,0,P|213:236|206:192,1,86.5,2|0,0:0|0:0,0:0:0:0:
289,121,69168,2,0,P|297:79|304:35,1,86.5,2|0,0:0|0:0,0:0:0:0:
439,70,69482,1,2,0:0:0:0:
495,252,69639,5,8,3:0:0:0:
471,239,69718,1,8,3:0:0:0:
445,232,69797,1,8,3:0:0:0:
418,232,69875,1,8,3:0:0:0:
392,239,69954,1,8,3:0:0:0:
368,252,70032,1,8,3:0:0:0:
348,270,70111,1,8,3:0:0:0:
334,293,70189,1,8,3:0:0:0:
325,319,70268,6,0,P|330:345|336:371,3,54.0625,8|8|8|8,3:0|3:0|3:0|3:0,0:0:0:0:
236,314,70582,2,0,P|241:287|247:261,3,54.0625,8|8|8|8,3:0|3:0|3:0|3:0,0:0:0:0:
157,356,70896,6,0,P|114:349|71:343,1,86.5,4|0,1:2|0:0,0:0:0:0:
10,259,71210,1,0,0:0:0:0:
129,157,71367,2,0,P|120:199|112:241,1,86.5,4|0,1:2|0:0,0:0:0:0:
255,338,71681,1,0,0:0:0:0:
399,241,71838,2,0,P|391:199|383:157,1,86.5,4|0,1:2|0:0,0:0:0:0:
255,46,72153,5,0,0:0:0:0:
146,131,72310,2,0,P|104:123|62:113,1,86.5,4|0,1:2|0:0,0:0:0:0:
254,185,72624,1,0,0:0:0:0:
314,259,72781,2,0,P|356:251|399:241,1,86.5,4|0,1:2|0:0,0:0:0:0:
197,259,73095,2,0,P|155:251|113:241,1,86.5,4|0,1:2|0:0,0:0:0:0:
366,131,73409,5,0,3:0:0:0:
387,127,73488,1,0,3:0:0:0:
408,122,73566,1,0,3:0:0:0:
429,118,73645,1,0,3:0:0:0:
450,111,73723,2,0,P|455:138|461:164,3,54.0625,0|0|0|0,3:0|3:0|3:0|3:0,0:0:0:0:
398,241,74037,6,0,P|392:267|386:293,3,54.0625,0|0|0|0,3:0|3:0|3:0|3:0,0:0:0:0:
299,358,74352,1,0,3:0:0:0:
277,355,74430,1,0,3:0:0:0:
256,352,74509,1,0,3:0:0:0:
234,350,74587,1,0,3:0:0:0:
213,346,74666,6,0,P|207:320|201:294,1,54.0625,8|8,3:0|3:0,0:0:0:0:
87,191,74823,1,8,3:0:0:0:
118,206,74901,1,8,3:0:0:0:
153,209,74980,1,8,3:0:0:0:
186,199,75058,1,8,3:0:0:0:
213,178,75137,1,8,3:0:0:0:
231,147,75215,1,8,3:0:0:0:
236,113,75294,6,0,P|228:87|219:62,1,54.0625,4|4,3:0|3:0,0:0:0:0:
91,100,75451,2,0,P|116:108|142:117,1,54.0625,4|4,3:0|3:0,0:0:0:0:
353,202,75608,2,0,P|327:210|301:219,1,54.0625,4|4,3:0|3:0,0:0:0:0:
172,301,75765,6,0,P|255:300|311:363,1,173,4|0,1:2|0:0,0:0:0:0:
448,292,76236,2,0,P|453:249|462:206,1,86.5,8|0,0:0|0:0,0:0:0:0:
341,110,76550,2,0,P|335:152|326:195,1,86.5,0|0,1:2|0:0,0:0:0:0:
163,48,76865,2,0,P|206:43|249:37,1,86.5,8|0,0:0|0:0,0:0:0:0:
163,172,77179,6,0,P|120:167|77:161,1,86.5,0|0,1:2|0:0,0:0:0:0:
8,293,77493,2,0,P|51:287|94:283,1,86.5,8|0,0:0|0:0,0:0:0:0:
258,286,77807,1,0,1:2:0:0:
178,360,77964,1,0,0:0:0:0:
77,161,78121,1,8,0:0:0:0:
343,252,78278,6,0,B|276:243|276:243|251:260|251:260|177:255,1,173,4|0,1:2|0:0,0:0:0:0:
77,162,78749,2,0,P|118:151|160:139,1,86.5,8|0,0:0|0:0,0:0:0:0:
339,71,79064,2,0,P|297:60|255:48,1,86.5,0|0,1:2|0:0,0:0:0:0:
116,32,79378,2,0,P|128:73|138:115,1,86.5,8|0,0:0|0:0,0:0:0:0:
343,252,79692,6,0,P|353:209|365:168,1,86.5,0|0,1:2|0:0,0:0:0:0:
176,254,80006,2,0,P|133:246|90:239,1,86.5,8|0,0:0|0:0,0:0:0:0:
254,162,80320,1,0,1:2:0:0:
138,115,80477,1,0,0:0:0:0:
280,39,80634,1,8,0:0:0:0:
56,56,80791,6,0,B|28:113|28:113|75:210,1,173,4|0,1:2|0:0,0:0:0:0:
191,284,81263,2,0,P|151:300|111:317,1,86.5,8|0,0:0|0:0,0:0:0:0:
182,161,81577,1,0,1:2:0:0:
277,367,81734,1,0,0:0:0:0:
356,225,81891,2,0,P|395:241|435:258,1,86.5,8|0,0:0|0:0,0:0:0:0:
251,254,82205,5,8,3:0:0:0:
251,254,82283,1,8,3:0:0:0:
251,254,82362,1,8,3:0:0:0:
251,254,82441,1,8,3:0:0:0:
250,254,82519,6,0,P|224:260|198:267,1,54.0625,4|4,3:0|3:0,0:0:0:0:
182,161,82676,2,0,P|155:154|129:147,1,54.0625,4|4,3:0|3:0,0:0:0:0:
89,242,82833,2,0,P|62:248|36:255,1,54.0625,4|4,3:0|3:0,0:0:0:0:
125,345,82990,5,4,3:0:0:0:
125,345,83069,1,4,3:0:0:0:
125,345,83147,1,4,3:0:0:0:
358,230,83304,6,0,B|277:210|277:293|197:266,1,173,4|0,1:2|0:0,0:0:0:0:
342,323,83776,2,0,P|384:330|427:338,1,86.5,8|0,0:0|0:0,0:0:0:0:
213,173,84090,2,0,P|170:165|127:157,1,86.5,0|0,1:2|0:0,0:0:0:0:
358,230,84404,2,0,P|400:222|443:214,1,86.5,8|0,0:0|0:0,0:0:0:0:
198,362,84718,6,0,P|176:324|169:282,1,86.5,0|0,1:2|0:0,0:0:0:0:
313,123,85032,2,0,P|335:161|342:203,1,86.5,8|0,0:0|0:0,0:0:0:0:
266,293,85346,1,0,1:2:0:0:
199,144,85503,1,0,0:0:0:0:
80,231,85660,1,8,0:0:0:0:
216,121,85817,1,0,0:0:0:0:
81,75,85975,5,8,3:0:0:0:
81,75,86053,1,8,3:0:0:0:
81,75,86132,2,0,P|88:100|97:126,1,54.0625,8|8,3:0|3:0,0:0:0:0:
185,230,86289,1,4,3:0:0:0:
185,230,86367,1,4,3:0:0:0:
185,230,86446,2,0,P|177:255|168:281,1,54.0625,4|4,3:0|3:0,0:0:0:0:
282,329,86603,5,4,3:0:0:0:
308,322,86681,1,4,3:0:0:0:
333,315,86760,2,0,P|360:309|386:303,1,54.0625,4|4,3:0|3:0,0:0:0:0:
465,218,86917,1,4,3:0:0:0:
439,211,86996,1,4,3:0:0:0:
413,204,87074,2,0,P|386:198|360:192,1,54.0625,4|4,3:0|3:0,0:0:0:0:
255,120,87231,5,4,3:0:0:0:
168,281,87545,6,0,P|195:287|221:293,4,54.0625
91,236,88016,6,0,B|161:206|181:294|253:262,1,173,0|0,0:0|1:0,0:0:0:0:
