osu file format v14

[General]
AudioFilename: audio.mp3
AudioLeadIn: 0
PreviewTime: 55574
Countdown: 0
SampleSet: Normal
StackLeniency: 0.7
Mode: 0
LetterboxInBreaks: 0
WidescreenStoryboard: 1

[Editor]
DistanceSpacing: 0.8
BeatDivisor: 4
GridSize: 16
TimelineZoom: 2.1

[Metadata]
Title:ADAMAS (TV Size)
TitleUnicode:ADAMAS (TV Size)
Artist:LiSA
ArtistUnicode:LiSA
Creator:Doormat
Version:Kibbleru's Blue Rose
Source:ソードアート・オンライン アリシゼーション
Tags:Kibbleru Monstrata Kyle73 StarrStyx sword art online sao alicization season three 3 kirito asuna eugeo alice opening 織部里沙 oribe risa
BeatmapID:1797363
BeatmapSetID:859608

[Difficulty]
HPDrainRate:6.5
CircleSize:4
OverallDifficulty:8.8
ApproachRate:9.3
SliderMultiplier:1.8
SliderTickRate:1

[Events]
//Background and Video events
Video,-40,"sao-a op.avi"
0,0,"alicizatione.jpg",0,0
//Break Periods
//Storyboard Layer 0 (Background)
//Storyboard Layer 1 (Fail)
//Storyboard Layer 2 (Pass)
//Storyboard Layer 3 (Foreground)
//Storyboard Sound Samples

[TimingPoints]
537,314.13612565445,4,2,30,50,1,0
5392,314.13612565445,4,1,30,60,1,0
5392,-100,4,1,30,60,0,0
5549,314.13612565445,4,1,30,60,1,0
5549,-100,4,1,30,60,0,0
9946,-83.3333333333333,4,1,30,60,0,0
10418,-100,4,1,30,60,0,0
12459,-83.3333333333333,4,1,30,60,0,0
12617,-83.3333333333333,4,2,30,60,0,0
12931,-83.3333333333333,4,1,30,60,0,0
13402,-100,4,1,30,60,0,0
14973,-100,4,1,30,60,0,0
15130,-83.3333333333333,4,1,30,60,0,0
15287,-142.857142857143,4,2,30,60,0,0
15444,-100,4,2,30,60,0,0
15758,-125,4,2,30,40,0,0
23140,-83.3333333333333,4,2,30,50,0,0
23454,-100,4,2,30,50,0,0
24240,-200,4,2,30,50,0,0
25496,-111.111111111111,4,2,30,50,0,0
34449,-111.111111111111,4,1,30,50,0,0
35077,-99.9999999999999,4,1,30,50,0,0
35391,-83.3333333333333,4,2,30,50,0,0
35706,-166.666666666667,4,2,30,40,0,0
38847,-200,4,2,30,40,0,0
39475,-250,4,2,30,40,0,0
39946,-250,4,2,30,50,0,0
40732,-166.666666666667,4,2,30,40,0,0
43873,-200,4,2,30,40,0,0
44501,-111.111111111111,4,2,30,50,0,0
45287,-83.3333333333334,4,2,30,50,0,0
45758,-111.111111111111,4,1,30,50,0,0
54240,-71.4285714285714,4,1,30,50,0,0
55661,314.13612565445,4,1,30,60,1,1
55661,-95.2380952380952,4,1,30,60,0,1
55818,314.13612565445,4,1,30,60,1,1
55818,-95.2380952380952,4,1,30,60,0,1
64142,-71.4285714285714,4,1,30,60,0,1
65713,-125,4,2,30,60,0,0
68226,-90.9090909090909,4,2,30,60,0,0
68540,-111.111111111111,4,2,30,60,0,0
68854,-100,4,2,30,60,0,0
69168,-125,4,2,30,60,0,0
69639,-100,4,1,30,60,0,0
70896,-95.2380952380952,4,1,30,60,0,0
73409,-76.9230769230769,4,1,30,60,0,0
75765,-100,4,1,30,60,0,1
82990,-166.666666666667,4,2,30,60,0,1
83304,-83.3333333333333,4,1,30,60,0,0
83776,-100,4,1,30,60,0,0
85346,-142.857142857143,4,1,30,60,0,0
85975,-100,4,1,30,60,0,0
86289,-83.3333333333334,4,1,30,60,0,0
87467,-100,4,3,30,60,0,0
88016,-71.4285714285714,4,3,30,60,0,0

[Colours]
Combo1 : 255,185,222
Combo2 : 255,171,79
Combo3 : 108,174,255

[HitObjects]
169,147,5392,6,2,P|89:154|30:248,1,180,6|0,0:0|0:0,0:0:0:0:
262,193,5863,2,0,P|272:133|265:80,1,90,10|0,0:0|0:0,0:0:0:0:
145,246,6177,1,2,0:0:0:0:
87,59,6334,1,0,0:0:0:0:
144,246,6491,2,0,L|132:334,1,90,10|0,0:0|0:0,0:0:0:0:
0,87,6805,6,2,B|91:74|68:147|167:133,1,180,0|10,0:0|0:0,0:0:0:0:
29,207,7276,2,0,L|19:259,2,45,0|2|0,0:0|0:2|0:0,0:0:0:0:
146,35,7590,1,2,0:0:0:0:
242,232,7747,1,8,0:0:0:0:
358,99,7905,1,0,0:0:0:0:
358,99,7983,1,0,0:2:0:0:
358,99,8062,6,0,L|264:109,1,90,2|0,0:0|0:0,0:0:0:0:
0,270,8376,2,0,B|81:242|81:242|130:261,1,135,10|0,0:0|0:0,0:0:0:0:
146,280,8690,2,0,P|137:234|135:184,1,90,2|0,0:0|0:0,0:0:0:0:
242,232,9004,1,10,0:0:0:0:
72,353,9161,1,0,0:0:0:0:
242,232,9318,6,2,B|337:228|305:294|405:292,1,180,0|10,0:0|0:0,0:0:0:0:
241,331,9789,1,0,0:0:0:0:
225,72,9946,6,0,P|218:97|213:124,1,53.9999983520508,10|8,0:0|0:0,0:0:0:0:
100,228,10103,2,0,P|108:253|113:280,1,53.9999983520508,10|8,0:0|0:0,0:0:0:0:
70,380,10261,1,8,0:0:0:0:
70,380,10339,1,8,0:0:0:0:
69,380,10418,6,2,P|128:315|216:310,1,180,6|0,0:0|0:0,0:0:0:0:
323,382,10889,2,0,P|337:330|334:260,1,90,10|0,0:0|0:0,0:0:0:0:
221,78,11203,2,0,L|239:183,1,90,2|0,0:0|0:0,0:0:0:0:
231,289,11517,1,10,0:0:0:0:
349,158,11674,1,0,0:0:0:0:
137,141,11831,5,2,0:0:0:0:
434,294,11988,1,0,0:0:0:0:
379,67,12145,1,10,0:0:0:0:
335,59,12224,1,0,0:0:0:0:
292,73,12302,1,0,0:0:0:0:
261,105,12381,1,0,0:0:0:0:
249,148,12459,6,0,P|255:174|260:201,1,53.9999983520508,10|0,0:0|0:0,0:0:0:0:
93,294,12617,2,2,P|90:280|88:267,7,26.9999991760254,2|0|0|0|0|0|0|0,1:1|0:1|0:1|0:1|0:1|0:1|0:1|0:1,0:1:0:0:
1,287,12931,6,2,B|84:303|84:303|114:355|114:355|183:369,1,215.999993408203,6|0,0:0|0:0,0:0:0:0:
287,343,13402,2,2,P|335:298|402:296,1,135,10|0,0:0|0:0,0:0:0:0:
418,313,13716,2,0,P|425:262|435:212,1,90,2|0,0:0|0:0,0:0:0:0:
323,181,14030,2,2,P|316:130|306:80,1,90,8|0,0:0|0:0,0:0:0:0:
432,224,14344,5,10,0:0:0:0:
392,202,14423,1,8,0:0:0:0:
348,204,14501,1,8,0:0:0:0:
310,227,14580,1,8,0:3:0:0:
289,266,14658,1,10,0:1:0:0:
267,305,14737,1,4,0:3:0:0:
230,328,14816,1,4,0:3:0:0:
185,329,14894,1,4,0:3:0:0:
146,308,14973,6,0,P|147:285|150:263,1,45,8|0,0:0|0:0,0:0:0:0:
62,195,15130,2,0,P|60:168|56:141,1,53.9999983520508,8|0,0:0|0:0,0:0:0:0:
171,108,15287,2,0,P|180:60|189:28,1,62.9999980773926,12|0,0:0|0:0,0:0:0:0:
398,115,15758,5,0,0:0:0:0:
398,115,15915,2,0,P|383:170|382:239,1,108,8|0,0:0|0:0,0:0:0:0:
388,240,16229,2,0,P|323:233|269:219,1,108,8|0,0:0|0:0,0:0:0:0:
261,214,16543,2,0,P|277:270|279:330,1,108,8|0,0:0|0:0,0:0:0:0:
275,341,16857,6,0,L|190:346,1,72,8|0,0:0|0:0,0:0:0:0:
27,267,17172,1,8,0:0:0:0:
27,267,17329,2,0,L|98:262,1,72,0|8,1:0|0:0,0:0:0:0:
308,193,17643,2,0,L|236:188,1,72,0|8,1:0|0:0,0:0:0:0:
119,44,17957,1,0,1:0:0:0:
119,44,18114,6,0,P|132:105|138:172,1,108,8|0,0:0|0:0,0:0:0:0:
129,170,18428,2,0,P|192:184|259:188,1,108,8|0,0:0|0:0,0:0:0:0:
255,178,18742,2,0,P|251:263|242:305,1,108,8|0,0:0|0:0,0:0:0:0:
244,307,19056,2,0,P|309:292|370:293,1,108,8|0,0:0|0:0,0:0:0:0:
366,310,19370,6,0,L|377:230,1,72,8|0,0:0|0:0,0:0:0:0:
305,82,19685,1,8,0:0:0:0:
305,82,19842,2,0,L|295:156,1,72,0|8,1:0|0:0,0:0:0:0:
161,268,20156,2,0,L|157:231,2,36,0|0|8,1:0|1:0|0:0,0:0:0:0:
53,107,20470,1,0,0:0:0:0:
53,107,20627,6,0,P|111:128|168:138,1,108,8|0,0:0|0:0,0:0:0:0:
178,126,20941,2,0,P|163:188|155:246,1,108,8|0,0:0|0:0,0:0:0:0:
159,256,21255,2,0,P|221:243|282:241,1,108,8|0,0:0|0:0,0:0:0:0:
290,236,21569,2,0,P|302:297|320:353,1,108,8|0,0:0|0:0,0:0:0:0:
334,357,21884,6,0,L|406:347,1,72,8|0,0:0|0:0,0:0:0:0:
419,234,22198,1,8,0:0:0:0:
419,234,22355,2,0,L|492:223,1,72,0|8,1:0|0:0,0:0:0:0:
214,298,22669,2,0,L|141:288,1,72,0|8,1:0|0:0,0:0:0:0:
231,117,22983,1,0,1:0:0:0:
231,117,23140,6,0,B|173:124|173:124|145:148|145:148|78:155,1,161.999995056153,8|0,0:0|0:0,0:0:0:0:
59,171,23454,2,2,B|41:127|41:127|51:85,1,90,10|0,0:0|1:0,0:0:0:0:
57,68,23690,1,0,1:0:0:0:
63,50,23768,1,10,0:0:0:0:
218,219,23925,1,2,1:2:0:0:
223,236,24004,1,0,1:0:0:0:
228,253,24083,1,8,0:0:0:0:
338,127,24240,2,2,L|433:141,3,90,2|0|0|0,1:2|0:0|0:0|0:0,0:0:0:0:
458,351,25496,6,0,P|405:293|326:286,1,161.999995056153,4|2,1:1|0:0,0:0:0:0:
237,326,25967,2,0,B|174:321|180:348|117:342,1,121.499996292114,8|0,0:0|0:0,0:0:0:0:
98,347,26281,2,0,L|109:255,1,80.9999975280763,2|0,1:2|0:0,0:0:0:0:
215,135,26596,2,0,L|205:215,1,80.9999975280763,10|0,0:0|0:0,0:0:0:0:
17,85,26910,5,0,1:0:0:0:
122,161,27067,1,2,0:0:0:0:
0,262,27224,1,8,0:0:0:0:
122,161,27381,1,2,0:0:0:0:
28,174,27538,5,0,1:0:0:0:
148,294,27695,1,2,0:0:0:0:
292,204,27852,1,8,0:0:0:0:
363,278,28009,6,0,P|402:288|441:297,1,80.9999975280763,4|0,0:0|1:0,0:0:0:0:
332,88,28323,1,0,0:0:0:0:
478,53,28480,2,0,L|359:79,1,121.499996292114,10|0,0:0|0:0,0:0:0:0:
332,88,28795,2,0,P|332:38|324:3,1,80.9999975280763,2|0,1:2|0:0,0:0:0:0:
216,178,29109,2,0,P|216:228|224:263,1,80.9999975280763,10|0,0:0|0:0,0:0:0:0:
184,346,29423,5,0,1:0:0:0:
311,216,29580,1,2,0:0:0:0:
393,322,29737,1,8,0:0:0:0:
311,216,29894,1,2,0:0:0:0:
298,311,30051,5,0,1:0:0:0:
192,178,30208,1,2,0:0:0:0:
307,53,30365,1,8,0:0:0:0:
191,62,30522,6,0,P|151:54|112:43,1,80.9999975280763,4|4,0:0|1:0,0:0:0:0:
35,262,30836,1,2,0:0:0:0:
192,178,30994,1,8,0:0:0:0:
35,262,31151,1,2,0:0:0:0:
44,146,31308,5,0,1:0:0:0:
141,279,31465,1,2,0:0:0:0:
194,198,31622,1,8,0:0:0:0:
84,355,31779,1,2,0:0:0:0:
325,299,31936,6,0,P|284:295|246:283,1,80.9999975280763,2|0,1:2|0:0,0:0:0:0:
44,146,32250,2,0,P|84:142|122:130,1,80.9999975280763,10|2,0:0|0:0,0:0:0:0:
186,57,32564,1,0,1:0:0:0:
303,202,32721,1,2,0:0:0:0:
399,93,32878,1,10,0:0:0:0:
156,356,33192,6,0,L|149:276,1,80.9999975280763,0|0,1:0|0:0,0:0:0:0:
306,125,33507,2,0,B|317:166|317:166|302:201,1,80.9999975280763,8|0,0:0|0:0,0:0:0:0:
37,308,33821,2,0,B|26:267|26:267|40:231,1,80.9999975280763,0|0,1:0|0:0,0:0:0:0:
201,72,34135,2,0,L|208:152,1,80.9999975280763,8|0,0:0|0:0,0:0:0:0:
343,303,34449,6,0,L|399:315,2,40.4999987640381,0|8|0,0:0|0:3|0:3,0:0:0:0:
88,200,34763,2,0,L|32:212,2,40.4999987640381,0|4|4,0:0|0:3|0:3,0:0:0:0:
354,40,35077,5,2,0:1:0:0:
344,55,35156,1,8,0:3:0:0:
337,71,35234,2,0,P|333:94|330:116,1,45,8|0,0:3|0:0,0:0:0:0:
168,136,35391,1,2,0:1:0:0:
179,153,35470,1,4,0:3:0:0:
185,172,35548,2,0,P|189:198|191:225,1,53.9999983520508,4|0,0:3|0:0,0:0:0:0:
99,351,35706,6,2,B|229:354|178:290|304:298,1,215.999993408203,0|2,0:1|0:1,0:1:0:0:
374,233,36648,1,0,0:0:0:0:
311,158,36962,2,2,P|256:148|200:51,1,161.999995056153,0|2,0:1|0:1,0:1:0:0:
113,110,37590,2,0,L|-3:126,1,107.999996704102,0|2,0:0|0:1,0:0:0:0:
110,247,38062,1,8,0:0:0:0:
110,247,38140,1,8,0:0:0:0:
110,247,38219,6,0,L|92:355,1,107.999996704102,2|0,0:0|0:0,0:0:0:0:
260,271,38847,2,0,L|277:363,1,90,2|0,0:0|0:0,0:0:0:0:
342,139,39475,2,0,L|414:151,1,72,2|0,0:0|0:0,0:0:0:0:
403,50,39946,5,8,0:0:0:0:
242,182,40103,1,0,1:0:0:0:
325,243,40261,5,8,0:0:0:0:
98,66,40418,1,0,1:0:0:0:
190,17,40575,5,0,1:0:0:0:
190,17,40653,1,0,1:0:0:0:
190,17,40732,2,2,P|249:47|300:51,1,107.999996704102,0|0,0:1|0:1,0:1:0:0:
155,143,41203,2,2,P|94:158|43:249,1,161.999995056153,0|0,0:1|0:1,0:1:0:0:
105,313,41831,2,2,B|187:312|163:361|255:361,1,161.999995056153,0|0,0:1|0:1,0:1:0:0:
343,317,42459,2,2,P|346:260|379:150,1,161.999995056153,0|2,0:1|0:1,0:1:0:0:
331,72,43088,1,8,0:0:0:0:
331,72,43166,1,8,0:0:0:0:
331,72,43245,6,0,L|443:55,1,107.999996704102,2|0,0:0|0:0,0:0:0:0:
323,226,43873,2,0,L|347:325,1,90,2|0,0:0|0:0,0:0:0:0:
215,149,44501,5,0,1:0:0:0:
129,207,44658,2,0,L|112:299,1,80.9999975280763,8|0,0:0|1:0,0:0:0:0:
83,93,44973,2,0,L|-5:71,1,80.9999975280763,8|0,0:3|1:0,0:0:0:0:
7,379,45287,2,0,L|59:366,1,53.9999983520508,8|0,0:0|1:0,0:0:0:0:
221,256,45444,1,8,0:0:0:0:
261,253,45522,1,8,0:0:0:0:
299,266,45601,1,8,0:0:0:0:
328,293,45679,1,8,0:0:0:0:
344,330,45758,6,0,L|362:222,1,80.9999975280763,2|0,0:2|0:0,0:0:0:0:
318,84,46072,2,0,L|304:163,1,80.9999975280763,8|0,0:0|0:0,0:0:0:0:
218,215,46386,2,0,P|174:206|139:191,1,80.9999975280763,2|0,0:2|0:0,0:0:0:0:
148,380,46700,1,8,0:0:0:0:
0,335,46857,1,0,0:0:0:0:
0,335,46936,1,0,0:0:0:0:
0,335,47014,6,0,B|87:330|69:289|153:287,1,161.999995056153,2|10,0:2|0:2,0:0:0:0:
251,336,47486,1,0,0:0:0:0:
251,336,47564,1,0,0:0:0:0:
251,336,47643,2,0,L|345:352,1,80.9999975280763,2|0,0:2|0:0,0:0:0:0:
395,277,47957,1,10,0:2:0:0:
497,323,48114,1,0,0:0:0:0:
497,323,48192,1,0,0:0:0:0:
496,322,48271,6,0,P|490:283|487:242,1,80.9999975280763,2|0,0:2|0:0,0:0:0:0:
380,96,48585,2,0,P|386:135|389:176,1,80.9999975280763,10|0,0:2|0:0,0:0:0:0:
311,333,48899,2,0,P|304:293|301:252,1,80.9999975280763,2|0,0:2|0:0,0:0:0:0:
238,182,49213,2,0,L|131:163,1,80.9999975280763,10|0,0:2|0:0,0:0:0:0:
142,166,49449,1,0,0:0:0:0:
125,164,49528,6,0,L|116:83,1,80.9999975280763,2|0,0:2|0:0,0:0:0:0:
198,275,49842,2,0,L|189:355,1,80.9999975280763,10|0,0:2|0:0,0:0:0:0:
3,277,50156,2,0,P|44:271|88:252,1,80.9999975280763,10|0,0:2|0:0,0:0:0:0:
216,85,50470,1,10,0:2:0:0:
417,250,50627,1,0,0:0:0:0:
417,250,50706,1,0,0:0:0:0:
417,250,50784,5,10,0:0:0:0:
290,155,50941,1,0,0:0:0:0:
290,155,51098,1,0,0:0:0:0:
388,45,51255,5,10,0:0:0:0:
191,185,51412,1,0,0:0:0:0:
191,185,51569,1,0,0:0:0:0:
417,250,51727,5,10,0:0:0:0:
216,85,51884,1,0,0:0:0:0:
41,279,52041,5,10,0:0:0:0:
191,185,52198,1,0,0:0:0:0:
191,185,52355,1,0,0:0:0:0:
53,60,52512,5,10,0:0:0:0:
290,155,52669,1,0,0:0:0:0:
290,155,52826,1,0,0:0:0:0:
41,279,52983,5,10,0:0:0:0:
216,85,53140,1,0,0:0:0:0:
448,312,53297,5,10,0:1:0:0:
416,338,53376,1,4,0:3:0:0:
378,349,53454,1,4,0:3:0:0:
338,345,53533,1,4,0:3:0:0:
303,325,53611,1,4,0:3:0:0:
279,293,53690,1,0,0:0:0:0:
269,254,53768,1,14,0:1:0:0:
260,214,53847,1,4,0:3:0:0:
236,182,53925,1,4,0:3:0:0:
201,162,54004,1,4,0:3:0:0:
161,158,54083,1,4,0:3:0:0:
123,169,54161,1,4,0:3:0:0:
92,196,54240,6,0,P|91:231|86:267,1,62.9999980773926,10|0,0:1|2:0,0:0:0:0:
181,312,54397,2,0,P|182:346|187:382,1,62.9999980773926,12|0,0:2|2:0,0:0:0:0:
322,143,55661,6,2,P|413:145|472:215,1,188.999994232178,6|0,0:0|0:0,0:0:0:0:
214,194,56132,2,0,P|204:147|205:100,1,94.499997116089,10|0,0:0|0:0,0:0:0:0:
314,252,56446,1,2,0:0:0:0:
204,100,56603,1,2,0:2:0:0:
204,100,56681,1,2,0:2:0:0:
204,100,56760,1,10,0:0:0:0:
143,278,56917,1,0,0:0:0:0:
13,145,57074,6,0,L|113:161,1,94.499997116089,2|0,0:0|0:0,0:0:0:0:
322,143,57388,1,8,0:0:0:0:
143,278,57545,2,0,L|136:326,2,47.2499985580445,2|2|0,0:0|0:2|0:0,0:0:0:0:
314,252,57859,1,0,0:0:0:0:
205,98,58017,2,0,L|214:193,1,94.499997116089,10|0,0:2|0:0,0:0:0:0:
468,74,58331,5,0,0:0:0:0:
322,143,58488,1,2,0:2:0:0:
480,249,58645,1,8,0:0:0:0:
302,141,58802,1,2,0:2:0:0:
222,308,58959,5,0,0:0:0:0:
419,157,59116,1,2,0:2:0:0:
419,157,59195,1,2,0:2:0:0:
419,157,59273,1,8,0:0:0:0:
205,64,59430,1,0,0:0:0:0:
441,265,59587,6,0,P|394:256|349:242,1,94.499997116089,2|0,0:2|0:0,0:0:0:0:
78,214,59901,2,2,P|129:173|208:169,1,141.749995674133,10|0,0:0|0:0,0:0:0:0:
220,181,60215,2,0,L|206:66,1,94.499997116089,2|0,0:2|0:0,0:0:0:0:
222,308,60530,1,10,0:0:0:0:
414,110,60687,1,2,0:2:0:0:
414,110,60765,1,2,0:2:0:0:
414,109,60844,6,0,P|370:127|323:132,1,94.499997116089,4|0,0:0|0:0,0:0:0:0:
36,261,61158,2,2,P|79:242|126:237,1,94.499997116089,12|0,0:2|0:0,0:0:0:0:
222,308,61472,1,2,0:2:0:0:
70,136,61629,1,2,0:2:0:0:
67,117,61708,1,2,0:2:0:0:
64,98,61786,1,10,0:0:0:0:
405,292,62022,1,0,0:0:0:0:
405,292,62100,6,2,B|298:273|342:225|238:209,1,188.999994232178,2|8,0:0|0:0,0:0:0:0:
199,109,62571,1,2,0:2:0:0:
199,109,62650,1,2,0:2:0:0:
199,109,62729,1,2,0:0:0:0:
242,315,62886,1,0,0:0:0:0:
405,188,63043,1,8,0:0:0:0:
132,194,63200,6,2,L|38:204,1,94.499997116089,4|0,0:2|0:0,0:0:0:0:
359,56,63514,2,2,B|404:74|404:74|449:66,1,94.499997116089,0|8,0:0|0:0,0:0:0:0:
469,53,63750,1,0,0:0:0:0:
471,67,63828,1,2,0:0:0:0:
473,80,63907,1,0,0:0:0:0:
475,93,63985,1,0,0:0:0:0:
478,106,64064,1,0,0:0:0:0:
480,119,64142,6,0,L|488:190,1,62.9999980773926,10|8,0:0|0:0,0:0:0:0:
364,238,64299,2,0,L|372:309,1,62.9999980773926,10|8,0:0|0:0,0:0:0:0:
361,219,64456,5,12,0:2:0:0:
172,281,64770,1,12,0:2:0:0:
290,120,65085,1,12,0:2:0:0:
290,320,65399,1,12,0:2:0:0:
172,158,65713,6,0,L|7:173,1,144,4|0,1:0|1:0,0:0:0:0:
53,81,66184,2,0,P|87:78|131:72,1,72,0|0,1:0|0:0,0:0:0:0:
172,158,66498,2,0,P|159:228|154:300,1,144,2|0,1:2|1:0,0:0:0:0:
343,350,66969,6,0,P|349:314|351:278,1,72,2|0,0:0|1:0,0:0:0:0:
277,110,67284,2,0,P|270:145|266:182,2,72,2|0|0,0:0|1:0|0:0,0:0:0:0:
468,281,67755,5,2,1:2:0:0:
366,167,67912,1,6,0:3:0:0:
255,298,68069,1,0,1:0:0:0:
145,119,68226,6,0,L|48:98,1,99.0000030212403,12|0,0:0|1:0,0:0:0:0:
353,279,68540,2,0,L|372:361,1,80.9999975280763,2|0,0:0|1:0,0:0:0:0:
137,354,68854,2,0,L|157:266,1,90,2|0,0:0|1:0,0:0:0:0:
467,104,69168,2,0,L|396:120,1,72,2|0,0:0|1:0,0:0:0:0:
275,181,69482,1,2,0:0:0:0:
43,119,69640,5,8,0:0:0:0:
55,85,69718,1,8,0:0:0:0:
81,61,69797,1,8,0:0:0:0:
116,53,69875,1,8,0:0:0:0:
150,62,69954,1,8,0:0:0:0:
176,87,70032,1,0,0:0:0:0:
187,121,70111,1,0,0:0:0:0:
180,156,70189,1,0,0:0:0:0:
158,184,70268,5,8,0:0:0:0:
132,224,70346,1,8,0:0:0:0:
143,271,70425,1,8,0:0:0:0:
184,296,70503,1,8,0:0:0:0:
230,284,70582,2,0,P|252:278|275:275,3,45,8|0|0|0,0:0|0:0|0:0|0:0,0:0:0:0:
469,275,70896,5,12,0:1:0:0:
297,179,71053,1,0,0:0:0:0:
430,111,71210,1,2,0:0:0:0:
184,296,71367,5,12,0:2:0:0:
397,204,71524,1,0,0:0:0:0:
204,121,71681,1,0,0:0:0:0:
331,284,71839,5,10,0:0:0:0:
111,184,71996,1,0,0:0:0:0:
336,111,72153,1,0,0:0:0:0:
242,345,72310,5,12,0:2:0:0:
223,233,72467,1,0,0:0:0:0:
204,121,72624,1,0,0:2:0:0:
331,284,72781,5,12,0:2:0:0:
111,184,72938,1,0,0:0:0:0:
336,111,73095,5,12,0:2:0:0:
98,340,73252,1,0,0:0:0:0:
30,43,73409,6,0,L|86:57,1,58.4999973220826,8|0,0:3|0:0,0:0:0:0:
367,220,73566,1,8,0:3:0:0:
367,220,73645,1,8,0:3:0:0:
367,220,73723,1,8,0:3:0:0:
367,220,73802,1,0,0:0:0:0:
367,220,73880,6,0,L|310:234,1,58.4999973220826
41,326,74037,1,8,0:3:0:0:
41,326,74116,1,8,0:3:0:0:
41,326,74195,1,8,0:3:0:0:
41,326,74273,1,0,0:0:0:0:
41,326,74352,6,0,L|98:340,1,58.4999973220826,8|0,0:3|0:0,0:0:0:0:
263,109,74509,2,0,L|279:44,1,58.4999973220826,4|0,0:3|0:0,0:0:0:0:
38,23,74666,5,0,0:0:0:0:
7,57,74744,1,8,0:3:0:0:
7,103,74823,1,8,0:3:0:0:
23,143,74901,1,8,0:3:0:0:
64,164,74980,1,0,0:0:0:0:
110,158,75058,1,8,0:3:0:0:
143,126,75137,1,8,0:3:0:0:
176,94,75215,1,8,0:3:0:0:
222,88,75294,1,0,0:0:0:0:
263,109,75373,1,4,0:3:0:0:
284,149,75451,1,4,0:3:0:0:
279,195,75530,1,4,0:3:0:0:
248,228,75608,2,0,P|240:256|238:285,1,58.4999973220826,12|0,0:2|0:0,0:0:0:0:
302,352,75765,6,2,B|210:344|249:288|142:281,1,180,6|0,0:0|0:0,0:0:0:0:
12,192,76236,2,0,P|56:186|100:176,1,90,10|0,0:2|0:0,0:0:0:0:
258,191,76551,1,2,0:2:0:0:
156,372,76708,1,0,0:0:0:0:
258,191,76865,2,0,L|243:80,1,90,10|0,0:2|0:0,0:0:0:0:
143,282,77179,6,2,L|155:371,1,90,2|0,0:0|0:0,0:0:0:0:
34,205,77493,1,10,0:0:0:0:
251,316,77650,1,2,0:2:0:0:
58,337,77807,5,0,0:0:0:0:
229,218,77964,1,2,0:2:0:0:
382,359,78121,1,8,0:0:0:0:
432,34,78278,6,2,P|375:101|285:99,1,180,6|0,0:0|0:0,0:0:0:0:
198,41,78750,2,0,P|187:84|185:129,1,90,10|0,0:2|0:0,0:0:0:0:
189,147,78985,1,0,0:0:0:0:
195,164,79064,1,0,0:0:0:0:
296,215,79221,1,0,0:0:0:0:
1,75,79378,2,0,L|93:92,1,90,10|0,0:2|0:0,0:0:0:0:
83,324,79692,5,2,0:0:0:0:
195,164,79849,1,0,0:0:0:0:
9,235,80006,2,2,B|78:229|78:229|111:196|111:196|174:190,1,180,10|0,0:0|0:0,0:0:0:0:
261,240,80477,1,2,0:2:0:0:
406,93,80634,1,8,0:0:0:0:
511,339,80791,6,2,P|448:274|354:274,1,180,6|0,0:0|0:0,0:0:0:0:
269,328,81263,2,0,P|260:283|260:239,1,90,10|0,0:2|0:0,0:0:0:0:
410,374,81577,1,2,0:2:0:0:
260,239,81734,1,0,0:0:0:0:
75,333,81891,2,0,L|164:320,1,90,10|0,0:2|0:0,0:0:0:0:
443,144,82205,5,0,0:0:0:0:
404,156,82284,1,8,0:3:0:0:
364,153,82362,1,8,0:3:0:0:
328,136,82441,1,8,0:3:0:0:
300,106,82519,2,0,L|306:44,1,45,4|0,0:3|0:0,0:0:0:0:
87,148,82676,2,0,L|81:86,1,45,4|0,0:3|0:0,0:0:0:0:
195,97,82833,5,0,0:0:0:0:
195,115,82912,1,0,0:0:0:0:
195,132,82990,2,0,L|193:212,1,80.9999975280763,4|0,0:3|0:0,0:0:0:0:
45,357,83304,6,2,B|96:327|109:274|109:274|146:310|209:310,1,215.999993408203,6|0,0:0|0:0,0:0:0:0:
292,255,83776,2,2,P|345:293|411:287,1,135,10|0,0:0|0:0,0:0:0:0:
435,303,84090,2,0,P|441:258|452:214,1,90,2|0,0:0|0:0,0:0:0:0:
348,20,84404,2,2,P|358:63|365:108,1,90,8|0,0:0|0:0,0:0:0:0:
254,84,84718,6,2,P|199:77|126:127,1,135,2|0,0:0|0:0,0:0:0:0:
106,121,85032,2,0,P|120:163|128:207,1,90,10|0,0:0|0:0,0:0:0:0:
108,310,85346,6,2,L|182:297,1,62.9999980773926,0|2,0:0|0:2,0:0:0:0:
251,369,85660,2,2,L|325:356,1,62.9999980773926,8|2,0:0|0:2,0:0:0:0:
458,94,85975,5,0,0:0:0:0:
458,94,86053,1,0,0:0:0:0:
458,94,86132,2,0,L|388:83,1,45
304,47,86289,5,10,0:0:0:0:
307,68,86367,1,8,0:0:0:0:
311,89,86446,2,0,L|319:142,1,53.9999983520508,8|0,0:0|0:0,0:0:0:0:
179,106,86603,1,10,0:0:0:0:
182,127,86681,1,8,0:0:0:0:
186,148,86760,2,0,L|194:201,1,53.9999983520508,8|0,0:0|0:0,0:0:0:0:
98,309,86917,5,0,0:0:0:0:
98,309,86996,1,0,0:0:0:0:
98,309,87074,1,8,0:3:0:0:
98,309,87153,1,4,0:3:0:0:
98,309,87231,1,4,2:3:0:0:
416,288,87545,6,0,L|355:281,1,45
425,267,87702,2,0,L|364:260,1,45
434,246,87859,2,0,L|373:239,1,45,0|0,0:0|2:0,0:0:0:0:
239,253,88017,6,0,B|184:191|184:191|229:367,1,251.999992309571,0|14,0:0|1:1,0:0:0:0:
