osu file format v14

[General]
AudioFilename: audio.mp3
AudioLeadIn: 0
PreviewTime: 55574
Countdown: 0
SampleSet: Soft
StackLeniency: 0.6
Mode: 0
LetterboxInBreaks: 0
WidescreenStoryboard: 1

[Editor]
DistanceSpacing: 0.8
BeatDivisor: 4
GridSize: 4
TimelineZoom: 1.4

[Metadata]
Title:ADAMAS (TV Size)
TitleUnicode:ADAMAS (TV Size)
Artist:LiSA
ArtistUnicode:LiSA
Creator:Doormat
Version:Hard
Source:ソードアート・オンライン アリシゼーション
Tags:Kibbleru Monstrata Kyle73 StarrStyx sword art online sao alicization season three 3 kirito asuna eugeo alice opening 織部里沙 oribe risa
BeatmapID:1796364
BeatmapSetID:859608

[Difficulty]
HPDrainRate:5
CircleSize:4
OverallDifficulty:6
ApproachRate:8
SliderMultiplier:1.4
SliderTickRate:1

[Events]
//Background and Video events
0,0,"sao alice.jpg",0,0
Video,-40,"sao-a op.avi"
//Break Periods
//Storyboard Layer 0 (Background)
//Storyboard Layer 1 (Fail)
//Storyboard Layer 2 (Pass)
//Storyboard Layer 3 (Foreground)
//Storyboard Sound Samples

[TimingPoints]
537,314.13612565445,4,2,1,40,1,0
537,-133.333333333333,4,2,1,40,0,0
5392,314.13612565445,4,2,1,70,1,0
5392,-100,4,2,1,70,0,0
5549,314.13612565445,4,2,1,70,1,0
5549,-100,4,2,1,70,0,0
15444,-111.111111111111,4,2,1,60,0,0
24240,-133.333333333333,4,2,1,40,0,0
25496,-100,4,2,1,70,0,0
35706,-133.333333333333,4,2,1,50,0,0
45758,-111.111111111111,4,2,1,70,0,0
50784,-111.111111111111,4,2,1,80,0,0
55661,314.13612565445,4,2,1,90,1,1
55661,-100,4,2,1,90,0,1
55818,314.13612565445,4,2,1,90,1,1
55818,-100,4,2,1,90,0,1
64456,-100,4,2,1,70,0,1
65713,-133.333333333333,4,2,1,70,0,0
70896,-100,4,2,1,80,0,0
75765,-100,4,2,1,90,0,1
83304,-100,4,2,1,90,0,0
87545,-100,4,2,1,80,0,0
88173,-100,4,2,1,5,0,0
88331,-100,4,2,1,80,0,0

[Colours]
Combo1 : 45,100,180
Combo2 : 250,230,0
Combo3 : 150,185,230
Combo4 : 240,200,20

[HitObjects]
388,184,537,6,0,L|388:252,2,52.5000020027161,0|0|2,0:0|0:0|0:3,0:0:0:0:
319,144,1008,2,0,L|318:75,2,52.5000020027161,0|0|0,0:0|0:0|0:0,0:0:0:0:
257,188,1479,2,0,L|257:256,2,52.5000020027161,2|0|0,0:3|0:0|0:0,0:0:0:0:
188,149,1950,2,0,L|187:80,2,52.5000020027161,0|2|0,0:0|0:3|0:0,0:0:0:0:
124,192,2421,6,0,P|98:198|72:201,1,52.5000020027161,0|0,0:0|0:0,0:0:0:0:
87,285,2735,2,0,P|112:278|138:275,1,52.5000020027161,2|0,0:3|0:0,0:0:0:0:
220,300,3050,6,0,L|216:360,2,52.5000020027161,0|0|2,0:0|0:0|0:3,0:0:0:0:
292,268,3521,2,0,L|296:208,2,52.5000020027161,0|0|0,0:0|0:0|0:0,0:0:0:0:
356,312,3992,2,0,L|352:372,2,52.5000020027161,2|0|0,0:3|0:0|0:0,0:0:0:0:
428,280,4463,2,0,L|432:220,2,52.5000020027161,0|2|0,0:0|0:3|0:0,0:0:0:0:
292,268,4934,1,0,0:0:0:0:
292,268,5392,6,0,P|320:220|280:140,1,140,6|0,0:0|0:0,0:0:0:0:
296,56,5863,2,0,L|372:40,1,70,10|0,0:0|0:0,0:0:0:0:
444,84,6177,1,2,1:2:0:0:
444,84,6334,1,0,0:0:0:0:
400,164,6491,2,0,P|400:212|420:244,1,70,10|0,0:0|0:0,0:0:0:0:
484,284,6805,5,2,1:2:0:0:
484,284,6962,1,0,0:0:0:0:
416,344,7119,2,0,L|344:332,1,70,10|0,0:0|0:0,0:0:0:0:
284,268,7433,1,2,1:2:0:0:
200,304,7590,2,0,L|208:376,1,70,2|8,0:0|0:0,0:0:0:0:
346,332,7905,6,0,P|372:269|349:204,1,140,2|0,0:0|0:0,0:0:0:0:
368,116,8376,2,0,L|448:124,1,70,10|0,0:0|0:0,0:0:0:0:
512,68,8690,1,2,1:2:0:0:
512,68,8847,1,0,0:0:0:0:
444,8,9004,2,0,L|363:0,1,70,10|0,0:0|0:0,0:0:0:0:
288,28,9318,6,0,P|292:62|280:95,1,70,2|0,1:2|0:0,0:0:0:0:
208,148,9632,2,0,P|196:180|200:215,1,70,10|0,0:0|0:0,0:0:0:0:
268,280,9946,1,8,3:0:0:0:
268,280,10025,1,8,3:0:0:0:
268,280,10103,2,0,L|308:276,2,35,8|8|8,3:0|3:0|3:0,0:0:0:0:
200,344,10418,6,0,L|52:329,1,140,6|0,0:0|0:0,0:0:0:0:
24,248,10889,2,0,P|41:218|48:183,1,70,10|0,0:0|0:0,0:0:0:0:
24,96,11203,1,2,1:2:0:0:
24,96,11360,1,0,0:0:0:0:
80,24,11517,2,0,L|156:48,1,70,10|0,0:0|0:0,0:0:0:0:
216,104,11831,5,2,1:2:0:0:
293,56,11988,1,8,0:0:0:0:
362,114,12145,2,0,L|356:160,3,35,8|8|8|8,3:0|3:0|3:0|3:0,0:0:0:0:
376,180,12459,2,0,L|370:226,3,35,4|4|4|4,3:0|3:0|3:0|3:0,0:0:0:0:
344,236,12774,1,4,3:0:0:0:
252,187,12931,6,0,P|185:171|124:202,1,140,4|0,0:0|0:0,0:0:0:0:
80,284,13402,1,8,0:0:0:0:
80,284,13559,1,0,0:0:0:0:
0,236,13716,2,0,L|2:146,1,70,0|0,1:2|0:0,0:0:0:0:
80,284,14030,2,0,L|77:373,1,70,8|0,0:0|0:0,0:0:0:0:
152,228,14344,6,0,L|196:244,3,35,8|8|8|8,3:0|3:0|3:0|3:0,0:0:0:0:
212,264,14658,2,0,L|244:252,3,35,8|8|8|8,3:0|3:0|3:0|3:0,0:0:0:0:
268,224,14973,1,4,1:3:0:0:
312,320,15130,1,8,3:0:0:0:
408,276,15287,1,8,3:0:0:0:
364,180,15444,6,0,P|340:120|364:64,1,125.999996154785,4|0,0:0|0:0,0:0:0:0:
296,8,15915,2,0,L|236:24,1,62.9999980773926,8|0,0:0|0:0,0:0:0:0:
160,72,16229,2,0,L|100:56,1,62.9999980773926,8|0,0:0|0:0,0:0:0:0:
76,140,16543,2,0,L|136:156,1,62.9999980773926,8|0,0:0|0:0,0:0:0:0:
200,220,16857,5,8,0:0:0:0:
200,220,17014,1,2,0:0:0:0:
280,179,17172,1,8,0:0:0:0:
280,179,17329,1,2,0:0:0:0:
343,242,17486,1,8,0:0:0:0:
343,242,17643,2,0,L|336:304,1,62.9999980773926,2|8,0:0|0:0,0:0:0:0:
424,316,17957,6,0,L|431:242,1,62.9999980773926,2|8,0:0|0:0,0:0:0:0:
456,168,18271,1,0,0:0:0:0:
456,168,18428,2,0,L|321:107,1,125.999996154785,8|8,0:0|0:0,0:0:0:0:
260,80,18899,1,0,0:0:0:0:
200,145,19056,2,0,L|200:216,1,62.9999980773926,8|0,0:0|0:0,0:0:0:0:
204,300,19370,6,0,P|262:279|320:299,1,125.999996154785,8|8,0:0|0:0,0:0:0:0:
384,364,19842,1,2,0:0:0:0:
448,300,19999,1,8,0:0:0:0:
511,364,20156,1,2,3:2:0:0:
511,370,20234,1,2,3:2:0:0:
511,376,20313,1,10,3:2:0:0:
448,300,20470,6,0,P|426:241|444:182,1,125.999996154785,2|0,0:0|0:0,0:0:0:0:
508,120,20941,1,8,0:0:0:0:
508,120,21098,1,0,0:0:0:0:
468,40,21255,2,0,L|392:56,1,62.9999980773926,8|0,0:0|0:0,0:0:0:0:
332,104,21569,2,0,L|270:91,1,62.9999980773926,8|0,0:0|0:0,0:0:0:0:
200,36,21884,5,8,0:0:0:0:
200,36,22041,1,2,0:0:0:0:
132,92,22198,2,0,L|144:164,1,62.9999980773926,8|2,0:0|0:0,0:0:0:0:
176,236,22512,2,0,P|145:243|114:238,2,62.9999980773926,8|2|8,0:0|0:0|0:0,0:0:0:0:
252,188,22983,1,2,0:0:0:0:
324,240,23140,6,0,L|316:328,1,62.9999980773926,8|0,0:0|0:0,0:0:0:0:
384,364,23454,1,8,0:0:0:0:
462,320,23611,2,0,L|496:328,2,31.4999990386963,2|2|2,3:2|3:2|3:2,0:0:0:0:
444,232,23925,2,0,L|476:218,2,31.4999990386963,2|2|2,3:2|3:2|3:2,0:0:0:0:
324,240,24240,6,0,B|304:172|344:120|344:120|276:140|220:92|220:92|200:128|224:200,1,367.500014019013,2|0,3:2|0:0,0:0:0:0:
172,296,25496,6,0,P|104:276|34:262,1,140,4|0,0:0|0:0,0:0:0:0:
16,172,25967,2,0,P|50:165|82:152,1,70,8|0,0:0|0:0,0:0:0:0:
136,80,26281,1,0,1:2:0:0:
136,80,26439,1,0,0:0:0:0:
220,116,26596,2,0,L|212:192,1,70,8|0,0:0|0:0,0:0:0:0:
276,252,26910,5,0,1:2:0:0:
276,252,27067,1,0,0:0:0:0:
209,315,27224,1,8,0:0:0:0:
209,315,27381,1,0,0:0:0:0:
272,381,27538,1,0,1:2:0:0:
272,381,27695,2,0,L|348:368,1,70,0|8,0:0|0:0,0:0:0:0:
209,315,28009,6,0,L|133:302,1,70,0|0,0:0|1:2,0:0:0:0:
48,292,28323,1,0,0:0:0:0:
48,292,28480,2,0,P|55:258|50:223,1,70,8|0,0:0|0:0,0:0:0:0:
4,144,28795,1,0,1:2:0:0:
4,144,28952,1,0,0:0:0:0:
65,74,29109,1,8,0:0:0:0:
65,74,29266,1,0,0:0:0:0:
149,111,29423,6,0,L|224:88,1,70,0|0,1:2|0:0,0:0:0:0:
244,176,29737,2,0,L|169:199,1,70,8|0,0:0|0:0,0:0:0:0:
206,282,30051,2,0,L|272:261,1,70,0|0,1:2|0:0,0:0:0:0:
301,347,30365,1,8,0:0:0:0:
301,347,30522,2,0,L|226:370,1,70,0|4,0:0|1:2,0:0:0:0:
144,384,30836,5,0,0:0:0:0:
100,303,30994,2,0,P|116:256|116:212,1,70,8|0,0:0|0:0,0:0:0:0:
100,148,31308,1,0,1:2:0:0:
100,148,31465,1,0,0:0:0:0:
188,172,31622,2,0,L|272:152,1,70,8|0,0:0|0:0,0:0:0:0:
320,88,31936,5,0,1:2:0:0:
320,88,32093,1,0,0:0:0:0:
387,151,32250,1,8,0:0:0:0:
387,151,32407,1,0,0:0:0:0:
454,214,32564,1,0,1:2:0:0:
454,214,32721,1,0,0:0:0:0:
390,281,32878,2,0,L|304:264,1,70,8|0,0:0|0:0,0:0:0:0:
224,248,33192,6,0,P|230:282|223:316,1,70,2|0,1:2|0:0,0:0:0:0:
140,276,33507,2,0,P|105:282|71:275,1,70,10|0,0:0|0:0,0:0:0:0:
112,191,33821,2,0,P|105:156|112:122,1,70,2|0,1:2|0:0,0:0:0:0:
196,163,34135,2,0,P|230:156|264:163,1,70,10|0,0:0|0:0,0:0:0:0:
241,265,34449,6,0,P|247:299|240:333,1,70,8|8,3:2|3:0,0:0:0:0:
156,292,34763,2,0,P|121:298|87:291,1,70,8|8,3:0|3:0,0:0:0:0:
128,207,35077,2,0,P|121:172|128:138,1,70,4|4,3:0|3:0,0:0:0:0:
212,179,35391,2,0,P|246:172|280:179,1,70,4|4,3:0|3:0,0:0:0:0:
364,236,35706,6,0,P|416:151|364:51,2,210.000008010865,4|2|2,3:2|0:0|0:0,0:0:0:0:
248,144,37276,1,2,0:0:0:0:
136,240,37590,2,0,P|144:284|152:368,1,105.000004005432,2|2,0:0|0:0,0:0:0:0:
52,304,38062,5,8,0:0:0:0:
52,304,38140,1,8,0:0:0:0:
52,304,38219,1,6,0:0:0:0:
132,128,38533,1,2,0:0:0:0:
308,208,38847,1,2,0:0:0:0:
228,384,39161,1,2,0:0:0:0:
180,256,39475,6,0,P|188:160|188:136,1,105.000004005432,2|2,0:0|0:0,0:0:0:0:
116,96,39946,2,0,L|174:51,1,52.5000020027161,8|2,0:0|0:0,0:0:0:0:
236,68,40261,2,0,L|280:126,1,52.5000020027161,8|2,0:0|0:0,0:0:0:0:
185,203,40575,5,0,0:0:0:0:
185,203,40653,1,0,0:0:0:0:
185,203,40732,2,0,P|152:196|76:188,1,105.000004005432,6|2,0:0|0:0,0:0:0:0:
68,272,41203,2,0,P|101:279|177:287,1,105.000004005432,0|0,0:0|0:0,0:0:0:0:
252,264,41674,2,0,L|268:320,1,52.5000020027161,2|0,0:0|0:0,0:0:0:0:
348,296,41988,6,0,P|352:243|362:192,1,105.000004005432,2|2,0:0|0:0,0:0:0:0:
446,205,42459,2,0,P|441:257|431:308,1,105.000004005432,0|0,0:0|0:0,0:0:0:0:
379,375,42931,1,2,0:0:0:0:
296,364,43088,5,8,0:0:0:0:
296,364,43166,1,8,0:0:0:0:
296,364,43245,2,0,P|244:353|192:349,1,105.000004005432,6|2,0:0|0:0,0:0:0:0:
276,176,43873,2,0,P|328:171|379:161,1,105.000004005432,2|2,0:0|0:0,0:0:0:0:
440,100,44344,1,0,0:0:0:0:
504,160,44501,6,0,L|500:228,1,52.5000020027161,2|8,0:0|0:0,0:0:0:0:
440,100,44816,2,0,L|444:32,1,52.5000020027161,2|8,0:0|0:0,0:0:0:0:
379,161,45130,2,0,L|375:229,1,52.5000020027161,2|8,0:0|3:0,0:0:0:0:
315,101,45444,2,0,L|316:66,3,26.2500010013581,8|8|8|8,3:0|3:0|3:0|3:0,0:0:0:0:
328,44,45758,6,0,P|272:70|213:53,1,125.999996154785,4|8,1:2|0:0,0:0:0:0:
136,8,46229,1,0,0:0:0:0:
64,60,46386,2,0,P|46:119|72:175,1,125.999996154785,0|8,1:0|0:0,0:0:0:0:
160,220,46857,5,0,1:0:0:0:
160,220,46936,1,0,1:0:0:0:
160,220,47014,2,0,L|168:144,1,62.9999980773926,0|0,1:2|0:0,0:0:0:0:
248,196,47329,2,0,L|254:258,1,62.9999980773926,8|0,0:0|0:0,0:0:0:0:
336,220,47643,2,0,P|360:180|340:100,1,125.999996154785,0|8,1:0|0:0,0:0:0:0:
304,27,48114,5,0,1:0:0:0:
304,27,48192,1,0,1:0:0:0:
304,27,48271,2,0,L|436:15,1,125.999996154785,0|8,1:2|0:0,0:0:0:0:
492,80,48742,1,0,0:0:0:0:
450,159,48899,2,0,P|440:196|448:232,1,62.9999980773926,0|0,1:0|0:0,0:0:0:0:
504,284,49213,1,8,0:0:0:0:
439,344,49370,5,0,1:0:0:0:
439,344,49449,1,0,1:0:0:0:
439,344,49528,2,0,L|368:332,1,62.9999980773926,0|0,1:2|0:0,0:0:0:0:
320,264,49842,2,0,L|252:289,1,62.9999980773926,8|0,0:0|0:0,0:0:0:0:
204,356,50156,2,0,L|78:334,1,125.999996154785,0|8,1:0|0:0,0:0:0:0:
12,276,50627,5,0,1:0:0:0:
12,276,50706,1,0,1:0:0:0:
12,276,50784,2,0,P|29:216|4:160,1,125.999996154785,4|0,1:2|0:0,0:0:0:0:
92,112,51255,2,0,P|134:157|195:163,1,125.999996154785,4|0,1:2|0:0,0:0:0:0:
288,124,51727,2,0,L|278:40,1,62.9999980773926,4|0,1:2|0:0,0:0:0:0:
388,88,52041,6,0,L|403:234,1,125.999996154785,4|0,1:2|0:0,0:0:0:0:
340,292,52512,2,0,L|205:232,1,125.999996154785,4|0,1:2|0:0,0:0:0:0:
187,148,52983,2,0,L|246:104,1,62.9999980773926,4|0,1:2|0:0,0:0:0:0:
140,28,53297,5,8,3:0:0:0:
256,192,53376,12,0,54397,1:0:0:0:
241,122,55661,6,0,P|285:130|385:142,1,140,4|0,1:2|0:0,0:0:0:0:
344,227,56132,2,0,P|326:258|314:291,1,70,8|0,0:0|0:0,0:0:0:0:
224,280,56446,2,0,P|208:248|199:214,1,70,0|0,1:2|0:0,0:0:0:0:
116,176,56760,2,0,P|98:206|86:239,1,70,8|0,0:0|0:0,0:0:0:0:
16,180,57074,6,0,L|8:19,1,140,0|8,1:2|0:0,0:0:0:0:
109,36,57545,2,0,L|116:176,1,140,0|0,0:0|0:0,0:0:0:0:
188,232,58017,1,8,0:0:0:0:
140,312,58174,5,0,0:0:0:0:
140,312,58252,1,0,0:0:0:0:
140,312,58331,2,0,P|100:308|56:308,1,70,0|0,1:2|0:0,0:0:0:0:
188,232,58645,2,0,P|228:236|272:236,1,70,8|0,0:0|0:0,0:0:0:0:
336,188,58959,1,0,1:2:0:0:
400,256,59116,2,0,P|388:316|384:348,1,70,0|8,0:0|0:0,0:0:0:0:
257,236,59430,5,0,0:0:0:0:
257,236,59509,1,0,0:0:0:0:
257,236,59587,2,0,P|251:201|243:167,1,70,0|0,1:2|0:0,0:0:0:0:
256,76,59901,2,0,P|288:88|322:98,1,70,8|0,0:0|0:0,0:0:0:0:
395,155,60215,2,0,P|372:184|388:292,1,140,0|8,1:2|0:0,0:0:0:0:
328,360,60687,5,8,0:0:0:0:
328,360,60765,1,8,0:0:0:0:
328,360,60844,2,0,L|256:348,1,70,4|0,1:2|0:0,0:0:0:0:
192,284,61158,2,0,L|122:295,1,70,8|0,0:0|0:0,0:0:0:0:
72,216,61472,2,0,P|95:173|190:155,1,140,0|8,1:2|0:0,0:0:0:0:
264,184,61943,1,0,0:0:0:0:
336,128,62100,6,0,L|324:56,1,70,0|0,1:2|0:0,0:0:0:0:
264,184,62414,2,0,L|276:256,1,70,8|0,0:0|0:0,0:0:0:0:
360,292,62729,1,0,1:2:0:0:
321,376,62886,1,0,0:0:0:0:
236,337,63043,1,8,0:0:0:0:
360,292,63200,6,0,L|448:304,1,70,4|0,1:2|0:0,0:0:0:0:
320,204,63514,2,0,L|232:192,1,70,4|0,1:2|0:0,0:0:0:0:
384,136,63828,2,0,L|472:148,1,70,0|0,3:0|3:0,0:0:0:0:
344,48,64142,2,0,L|256:36,1,70,0|0,3:0|3:0,0:0:0:0:
176,96,64456,5,2,1:2:0:0:
384,136,64770,1,2,1:2:0:0:
344,344,65085,1,2,1:2:0:0:
136,304,65399,1,2,1:2:0:0:
176,96,65713,6,0,L|332:80,1,157.500006008148,4|0,1:2|0:0,0:0:0:0:
312,260,66498,2,0,P|260:255|208:280,1,105.000004005432,2|2,0:0|0:0,0:0:0:0:
280,372,66969,1,2,0:0:0:0:
280,372,67284,2,0,P|327:351|379:355,1,105.000004005432,2|0,0:0|0:0,0:0:0:0:
468,384,67755,1,2,0:0:0:0:
500,296,67912,2,0,L|516:232,1,52.5000020027161,2|0,0:0|0:0,0:0:0:0:
420,248,68226,2,0,L|404:184,1,52.5000020027161,6|0,0:0|0:0,0:0:0:0:
420,103,68540,5,2,0:0:0:0:
316,287,68854,1,2,0:0:0:0:
132,184,69168,1,2,0:0:0:0:
236,0,69482,2,0,P|240:40|256:120,1,105.000004005432,2|8,0:0|3:0,0:0:0:0:
300,188,69954,6,0,L|274:195,3,26.2500010013581,8|8|8|8,3:0|3:0|3:0|3:0,0:0:0:0:
248,216,70268,2,0,L|222:209,3,26.2500010013581,8|8|8|8,3:0|3:0|3:0|3:0,0:0:0:0:
188,215,70582,2,0,L|169:196,3,26.2500010013581,8|8|8|8,3:0|3:0|3:0|3:0,0:0:0:0:
144,172,70896,6,0,P|159:239|130:301,1,140,4|0,1:2|0:0,0:0:0:0:
36,288,71367,2,0,P|20:220|49:158,1,140,4|0,1:2|0:0,0:0:0:0:
144,172,71839,6,0,L|300:208,1,140,4|0,1:2|0:0,0:0:0:0:
304,108,72310,2,0,L|148:72,1,140,4|0,1:2|0:0,0:0:0:0:
92,12,72781,5,4,1:2:0:0:
92,12,72938,1,0,0:0:0:0:
27,87,73095,1,4,1:2:0:0:
27,87,73252,1,0,0:0:0:0:
102,151,73409,6,0,L|92:200,3,35,0|0|0|0,3:0|3:0|3:0|3:0,0:0:0:0:
76,216,73723,2,0,L|82:250,3,35,0|0|0|0,3:0|3:0|3:0|3:0,0:0:0:0:
108,276,74037,2,0,L|101:310,3,35,0|0|0|0,3:0|3:0|3:0|3:0,0:0:0:0:
72,336,74352,1,0,3:0:0:0:
159,384,74509,6,0,P|191:368|224:358,1,70,0|8,3:0|3:0,0:0:0:0:
264,268,74823,2,0,P|230:258|199:242,1,70,8|8,3:0|3:0,0:0:0:0:
152,156,75137,1,8,3:0:0:0:
65,203,75294,1,4,3:0:0:0:
17,116,75451,1,4,3:0:0:0:
103,68,75608,1,4,3:0:0:0:
65,203,75765,6,0,P|84:260|100:348,1,140,4|0,1:2|0:0,0:0:0:0:
192,352,76236,2,0,P|196:317|207:284,1,70,8|0,0:0|0:0,0:0:0:0:
272,220,76551,1,0,1:2:0:0:
272,220,76708,1,0,0:0:0:0:
244,132,76865,2,0,L|168:144,1,70,8|0,0:0|0:0,0:0:0:0:
272,220,77179,6,0,L|424:244,1,140,0|8,1:2|0:0,0:0:0:0:
395,333,77650,1,0,0:0:0:0:
395,333,77807,2,0,L|243:309,1,140,0|8,1:2|0:0,0:0:0:0:
160,316,78278,6,0,P|182:251|153:189,1,140,4|0,1:2|0:0,0:0:0:0:
204,112,78750,2,0,L|284:96,1,70,8|0,0:0|0:0,0:0:0:0:
340,32,79064,1,0,1:2:0:0:
340,32,79221,1,0,0:0:0:0:
416,84,79378,2,0,L|404:168,1,70,8|0,0:0|0:0,0:0:0:0:
404,244,79692,6,0,L|260:208,1,140,0|8,1:2|0:0,0:0:0:0:
248,300,80163,1,0,0:0:0:0:
248,300,80320,2,0,L|392:336,1,140,0|8,1:2|0:0,0:0:0:0:
468,380,80791,6,0,P|507:324|493:257,1,140,4|0,1:2|0:0,0:0:0:0:
440,184,81263,2,0,L|364:212,1,70,8|0,0:0|0:0,0:0:0:0:
296,160,81577,1,0,1:2:0:0:
296,160,81734,1,0,0:0:0:0:
224,216,81891,2,0,L|236:296,1,70,8|0,0:0|0:0,0:0:0:0:
176,360,82205,6,0,L|124:344,3,35,8|8|8|8,3:0|3:0|3:0|3:0,0:0:0:0:
112,332,82519,2,0,L|78:342,3,35,4|4|4|4,3:0|3:0|3:0|3:0,0:0:0:0:
56,368,82833,2,0,L|4:352,3,35,4|4|4|4,3:0|3:0|3:0|3:0,0:0:0:0:
0,332,83147,1,4,3:0:0:0:
56,248,83304,6,0,P|75:182|46:119,1,140,4|0,1:2|0:0,0:0:0:0:
92,40,83776,1,8,0:0:0:0:
92,40,83933,1,0,0:0:0:0:
176,80,84090,2,0,L|248:64,1,70,0|0,1:2|0:0,0:0:0:0:
268,152,84404,2,0,L|196:168,1,70,8|0,0:0|0:0,0:0:0:0:
160,252,84718,5,0,1:2:0:0:
160,252,84875,1,0,0:0:0:0:
228,316,85032,2,0,L|300:300,1,70,8|0,0:0|0:0,0:0:0:0:
360,232,85346,1,0,1:2:0:0:
445,271,85503,1,0,0:0:0:0:
433,364,85660,2,0,L|352:372,1,70,8|0,0:0|0:0,0:0:0:0:
296,300,85975,6,0,L|256:288,3,35,8|8|8|8,3:0|3:0|3:0|3:0,0:0:0:0:
240,264,86289,2,0,L|202:283,3,35,4|4|4|4,3:0|3:0|3:0|3:0,0:0:0:0:
188,308,86603,2,0,L|147:295,3,35,4|4|4|4,3:0|3:0|3:0|3:0,0:0:0:0:
131,271,86917,2,0,L|93:290,3,35,4|4|4|4,3:0|3:0|3:0|3:0,0:0:0:0:
76,312,87231,6,0,P|92:268|36:172,1,140,4|0,3:0|0:0,0:0:0:0:
200,52,87859,1,0,0:0:0:0:
200,52,88016,2,0,L|293:69,1,70
255,157,88331,2,0,L|162:140,1,70,0|0,1:0|0:0,0:0:0:0:
