osu file format v14

[General]
AudioFilename: audio.mp3
AudioLeadIn: 0
PreviewTime: 55574
Countdown: 0
SampleSet: Soft
StackLeniency: 0.7
Mode: 0
LetterboxInBreaks: 0
WidescreenStoryboard: 1

[Editor]
DistanceSpacing: 0.9
BeatDivisor: 4
GridSize: 4
TimelineZoom: 1

[Metadata]
Title:ADAMAS (TV Size)
TitleUnicode:ADAMAS (TV Size)
Artist:LiSA
ArtistUnicode:LiSA
Creator:Doormat
Version:Easy
Source:ソードアート・オンライン アリシゼーション
Tags:Kibbleru Monstrata Kyle73 StarrStyx sword art online sao alicization season three 3 kirito asuna eugeo alice opening 織部里沙 oribe risa
BeatmapID:1796222
BeatmapSetID:859608

[Difficulty]
HPDrainRate:3
CircleSize:3
OverallDifficulty:3
ApproachRate:3.5
SliderMultiplier:0.999999999999999
SliderTickRate:1

[Events]
//Background and Video events
0,0,"sao alice.jpg",0,0
Video,-40,"sao-a op.avi"
//Break Periods
//Storyboard Layer 0 (Background)
//Storyboard Layer 1 (Fail)
//Storyboard Layer 2 (Pass)
//Storyboard Layer 3 (Foreground)
//Storyboard Sound Samples

[TimingPoints]
537,314.13612565445,4,2,1,40,1,0
5392,314.13612565445,4,2,1,70,1,0
5392,-100,4,2,1,70,0,0
5549,314.13612565445,4,2,1,70,1,0
5549,-100,4,2,1,70,0,0
15444,-100,4,2,1,60,0,0
23454,-100,4,2,1,60,0,0
24240,-100,4,2,1,40,0,0
25496,-100,4,2,1,70,0,0
35706,-100,4,2,1,50,0,0
45758,-100,4,2,1,70,0,0
50784,-100,4,2,1,80,0,0
55661,314.13612565445,4,2,1,90,1,1
55661,-100,4,2,1,90,0,1
55818,314.13612565445,4,2,1,90,1,1
55818,-100,4,2,1,90,0,1
64456,-100,4,2,1,70,0,1
65713,-100,4,2,1,70,0,0
70896,-100,4,2,1,80,0,0
75765,-100,4,2,1,90,0,1
83304,-100,4,2,1,90,0,0
87545,-100,4,2,1,80,0,0
88173,-100,4,2,1,5,0,0
88331,-100,4,2,1,80,0,0

[Colours]
Combo1 : 45,100,180
Combo2 : 250,230,0
Combo3 : 150,185,230
Combo4 : 240,200,20

[HitObjects]
176,164,537,6,0,P|239:127|310:143,1,150,2|2,0:0|0:0,0:0:0:0:
324,275,1479,2,0,P|260:311|189:295,1,150,2|2,0:0|0:0,0:0:0:0:
176,164,2421,1,2,0:0:0:0:
104,108,2735,1,2,0:0:0:0:
48,179,3050,6,0,P|64:252|77:326,1,150,2|2,0:0|0:0,0:0:0:0:
212,328,3992,2,0,P|224:254|241:180,2,150,2|2|0,0:0|0:0|0:0,0:0:0:0:
348,312,5392,6,0,L|508:284,1,150,6|10,0:0|0:0,0:0:0:0:
504,196,6177,2,0,L|400:176,1,99.9999999999999,2|10,1:2|0:0,0:0:0:0:
336,120,6805,1,2,1:2:0:0:
272,180,7119,1,10,0:0:0:0:
196,132,7433,2,0,L|188:68,1,50,2|2,1:2|0:0,0:0:0:0:
100,60,7905,6,0,L|80:212,1,150,2|10,0:0|0:0,0:0:0:0:
8,260,8690,1,2,1:2:0:0:
59,332,9004,1,10,0:0:0:0:
131,280,9318,2,0,P|172:264|232:284,1,99.9999999999999,2|10,1:2|0:0,0:0:0:0:
304,320,9946,2,0,L|316:260,1,50,10|10,3:0|3:0,0:0:0:0:
396,232,10418,6,0,L|412:384,1,150,6|10,0:0|0:0,0:0:0:0:
496,344,11203,2,0,L|483:228,1,99.9999999999999,2|10,1:2|0:0,0:0:0:0:
512,160,11831,1,2,1:2:0:0:
452,94,12145,1,8,3:0:0:0:
365,113,12459,2,0,L|356:176,1,50,4|4,3:0|3:0,0:0:0:0:
312,240,12931,6,0,P|255:213|236:127,1,150,4|8,0:0|0:0,0:0:0:0:
256,48,13716,1,0,1:2:0:0:
180,1,14030,1,8,0:0:0:0:
111,58,14344,2,0,L|0:48,1,99.9999999999999,8|8,3:0|3:0,0:0:0:0:
0,140,14973,1,4,1:3:0:0:
76,192,15287,2,0,L|131:187,1,50,8|4,3:0|0:0,0:0:0:0:
204,76,15915,5,8,0:0:0:0:
280,120,16229,2,0,L|268:224,1,99.9999999999999,8|8,0:0|0:0,0:0:0:0:
208,284,16857,1,8,0:0:0:0:
250,361,17172,1,8,0:0:0:0:
336,344,17486,2,0,P|385:291|369:220,1,150,8|2,0:0|0:0,0:0:0:0:
280,120,18428,5,8,0:0:0:0:
208,176,18742,2,0,L|108:156,1,99.9999999999999,8|8,0:0|0:0,0:0:0:0:
96,244,19370,2,0,L|196:264,1,99.9999999999999,8|8,0:0|0:0,0:0:0:0:
184,352,19999,2,0,L|34:322,1,150,8|2,0:0|0:0,0:0:0:0:
20,184,20941,5,8,0:0:0:0:
76,116,21255,2,0,L|184:136,1,99.9999999999999,8|8,0:0|0:0,0:0:0:0:
236,200,21884,1,8,0:0:0:0:
323,179,22198,1,8,0:0:0:0:
348,92,22512,2,0,P|320:32|236:20,1,150,8|2,0:0|0:0,0:0:0:0:
124,80,23454,5,8,0:0:0:0:
192,140,23768,2,0,L|176:308,1,150,2|2,3:2|3:2,0:0:0:0:
108,348,24554,1,0,0:0:0:0:
28,308,24868,2,0,P|-8:252|52:132,1,200,0|4,0:0|0:0,0:0:0:0:
168,96,25967,5,8,0:0:0:0:
220,168,26281,2,0,L|336:152,1,99.9999999999999,0|8,1:2|0:0,0:0:0:0:
384,92,26910,1,0,1:2:0:0:
470,117,27224,1,8,0:0:0:0:
491,204,27538,2,0,P|476:240|452:348,1,150,0|0,1:2|0:0,0:0:0:0:
328,288,28480,5,8,0:0:0:0:
260,344,28795,2,0,L|152:320,1,99.9999999999999,0|8,1:2|0:0,0:0:0:0:
80,356,29423,1,0,1:2:0:0:
22,288,29737,1,8,0:0:0:0:
68,211,30051,2,0,B|37:115|37:115|88:31,1,200,0|4,1:2|1:2,0:0:0:0:
176,4,30994,5,8,0:0:0:0:
256,48,31308,1,0,1:2:0:0:
212,127,31622,1,8,0:0:0:0:
292,171,31936,2,0,L|400:152,1,99.9999999999999,0|8,1:2|0:0,0:0:0:0:
408,244,32564,2,0,L|300:263,1,99.9999999999999,0|8,1:2|0:0,0:0:0:0:
220,240,33192,5,2,1:2:0:0:
198,329,33507,1,10,0:0:0:0:
108,307,33821,2,0,L|104:204,1,99.9999999999999,2|10,1:2|0:0,0:0:0:0:
36,148,34449,1,8,3:2:0:0:
95,79,34763,1,8,3:0:0:0:
163,138,35077,2,0,L|272:116,1,99.9999999999999,4|4,3:0|3:0,0:0:0:0:
312,44,35706,6,0,P|372:119|350:213,1,200,4|2,3:2|0:0,0:0:0:0:
280,268,36648,1,2,0:0:0:0:
212,208,36962,2,0,P|117:185|42:246,1,200,2|2,0:0|0:0,0:0:0:0:
4,328,37905,1,2,0:0:0:0:
84,368,38219,6,0,B|168:324|168:324|268:372|268:372|354:318,1,300,6|2,0:0|0:0,0:0:0:0:
304,244,39475,2,0,P|291:195|299:146,1,99.9999999999999,2|2,0:0|0:0,0:0:0:0:
212,128,40103,2,0,P|198:175|167:214,1,99.9999999999999,2|2,0:0|0:0,0:0:0:0:
80,244,40732,6,0,P|16:171|38:78,1,200,6|2,0:0|0:0,0:0:0:0:
100,16,41674,1,2,0:0:0:0:
152,87,41988,2,0,P|241:124|322:72,1,200,2|2,0:0|0:0,0:0:0:0:
376,0,42931,1,2,0:0:0:0:
456,43,43245,6,0,B|484:144|484:144|428:232|428:232|456:344,1,300,6|2,0:0|0:0,0:0:0:0:
380,376,44501,1,2,0:0:0:0:
306,326,44816,1,2,0:0:0:0:
235,380,45130,2,0,L|132:360,1,99.9999999999999,2|8,0:0|3:0,0:0:0:0:
80,291,45758,6,0,P|104:248|112:199,1,99.9999999999999,4|8,1:2|0:0,0:0:0:0:
200,180,46386,2,0,P|225:222|263:254,1,99.9999999999999,0|8,1:0|0:0,0:0:0:0:
340,204,47014,1,0,1:2:0:0:
411,260,47329,1,8,0:0:0:0:
487,209,47643,2,0,L|476:100,1,99.9999999999999,0|8,1:0|0:0,0:0:0:0:
416,44,48271,6,0,P|334:95|242:63,1,200,0|0,1:2|1:0,0:0:0:0:
176,4,49213,1,8,0:0:0:0:
116,72,49528,2,0,L|16:56,1,99.9999999999999,0|8,1:2|0:0,0:0:0:0:
4,144,50156,2,0,L|104:160,1,99.9999999999999,0|8,1:0|0:0,0:0:0:0:
172,220,50784,6,0,P|134:282|157:350,2,150,4|4|4,1:2|1:2|1:2,0:0:0:0:
252,176,52041,2,0,P|289:113|266:45,2,150,4|4|4,1:2|1:2|1:2,0:0:0:0:
256,192,53297,12,0,54397,1:0:0:0:
80,144,55661,6,0,L|244:128,1,150,4|8,1:2|0:0,0:0:0:0:
308,176,56446,1,0,1:2:0:0:
352,100,56760,1,8,0:0:0:0:
428,148,57074,2,0,P|474:232|436:321,1,200,0|0,1:2|1:2,0:0:0:0:
356,280,58016,1,8,0:0:0:0:
308,356,58331,6,0,L|200:344,1,99.9999999999999,0|8,1:2|0:0,0:0:0:0:
120,350,58959,2,0,L|139:151,1,200,0|0,1:2|1:2,0:0:0:0:
95,72,59901,1,8,0:0:0:0:
156,6,60215,1,0,1:2:0:0:
237,44,60530,1,8,0:0:0:0:
225,133,60844,6,0,P|223:172|250:237,1,99.9999999999999,4|8,1:2|0:0,0:0:0:0:
324,268,61472,2,0,P|384:224|380:96,1,200,0|0,1:2|1:2,0:0:0:0:
332,36,62414,1,8,0:0:0:0:
252,76,62728,2,0,L|96:48,1,150,0|4,1:2|1:2,0:0:0:0:
28,100,63514,5,4,1:2:0:0:
52,188,63828,1,0,3:0:0:0:
76,276,64142,1,0,3:0:0:0:
100,364,64456,2,0,L|204:384,1,99.9999999999999,2|2,1:2|1:2,0:0:0:0:
252,308,65085,2,0,L|350:289,1,99.9999999999999,2|2,1:2|1:2,0:0:0:0:
400,216,65713,6,0,P|345:166|272:167,1,150,4|0,1:2|0:0,0:0:0:0:
192,208,66498,2,0,P|137:257|64:256,1,150,2|2,0:0|0:0,0:0:0:0:
16,180,67283,2,0,P|81:109|177:122,1,200,2|2,0:0|0:0,0:0:0:0:
256,76,68226,1,6,0:0:0:0:
332,124,68540,6,0,L|342:223,1,99.9999999999999,2|2,0:0|0:0,0:0:0:0:
432,240,69168,1,2,0:0:0:0:
496,180,69482,2,0,P|520:116|476:32,1,150,2|8,0:0|3:0,0:0:0:0:
408,4,70268,1,8,3:0:0:0:
352,72,70582,2,0,L|248:52,1,99.9999999999999,8|4,3:0|1:2,0:0:0:0:
176,8,71210,5,0,0:0:0:0:
100,56,71524,2,0,P|112:116|124:208,1,150,0|0,0:0|0:0,0:0:0:0:
200,252,72310,2,0,P|217:178|238:107,1,150,4|4,1:2|1:2,0:0:0:0:
300,40,73095,1,4,1:2:0:0:
364,104,73409,6,0,L|464:84,1,99.9999999999999,0|0,3:0|3:0,0:0:0:0:
484,172,74037,2,0,L|331:202,1,150,0|0,3:0|3:0,0:0:0:0:
272,136,74823,2,0,L|124:106,1,150,8|4,3:0|3:0,0:0:0:0:
12,176,75765,6,0,P|28:236|48:344,1,150,4|8,1:2|0:0,0:0:0:0:
132,336,76550,2,0,P|144:280|164:228,1,99.9999999999999,0|8,1:2|0:0,0:0:0:0:
228,184,77179,2,0,P|211:136|201:87,1,99.9999999999999,0|8,1:2|0:0,0:0:0:0:
236,4,77807,1,0,1:2:0:0:
352,72,78278,6,0,L|504:36,1,150,4|8,1:2|0:0,0:0:0:0:
504,127,79064,2,0,P|488:175|480:224,1,99.9999999999999,0|8,1:2|0:0,0:0:0:0:
396,256,79692,2,0,P|362:218|324:187,1,99.9999999999999,0|8,1:2|0:0,0:0:0:0:
336,100,80320,1,0,1:2:0:0:
220,32,80791,6,0,P|168:48|72:56,1,150,4|8,1:2|0:0,0:0:0:0:
36,140,81577,2,0,P|72:176|96:224,1,99.9999999999999,0|8,1:2|0:0,0:0:0:0:
184,232,82205,2,0,P|232:152|344:140,1,200,8|4,3:0|3:0,0:0:0:0:
452,192,83304,6,0,P|440:268|433:340,1,150,4|8,1:2|0:0,0:0:0:0:
352,384,84090,1,0,1:2:0:0:
285,319,84404,1,8,0:0:0:0:
203,362,84718,2,0,L|88:336,1,99.9999999999999,0|8,1:2|0:0,0:0:0:0:
148,260,85346,2,0,L|260:225,1,99.9999999999999,0|8,1:2|0:0,0:0:0:0:
296,156,85975,5,8,3:0:0:0:
370,208,86289,1,4,3:0:0:0:
422,133,86603,2,0,L|408:32,1,99.9999999999999,4|4,3:0|3:0,0:0:0:0:
320,28,87231,2,0,B|272:60|224:28|224:28|184:0|120:28,1,200,4|0,3:0|0:0,0:0:0:0:
172,152,88331,1,0,1:0:0:0:
