osu file format v14

[General]
AudioFilename: audio.mp3
AudioLeadIn: 0
PreviewTime: 55575
Countdown: 0
SampleSet: Normal
StackLeniency: 0.7
Mode: 1
LetterboxInBreaks: 0
WidescreenStoryboard: 1

[Editor]
DistanceSpacing: 0.5
BeatDivisor: 4
GridSize: 32
TimelineZoom: 1.1

[Metadata]
Title:ADAMAS (TV Size)
TitleUnicode:ADAMAS (TV Size)
Artist:LiSA
ArtistUnicode:LiSA
Creator:-Sh1n1-
Version:VOLTA'S FUTSUU ONLINE
Source:ソードアート・オンライン アリシゼーション
Tags:shini sword art online sao alicization season three 3 kirito asuna eugeo alice opening op1 nardoxyribonucleic qoot8123 tasuke912 judydanny volta flying_pan faputa juda anime japanese
BeatmapID:1837006
BeatmapSetID:869726

[Difficulty]
HPDrainRate:7
CircleSize:2
OverallDifficulty:4
ApproachRate:5
SliderMultiplier:1.4
SliderTickRate:1

[Events]
//Background and Video events
0,0,"SwordBG.jpg",0,100
//Break Periods
//Storyboard Layer 0 (Background)
//Storyboard Layer 1 (Fail)
//Storyboard Layer 2 (Pass)
//Storyboard Layer 3 (Foreground)
//Storyboard Layer 4 (Overlay)
//Storyboard Sound Samples

[TimingPoints]
537,314.13612565445,4,1,0,65,1,0
5392,314.13612565445,4,1,0,80,1,8
5549,314.13612565445,4,1,0,80,1,0
55661,314.13612565445,4,1,0,90,1,9
55661,-100,4,1,0,90,0,1
55818,314.13612565445,4,1,0,90,1,1
75765,-100,4,1,0,80,0,0

[HitObjects]
225,109,537,5,2,0:0:0:0:
225,109,1008,1,2,0:0:0:0:
225,109,1479,1,2,0:0:0:0:
225,109,1950,1,2,0:0:0:0:
225,109,2421,1,2,0:0:0:0:
225,109,3050,1,2,0:0:0:0:
225,109,3521,1,2,0:0:0:0:
225,109,3992,1,2,0:0:0:0:
225,109,4463,1,2,0:0:0:0:
249,102,5392,5,4,0:0:0:0:
332,119,5863,1,8,0:0:0:0:
332,119,6177,1,2,0:0:0:0:
296,174,6805,1,0,0:0:0:0:
138,114,7119,1,8,0:0:0:0:
410,113,7433,1,8,0:0:0:0:
138,114,7590,1,2,0:0:0:0:
332,119,7905,5,4,0:0:0:0:
270,146,8376,1,8,0:0:0:0:
270,146,8690,1,2,0:0:0:0:
270,146,9318,1,8,0:0:0:0:
312,190,9632,1,2,0:0:0:0:
270,146,9946,1,0,0:0:0:0:
270,146,10103,1,2,0:0:0:0:
121,182,10418,5,4,0:0:0:0:
166,138,10889,1,8,0:0:0:0:
166,138,11203,1,2,0:0:0:0:
215,98,11831,1,0,0:0:0:0:
215,98,12145,1,8,0:0:0:0:
215,98,12459,1,8,0:0:0:0:
195,159,12617,1,2,0:0:0:0:
296,200,12931,5,4,0:0:0:0:
388,181,13402,1,8,0:0:0:0:
388,181,13716,1,2,0:0:0:0:
388,181,14344,1,8,0:0:0:0:
388,181,14658,1,2,0:0:0:0:
388,181,14973,1,0,0:0:0:0:
388,181,15130,1,0,0:0:0:0:
388,181,15287,1,8,0:0:0:0:
386,160,15915,5,8,0:0:0:0:
113,131,16543,1,8,0:0:0:0:
113,131,17172,1,2,0:0:0:0:
113,131,17486,1,2,0:0:0:0:
113,131,17800,1,2,0:0:0:0:
38,106,18114,5,8,0:0:0:0:
46,106,18742,1,8,0:0:0:0:
46,106,19370,1,2,0:0:0:0:
46,106,19685,1,2,0:0:0:0:
46,106,19999,1,0,0:0:0:0:
46,106,20313,1,0,0:0:0:0:
46,106,20627,5,8,0:0:0:0:
46,106,21255,1,8,0:0:0:0:
46,106,21884,1,2,0:0:0:0:
46,106,22198,1,2,0:0:0:0:
46,106,22512,1,2,0:0:0:0:
46,106,22826,1,8,0:0:0:0:
79,155,23140,1,0,0:0:0:0:
38,161,23454,1,8,0:0:0:0:
38,161,23611,1,0,0:0:0:0:
79,155,23768,1,0,0:0:0:0:
46,106,24240,1,2,0:0:0:0:
54,106,25497,5,4,0:0:0:0:
55,156,25967,1,8,0:0:0:0:
232,161,26281,1,0,0:0:0:0:
232,161,26439,1,0,0:0:0:0:
232,161,26596,1,8,0:0:0:0:
232,161,26910,1,0,0:0:0:0:
232,161,27224,1,8,0:0:0:0:
232,161,27538,1,0,0:0:0:0:
232,161,28166,5,0,0:0:0:0:
171,95,28480,1,8,0:0:0:0:
242,98,28795,1,8,0:0:0:0:
242,98,28952,1,0,0:0:0:0:
242,98,29109,1,8,0:0:0:0:
118,118,29423,1,0,0:0:0:0:
118,118,29737,1,8,0:0:0:0:
118,118,30051,1,0,0:0:0:0:
205,95,30679,5,4,0:0:0:0:
85,152,30993,1,8,0:0:0:0:
45,157,31150,1,8,0:0:0:0:
85,152,31308,1,0,0:0:0:0:
85,152,31622,1,8,0:0:0:0:
137,120,31936,1,0,0:0:0:0:
85,152,32093,1,8,0:0:0:0:
85,152,32250,1,2,0:0:0:0:
85,152,32564,1,0,0:0:0:0:
163,120,32878,1,8,0:0:0:0:
166,100,33192,5,0,0:0:0:0:
166,137,33821,1,0,0:0:0:0:
166,137,34135,1,8,0:0:0:0:
166,100,34449,1,2,0:0:0:0:
188,140,34764,1,0,0:0:0:0:
188,140,34920,1,0,0:0:0:0:
264,128,35078,1,0,0:0:0:0:
271,125,35391,1,8,0:0:0:0:
253,174,35706,5,4,0:0:0:0:
253,174,36334,1,0,0:0:0:0:
253,174,36962,1,0,0:0:0:0:
253,174,37276,1,0,0:0:0:0:
253,174,37590,1,0,0:0:0:0:
253,174,37905,1,2,0:0:0:0:
253,174,38219,5,0,0:0:0:0:
236,149,38847,1,0,0:0:0:0:
236,149,39475,1,0,0:0:0:0:
236,149,39789,1,0,0:0:0:0:
236,149,40103,1,8,0:0:0:0:
165,155,40261,1,0,0:0:0:0:
236,149,40418,1,2,0:0:0:0:
236,149,40732,5,0,0:0:0:0:
236,149,41360,1,0,0:0:0:0:
236,149,41988,1,0,0:0:0:0:
190,126,42302,1,0,0:0:0:0:
236,149,42617,1,8,0:0:0:0:
236,149,42931,1,2,0:0:0:0:
236,149,43245,5,0,0:0:0:0:
236,149,43873,1,0,0:0:0:0:
236,149,44501,1,2,0:0:0:0:
236,149,44816,1,0,0:0:0:0:
236,149,45130,1,8,0:0:0:0:
87,146,45287,1,8,0:0:0:0:
236,149,45444,1,2,0:0:0:0:
236,149,45758,5,4,0:0:0:0:
236,149,46386,1,0,0:0:0:0:
97,138,46700,1,8,0:0:0:0:
97,138,47014,1,0,0:0:0:0:
97,138,47329,1,8,0:0:0:0:
97,138,47486,1,0,0:0:0:0:
97,138,47643,1,8,0:0:0:0:
97,138,47957,1,2,0:0:0:0:
145,140,48271,1,0,0:0:0:0:
193,125,48899,5,0,0:0:0:0:
193,125,49213,1,8,0:0:0:0:
193,125,49528,1,0,0:0:0:0:
163,128,49685,1,0,0:0:0:0:
163,128,49842,1,8,0:0:0:0:
179,129,50156,1,0,0:0:0:0:
179,129,50470,1,0,0:0:0:0:
230,118,50784,5,2,0:0:0:0:
230,118,51255,1,2,0:0:0:0:
230,118,51727,1,2,0:0:0:0:
230,118,52041,1,2,0:0:0:0:
230,118,52355,1,0,0:0:0:0:
36,148,52512,1,2,0:0:0:0:
36,148,52669,1,0,0:0:0:0:
230,118,52983,1,0,0:0:0:0:
230,118,53297,1,8,0:0:0:0:
230,118,53768,1,8,0:0:0:0:
230,118,54240,1,0,0:0:0:0:
230,118,54397,1,0,0:0:0:0:
134,141,55661,5,14,0:0:0:0:
18,144,56132,1,8,0:0:0:0:
198,180,56446,1,0,0:0:0:0:
190,102,56603,1,0,0:0:0:0:
232,145,56760,1,8,0:0:0:0:
190,102,57074,1,2,0:0:0:0:
154,97,57388,1,8,0:0:0:0:
178,153,57545,1,0,0:0:0:0:
98,174,58016,1,8,0:0:0:0:
98,174,58331,1,0,0:0:0:0:
150,182,58488,1,0,0:0:0:0:
261,149,58645,1,8,0:0:0:0:
261,149,58959,1,0,0:0:0:0:
237,135,59587,1,0,0:0:0:0:
237,135,59901,1,8,0:0:0:0:
237,135,60215,1,2,0:0:0:0:
188,127,60372,1,0,0:0:0:0:
237,135,60530,1,8,0:0:0:0:
237,135,60844,5,4,0:0:0:0:
131,182,61158,1,8,0:0:0:0:
131,182,61472,1,0,0:0:0:0:
134,182,61629,1,0,0:0:0:0:
131,182,61786,1,8,0:0:0:0:
131,182,62100,1,2,0:0:0:0:
48,164,62728,1,0,0:0:0:0:
48,164,63043,1,8,0:0:0:0:
48,164,63200,1,2,0:0:0:0:
79,149,63514,1,8,0:0:0:0:
79,149,63828,1,0,0:0:0:0:
252,102,63985,1,8,0:0:0:0:
79,149,64142,1,0,0:0:0:0:
252,102,64456,1,14,0:0:0:0:
252,102,64771,1,14,0:0:0:0:
252,102,65085,1,14,0:0:0:0:
252,102,65399,1,14,0:0:0:0:
252,102,65713,1,4,0:0:0:0:
124,133,66498,5,0,0:0:0:0:
199,127,66812,5,0,0:0:0:0:
199,127,66969,1,2,0:0:0:0:
124,133,67283,1,0,0:0:0:0:
124,133,67755,1,0,0:0:0:0:
124,133,68069,1,0,0:0:0:0:
201,102,68226,1,8,0:0:0:0:
201,102,68540,1,2,0:0:0:0:
201,91,68854,1,0,0:0:0:0:
90,139,69011,1,0,0:0:0:0:
163,100,69168,1,8,0:0:0:0:
125,149,69482,1,0,0:0:0:0:
54,123,69797,1,8,0:0:0:0:
54,158,69954,1,8,0:0:0:0:
239,126,70111,1,8,0:0:0:0:
283,138,70268,1,0,0:0:0:0:
283,138,70582,1,8,0:0:0:0:
126,139,71210,5,0,0:0:0:0:
440,209,71524,1,2,0:0:0:0:
161,140,71838,1,2,0:0:0:0:
245,188,71996,1,0,0:0:0:0:
206,148,72310,1,2,0:0:0:0:
206,148,72624,1,0,0:0:0:0:
150,128,72781,1,2,0:0:0:0:
200,118,73095,1,8,0:0:0:0:
137,122,73723,5,2,0:0:0:0:
146,143,74037,1,0,0:0:0:0:
86,186,74352,1,2,0:0:0:0:
319,128,74509,1,0,0:0:0:0:
228,110,74823,1,2,0:0:0:0:
228,110,75137,1,0,0:0:0:0:
134,161,75294,1,2,0:0:0:0:
228,110,75451,1,2,0:0:0:0:
182,158,75608,1,8,0:0:0:0:
316,129,75765,5,0,0:0:0:0:
265,160,76236,1,8,0:0:0:0:
123,134,76865,1,8,0:0:0:0:
123,134,77179,1,0,0:0:0:0:
123,134,77336,1,0,0:0:0:0:
123,134,77493,1,8,0:0:0:0:
83,149,77807,1,0,0:0:0:0:
83,149,78121,1,8,0:0:0:0:
265,160,78278,5,0,0:0:0:0:
234,132,78749,1,8,0:0:0:0:
225,133,79378,1,8,0:0:0:0:
274,91,79692,1,0,0:0:0:0:
274,91,79849,1,0,0:0:0:0:
274,91,80006,1,8,0:0:0:0:
274,91,80320,1,0,0:0:0:0:
274,91,80634,1,8,0:0:0:0:
274,91,80791,5,0,0:0:0:0:
198,144,81263,1,8,0:0:0:0:
198,144,81891,1,8,0:0:0:0:
315,162,82204,1,8,0:0:0:0:
315,162,82361,1,0,0:0:0:0:
315,162,82518,1,8,0:0:0:0:
315,162,82832,1,0,0:0:0:0:
315,162,82990,1,8,0:0:0:0:
265,160,83304,5,4,0:0:0:0:
265,160,83776,1,8,0:0:0:0:
265,160,84090,1,2,0:0:0:0:
232,103,84718,1,8,0:0:0:0:
232,103,85032,1,2,0:0:0:0:
232,103,85346,1,0,0:0:0:0:
232,103,85660,1,8,0:0:0:0:
232,103,85817,5,0,0:0:0:0:
199,68,86132,1,0,0:0:0:0:
232,103,86289,1,8,0:0:0:0:
232,103,86603,1,2,0:0:0:0:
159,144,86917,1,0,0:0:0:0:
158,130,87074,1,0,0:0:0:0:
255,110,87231,1,8,0:0:0:0:
255,110,88331,1,4,0:0:0:0:
