osu file format v14

[General]
AudioFilename: audio.mp3
AudioLeadIn: 0
PreviewTime: 55575
Countdown: 0
SampleSet: Normal
StackLeniency: 0.7
Mode: 1
LetterboxInBreaks: 0
WidescreenStoryboard: 0

[Editor]
DistanceSpacing: 0.5
BeatDivisor: 4
GridSize: 32
TimelineZoom: 2.899999

[Metadata]
Title:ADAMAS (TV Size)
TitleUnicode:ADAMAS (TV Size)
Artist:LiSA
ArtistUnicode:LiSA
Creator:-Sh1n1-
Version:TASUKE'S INNER ONI ONLINE
Source:ソードアート・オンライン アリシゼーション
Tags:shini sword art online sao alicization season three 3 kirito asuna eugeo alice opening op1 nardoxyribonucleic qoot8123 tasuke912 judydanny volta flying_pan faputa juda anime japanese
BeatmapID:1817731
BeatmapSetID:869726

[Difficulty]
HPDrainRate:6
CircleSize:2
OverallDifficulty:6
ApproachRate:5
SliderMultiplier:1.4
SliderTickRate:1

[Events]
//Background and Video events
0,0,"SwordBG.jpg",0,100
//Break Periods
//Storyboard Layer 0 (Background)
//Storyboard Layer 1 (Fail)
//Storyboard Layer 2 (Pass)
//Storyboard Layer 3 (Foreground)
//Storyboard Layer 4 (Overlay)
//Storyboard Sound Samples

[TimingPoints]
537,314.13612565445,4,1,0,65,1,0
5392,314.13612565445,4,1,0,80,1,8
5549,314.13612565445,4,1,0,80,1,0
55661,314.13612565445,4,1,0,90,1,9
55661,-100,4,1,0,90,0,1
55818,314.13612565445,4,1,0,90,1,1
75765,-100,4,1,0,80,0,0
87388,-100,4,1,0,60,0,0
88331,-100,4,1,0,80,0,0

[HitObjects]
256,192,851,5,2,0:0:0:0:
256,192,1479,1,2,0:0:0:0:
256,192,2107,1,2,0:0:0:0:
256,192,2735,1,2,0:0:0:0:
256,192,3364,1,2,0:0:0:0:
256,192,3992,1,2,0:0:0:0:
256,192,4306,1,2,0:0:0:0:
256,192,4385,1,2,0:0:0:0:
256,192,4463,1,2,0:0:0:0:
256,192,4542,1,2,0:0:0:0:
256,192,4620,1,2,0:0:0:0:
256,192,4777,1,2,0:0:0:0:
256,192,5392,1,4,0:0:0:0:
256,192,5706,1,0,0:0:0:0:
256,192,5863,1,2,0:0:0:0:
256,192,6177,1,0,0:0:0:0:
256,192,6334,1,0,0:0:0:0:
256,192,6491,1,2,0:0:0:0:
256,192,6805,1,0,0:0:0:0:
256,192,7119,1,2,0:0:0:0:
256,192,7276,1,2,0:0:0:0:
256,192,7355,1,2,0:0:0:0:
256,192,7433,1,0,0:0:0:0:
256,192,7591,1,0,0:0:0:0:
256,192,7748,1,2,0:0:0:0:
256,192,7905,1,0,0:0:0:0:
256,192,8219,1,0,0:0:0:0:
256,192,8376,1,2,0:0:0:0:
256,192,8690,1,0,0:0:0:0:
256,192,8847,1,0,0:0:0:0:
256,192,9004,1,2,0:0:0:0:
256,192,9318,1,0,0:0:0:0:
256,192,9475,1,0,0:0:0:0:
256,192,9632,1,2,0:0:0:0:
256,192,9789,1,0,0:0:0:0:
256,192,9946,1,2,0:0:0:0:
256,192,10025,1,2,0:0:0:0:
256,192,10104,1,2,0:0:0:0:
256,192,10182,1,2,0:0:0:0:
256,192,10261,1,2,0:0:0:0:
256,192,10339,1,2,0:0:0:0:
256,192,10418,1,0,0:0:0:0:
256,192,10732,1,0,0:0:0:0:
256,192,10889,1,2,0:0:0:0:
256,192,11203,1,0,0:0:0:0:
256,192,11360,1,0,0:0:0:0:
256,192,11517,1,2,0:0:0:0:
256,192,11831,1,0,0:0:0:0:
256,192,11988,1,2,0:0:0:0:
256,192,12145,1,2,0:0:0:0:
256,192,12223,1,2,0:0:0:0:
256,192,12302,1,0,0:0:0:0:
256,192,12381,1,0,0:0:0:0:
256,192,12460,1,0,0:0:0:0:
256,192,12617,1,2,0:0:0:0:
256,192,12695,1,2,0:0:0:0:
256,192,12774,1,2,0:0:0:0:
256,192,12931,1,4,0:0:0:0:
256,192,13245,1,0,0:0:0:0:
256,192,13402,1,2,0:0:0:0:
256,192,13716,1,2,0:0:0:0:
256,192,14029,1,2,0:0:0:0:
256,192,14186,1,0,0:0:0:0:
256,192,14343,1,2,0:0:0:0:
256,192,14422,1,2,0:0:0:0:
256,192,14501,1,0,0:0:0:0:
256,192,14659,1,2,0:0:0:0:
256,192,14737,1,2,0:0:0:0:
256,192,14816,1,0,0:0:0:0:
256,192,14894,1,0,0:0:0:0:
256,192,14973,1,0,0:0:0:0:
256,192,15129,1,2,0:0:0:0:
256,192,15286,1,2,0:0:0:0:
256,192,15444,1,0,0:0:0:0:
256,192,15758,1,0,0:0:0:0:
256,192,15915,1,2,0:0:0:0:
256,192,16229,1,2,0:0:0:0:
256,192,16543,1,2,0:0:0:0:
256,192,16857,1,2,0:0:0:0:
256,192,17172,1,2,0:0:0:0:
256,192,17329,1,0,0:0:0:0:
256,192,17486,1,2,0:0:0:0:
256,192,17643,1,0,0:0:0:0:
256,192,17799,1,2,0:0:0:0:
256,192,17957,1,0,0:0:0:0:
256,192,18114,1,2,0:0:0:0:
256,192,18428,1,2,0:0:0:0:
256,192,18742,1,2,0:0:0:0:
256,192,19056,1,2,0:0:0:0:
256,192,19370,1,2,0:0:0:0:
256,192,19685,1,2,0:0:0:0:
256,192,19842,1,0,0:0:0:0:
256,192,19999,1,2,0:0:0:0:
256,192,20155,1,0,0:0:0:0:
256,192,20234,1,0,0:0:0:0:
256,192,20313,1,2,0:0:0:0:
256,192,20470,1,0,0:0:0:0:
256,192,20627,1,2,0:0:0:0:
256,192,20941,1,2,0:0:0:0:
256,192,21255,1,2,0:0:0:0:
256,192,21570,1,2,0:0:0:0:
256,192,21884,1,2,0:0:0:0:
256,192,22198,1,2,0:0:0:0:
256,192,22355,1,0,0:0:0:0:
256,192,22512,1,2,0:0:0:0:
256,192,22669,1,0,0:0:0:0:
256,192,22826,1,2,0:0:0:0:
256,192,22983,1,0,0:0:0:0:
256,192,23140,1,2,0:0:0:0:
256,192,23454,1,2,0:0:0:0:
256,192,23611,1,0,0:0:0:0:
256,192,23690,1,0,0:0:0:0:
256,192,23768,1,2,0:0:0:0:
256,192,23926,1,0,0:0:0:0:
256,192,24005,1,0,0:0:0:0:
256,192,24083,1,0,0:0:0:0:
256,192,24240,1,6,0:0:0:0:
256,192,24554,1,2,0:0:0:0:
256,192,24868,1,2,0:0:0:0:
256,192,25182,1,2,0:0:0:0:
256,192,25339,1,2,0:0:0:0:
256,192,25496,1,4,0:0:0:0:
256,192,25810,1,0,0:0:0:0:
256,192,25967,1,2,0:0:0:0:
256,192,26203,1,2,0:0:0:0:
256,192,26281,1,0,0:0:0:0:
256,192,26439,1,0,0:0:0:0:
256,192,26596,1,2,0:0:0:0:
256,192,26753,1,2,0:0:0:0:
256,192,26832,1,2,0:0:0:0:
256,192,26910,1,0,0:0:0:0:
256,192,27067,1,0,0:0:0:0:
256,192,27224,1,2,0:0:0:0:
256,192,27381,1,0,0:0:0:0:
256,192,27459,1,0,0:0:0:0:
256,192,27538,1,0,0:0:0:0:
256,192,27695,1,0,0:0:0:0:
256,192,27852,1,2,0:0:0:0:
256,192,28009,1,0,0:0:0:0:
256,192,28323,1,0,0:0:0:0:
256,192,28480,1,2,0:0:0:0:
256,192,28716,1,2,0:0:0:0:
256,192,28795,1,0,0:0:0:0:
256,192,28952,1,0,0:0:0:0:
256,192,29109,1,2,0:0:0:0:
256,192,29266,1,2,0:0:0:0:
256,192,29344,1,2,0:0:0:0:
256,192,29423,1,0,0:0:0:0:
256,192,29580,1,0,0:0:0:0:
256,192,29737,1,2,0:0:0:0:
256,192,29894,1,0,0:0:0:0:
256,192,29972,1,2,0:0:0:0:
256,192,30051,1,0,0:0:0:0:
256,192,30208,1,2,0:0:0:0:
256,192,30365,1,2,0:0:0:0:
256,192,30522,1,0,0:0:0:0:
256,192,30836,1,0,0:0:0:0:
256,192,30994,1,2,0:0:0:0:
256,192,31151,1,2,0:0:0:0:
256,192,31230,1,2,0:0:0:0:
256,192,31308,1,0,0:0:0:0:
256,192,31465,1,2,0:0:0:0:
256,192,31622,1,0,0:0:0:0:
256,192,31779,1,0,0:0:0:0:
256,192,31857,1,0,0:0:0:0:
256,192,31936,1,2,0:0:0:0:
256,192,32093,1,0,0:0:0:0:
256,192,32250,1,2,0:0:0:0:
256,192,32407,1,0,0:0:0:0:
256,192,32485,1,2,0:0:0:0:
256,192,32564,1,2,0:0:0:0:
256,192,32721,1,2,0:0:0:0:
256,192,32878,1,0,0:0:0:0:
256,192,33193,1,0,0:0:0:0:
256,192,33350,1,0,0:0:0:0:
256,192,33507,1,2,0:0:0:0:
256,192,33664,1,0,0:0:0:0:
256,192,33742,1,0,0:0:0:0:
256,192,33820,1,2,0:0:0:0:
256,192,33978,1,0,0:0:0:0:
256,192,34057,1,0,0:0:0:0:
256,192,34136,1,2,0:0:0:0:
256,192,34292,1,0,0:0:0:0:
256,192,34449,1,2,0:0:0:0:
256,192,34527,1,2,0:0:0:0:
256,192,34606,1,2,0:0:0:0:
256,192,34685,1,2,0:0:0:0:
256,192,34764,1,0,0:0:0:0:
256,192,34842,1,0,0:0:0:0:
256,192,34920,1,0,0:0:0:0:
256,192,34998,1,0,0:0:0:0:
256,192,35077,1,2,0:0:0:0:
256,192,35234,1,0,0:0:0:0:
256,192,35313,1,0,0:0:0:0:
256,192,35391,1,2,0:0:0:0:
256,192,35706,1,4,0:0:0:0:
256,192,36020,1,0,0:0:0:0:
256,192,36333,1,0,0:0:0:0:
256,192,36648,1,0,0:0:0:0:
256,192,36962,1,0,0:0:0:0:
256,192,37276,1,0,0:0:0:0:
256,192,37590,1,0,0:0:0:0:
256,192,37905,1,0,0:0:0:0:
256,192,38062,1,2,0:0:0:0:
256,192,38141,1,2,0:0:0:0:
256,192,38219,1,0,0:0:0:0:
256,192,38533,1,0,0:0:0:0:
256,192,38847,1,0,0:0:0:0:
256,192,39161,1,0,0:0:0:0:
256,192,39475,1,0,0:0:0:0:
256,192,39789,1,0,0:0:0:0:
256,192,39946,1,2,0:0:0:0:
256,192,40104,1,0,0:0:0:0:
256,192,40261,1,2,0:0:0:0:
256,192,40418,1,0,0:0:0:0:
256,192,40575,1,0,0:0:0:0:
256,192,40653,1,0,0:0:0:0:
256,192,40731,1,0,0:0:0:0:
256,192,41046,1,0,0:0:0:0:
256,192,41360,1,0,0:0:0:0:
256,192,41674,1,0,0:0:0:0:
256,192,41988,1,0,0:0:0:0:
256,192,42303,1,0,0:0:0:0:
256,192,42617,1,0,0:0:0:0:
256,192,42931,1,0,0:0:0:0:
256,192,43088,1,2,0:0:0:0:
256,192,43167,1,2,0:0:0:0:
256,192,43245,1,0,0:0:0:0:
256,192,43559,1,0,0:0:0:0:
256,192,43873,1,0,0:0:0:0:
256,192,44187,1,0,0:0:0:0:
256,192,44502,1,0,0:0:0:0:
256,192,44659,1,2,0:0:0:0:
256,192,44816,1,0,0:0:0:0:
256,192,44973,1,0,0:0:0:0:
256,192,45052,1,0,0:0:0:0:
256,192,45130,1,0,0:0:0:0:
256,192,45287,1,2,0:0:0:0:
256,192,45443,1,2,0:0:0:0:
256,192,45522,1,2,0:0:0:0:
256,192,45600,1,2,0:0:0:0:
256,192,45679,1,2,0:0:0:0:
256,192,45758,1,0,0:0:0:0:
256,192,45915,1,0,0:0:0:0:
256,192,46072,1,2,0:0:0:0:
256,192,46229,1,0,0:0:0:0:
256,192,46386,1,0,0:0:0:0:
256,192,46543,1,0,0:0:0:0:
256,192,46700,1,2,0:0:0:0:
256,192,46857,1,0,0:0:0:0:
256,192,46936,1,0,0:0:0:0:
256,192,47014,1,0,0:0:0:0:
256,192,47172,1,0,0:0:0:0:
256,192,47329,1,2,0:0:0:0:
256,192,47486,1,0,0:0:0:0:
256,192,47643,1,0,0:0:0:0:
256,192,47800,1,0,0:0:0:0:
256,192,47957,1,2,0:0:0:0:
256,192,48114,1,2,0:0:0:0:
256,192,48192,1,2,0:0:0:0:
256,192,48271,1,0,0:0:0:0:
256,192,48428,1,0,0:0:0:0:
256,192,48585,1,2,0:0:0:0:
256,192,48742,1,0,0:0:0:0:
256,192,48899,1,0,0:0:0:0:
256,192,49056,1,0,0:0:0:0:
256,192,49213,1,2,0:0:0:0:
256,192,49371,1,0,0:0:0:0:
256,192,49450,1,2,0:0:0:0:
256,192,49528,1,0,0:0:0:0:
256,192,49685,1,0,0:0:0:0:
256,192,49842,1,2,0:0:0:0:
256,192,49999,1,0,0:0:0:0:
256,192,50078,1,0,0:0:0:0:
256,192,50156,1,2,0:0:0:0:
256,192,50313,1,0,0:0:0:0:
256,192,50470,1,2,0:0:0:0:
256,192,50548,1,2,0:0:0:0:
256,192,50627,1,0,0:0:0:0:
256,192,50705,1,0,0:0:0:0:
256,192,50784,1,2,0:0:0:0:
256,192,50941,1,0,0:0:0:0:
256,192,51098,1,0,0:0:0:0:
256,192,51255,1,2,0:0:0:0:
256,192,51412,1,0,0:0:0:0:
256,192,51569,1,0,0:0:0:0:
256,192,51727,1,2,0:0:0:0:
256,192,51884,1,0,0:0:0:0:
256,192,51963,1,0,0:0:0:0:
256,192,52041,1,2,0:0:0:0:
256,192,52198,1,0,0:0:0:0:
256,192,52355,1,0,0:0:0:0:
256,192,52512,1,2,0:0:0:0:
256,192,52669,1,0,0:0:0:0:
256,192,52826,1,0,0:0:0:0:
256,192,52904,1,0,0:0:0:0:
256,192,52983,1,2,0:0:0:0:
256,192,53140,1,0,0:0:0:0:
256,192,53298,1,2,0:0:0:0:
256,192,53376,1,2,0:0:0:0:
256,192,53455,1,0,0:0:0:0:
256,192,53533,1,0,0:0:0:0:
256,192,53611,1,0,0:0:0:0:
256,192,53690,1,0,0:0:0:0:
256,192,53768,1,2,0:0:0:0:
256,192,53847,1,2,0:0:0:0:
256,192,53926,1,0,0:0:0:0:
256,192,54005,1,0,0:0:0:0:
256,192,54083,1,0,0:0:0:0:
256,192,54161,1,0,0:0:0:0:
256,192,54240,1,2,0:0:0:0:
256,192,54397,1,6,0:0:0:0:
256,192,55661,1,4,0:0:0:0:
256,192,55975,1,0,0:0:0:0:
256,192,56132,1,2,0:0:0:0:
256,192,56367,1,2,0:0:0:0:
256,192,56446,1,0,0:0:0:0:
256,192,56603,1,0,0:0:0:0:
256,192,56760,1,2,0:0:0:0:
256,192,56917,1,2,0:0:0:0:
256,192,56996,1,2,0:0:0:0:
256,192,57074,1,0,0:0:0:0:
256,192,57231,1,0,0:0:0:0:
256,192,57388,1,2,0:0:0:0:
256,192,57545,1,0,0:0:0:0:
256,192,57624,1,2,0:0:0:0:
256,192,57702,1,0,0:0:0:0:
256,192,57859,1,0,0:0:0:0:
256,192,58016,1,2,0:0:0:0:
256,192,58174,1,2,0:0:0:0:
256,192,58252,1,2,0:0:0:0:
256,192,58331,1,0,0:0:0:0:
256,192,58645,1,2,0:0:0:0:
256,192,58802,1,2,0:0:0:0:
256,192,58959,1,0,0:0:0:0:
256,192,59116,1,0,0:0:0:0:
256,192,59273,1,2,0:0:0:0:
256,192,59430,1,0,0:0:0:0:
256,192,59509,1,0,0:0:0:0:
256,192,59587,1,0,0:0:0:0:
256,192,59744,1,0,0:0:0:0:
256,192,59901,1,2,0:0:0:0:
256,192,60058,1,0,0:0:0:0:
256,192,60137,1,2,0:0:0:0:
256,192,60215,1,2,0:0:0:0:
256,192,60372,1,0,0:0:0:0:
256,192,60530,1,2,0:0:0:0:
256,192,60687,1,2,0:0:0:0:
256,192,60765,1,2,0:0:0:0:
256,192,60844,1,0,0:0:0:0:
256,192,61079,1,0,0:0:0:0:
256,192,61158,1,2,0:0:0:0:
256,192,61315,1,0,0:0:0:0:
256,192,61393,1,0,0:0:0:0:
256,192,61472,1,0,0:0:0:0:
256,192,61629,1,0,0:0:0:0:
256,192,61786,1,2,0:0:0:0:
256,192,61943,1,2,0:0:0:0:
256,192,62022,1,2,0:0:0:0:
256,192,62100,1,0,0:0:0:0:
256,192,62414,1,2,0:0:0:0:
256,192,62728,1,0,0:0:0:0:
256,192,62886,1,0,0:0:0:0:
256,192,63043,1,2,0:0:0:0:
256,192,63200,1,2,0:0:0:0:
256,192,63278,1,2,0:0:0:0:
256,192,63357,1,0,0:0:0:0:
256,192,63514,1,2,0:0:0:0:
256,192,63671,1,0,0:0:0:0:
256,192,63749,1,0,0:0:0:0:
256,192,63828,1,0,0:0:0:0:
256,192,63907,1,0,0:0:0:0:
256,192,63985,1,2,0:0:0:0:
256,192,64064,1,2,0:0:0:0:
256,192,64142,1,2,0:0:0:0:
256,192,64221,1,2,0:0:0:0:
256,192,64299,1,2,0:0:0:0:
256,192,64456,1,6,0:0:0:0:
256,192,64770,1,4,0:0:0:0:
256,192,65085,1,6,0:0:0:0:
256,192,65399,1,6,0:0:0:0:
256,192,65713,1,4,0:0:0:0:
256,192,66027,1,0,0:0:0:0:
256,192,66184,1,2,0:0:0:0:
256,192,66420,1,2,0:0:0:0:
256,192,66498,1,0,0:0:0:0:
256,192,66655,1,0,0:0:0:0:
256,192,66812,1,2,0:0:0:0:
256,192,66969,1,0,0:0:0:0:
256,192,67283,1,0,0:0:0:0:
256,192,67441,1,2,0:0:0:0:
256,192,67598,1,0,0:0:0:0:
256,192,67676,1,0,0:0:0:0:
256,192,67755,1,0,0:0:0:0:
256,192,67912,1,0,0:0:0:0:
256,192,67990,1,0,0:0:0:0:
256,192,68069,1,2,0:0:0:0:
256,192,68226,1,2,0:0:0:0:
256,192,68383,1,0,0:0:0:0:
256,192,68697,1,0,0:0:0:0:
256,192,68854,1,2,0:0:0:0:
256,192,69011,1,0,0:0:0:0:
256,192,69168,1,2,0:0:0:0:
256,192,69325,1,2,0:0:0:0:
256,192,69404,1,2,0:0:0:0:
256,192,69483,1,0,0:0:0:0:
256,192,69640,1,2,0:0:0:0:
256,192,69718,1,2,0:0:0:0:
256,192,69797,1,2,0:0:0:0:
256,192,69875,1,2,0:0:0:0:
256,192,69954,1,0,0:0:0:0:
256,192,70032,1,0,0:0:0:0:
256,192,70111,1,2,0:0:0:0:
256,192,70189,1,2,0:0:0:0:
256,192,70268,1,0,0:0:0:0:
256,192,70346,1,0,0:0:0:0:
256,192,70425,1,0,0:0:0:0:
256,192,70503,1,0,0:0:0:0:
256,192,70582,1,2,0:0:0:0:
256,192,70660,1,2,0:0:0:0:
256,192,70739,1,2,0:0:0:0:
256,192,70896,1,6,0:0:0:0:
256,192,71210,1,0,0:0:0:0:
256,192,71367,1,2,0:0:0:0:
256,192,71681,1,0,0:0:0:0:
256,192,71838,1,2,0:0:0:0:
256,192,71996,1,0,0:0:0:0:
256,192,72074,1,0,0:0:0:0:
256,192,72153,1,0,0:0:0:0:
256,192,72310,1,2,0:0:0:0:
256,192,72467,1,0,0:0:0:0:
256,192,72624,1,0,0:0:0:0:
256,192,72781,1,2,0:0:0:0:
256,192,72938,1,0,0:0:0:0:
256,192,73016,1,0,0:0:0:0:
256,192,73095,1,2,0:0:0:0:
256,192,73252,1,0,0:0:0:0:
256,192,73409,1,2,0:0:0:0:
256,192,73566,1,0,0:0:0:0:
256,192,73645,1,0,0:0:0:0:
256,192,73723,1,0,0:0:0:0:
256,192,73880,1,2,0:0:0:0:
256,192,74037,1,0,0:0:0:0:
256,192,74116,1,0,0:0:0:0:
256,192,74194,1,0,0:0:0:0:
256,192,74273,1,0,0:0:0:0:
256,192,74352,1,2,0:0:0:0:
256,192,74509,1,0,0:0:0:0:
256,192,74666,1,2,0:0:0:0:
256,192,74744,1,2,0:0:0:0:
256,192,74823,1,0,0:0:0:0:
256,192,74900,1,0,0:0:0:0:
256,192,74979,1,2,0:0:0:0:
256,192,75058,1,2,0:0:0:0:
256,192,75137,1,0,0:0:0:0:
256,192,75215,1,0,0:0:0:0:
256,192,75294,1,2,0:0:0:0:
256,192,75372,1,2,0:0:0:0:
256,192,75451,1,2,0:0:0:0:
256,192,75530,1,2,0:0:0:0:
256,192,75608,1,2,0:0:0:0:
256,192,75765,1,4,0:0:0:0:
256,192,76079,1,0,0:0:0:0:
256,192,76236,1,2,0:0:0:0:
256,192,76472,1,2,0:0:0:0:
256,192,76550,1,0,0:0:0:0:
256,192,76708,1,0,0:0:0:0:
256,192,76865,1,2,0:0:0:0:
256,192,77022,1,2,0:0:0:0:
256,192,77100,1,2,0:0:0:0:
256,192,77179,1,0,0:0:0:0:
256,192,77336,1,0,0:0:0:0:
256,192,77493,1,2,0:0:0:0:
256,192,77650,1,0,0:0:0:0:
256,192,77728,1,0,0:0:0:0:
256,192,77807,1,0,0:0:0:0:
256,192,77964,1,0,0:0:0:0:
256,192,78121,1,2,0:0:0:0:
256,192,78278,1,0,0:0:0:0:
256,192,78592,1,0,0:0:0:0:
256,192,78749,1,2,0:0:0:0:
256,192,78985,1,2,0:0:0:0:
256,192,79064,1,0,0:0:0:0:
256,192,79221,1,0,0:0:0:0:
256,192,79378,1,2,0:0:0:0:
256,192,79535,1,2,0:0:0:0:
256,192,79613,1,2,0:0:0:0:
256,192,79692,1,0,0:0:0:0:
256,192,79849,1,0,0:0:0:0:
256,192,79927,1,0,0:0:0:0:
256,192,80006,1,2,0:0:0:0:
256,192,80163,1,0,0:0:0:0:
256,192,80320,1,2,0:0:0:0:
256,192,80399,1,2,0:0:0:0:
256,192,80477,1,2,0:0:0:0:
256,192,80556,1,2,0:0:0:0:
256,192,80634,1,2,0:0:0:0:
256,192,80791,1,0,0:0:0:0:
256,192,81105,1,0,0:0:0:0:
256,192,81263,1,2,0:0:0:0:
256,192,81498,1,2,0:0:0:0:
256,192,81577,1,0,0:0:0:0:
256,192,81734,1,0,0:0:0:0:
256,192,81891,1,2,0:0:0:0:
256,192,82048,1,0,0:0:0:0:
256,192,82205,1,2,0:0:0:0:
256,192,82283,1,2,0:0:0:0:
256,192,82362,1,0,0:0:0:0:
256,192,82441,1,0,0:0:0:0:
256,192,82519,1,2,0:0:0:0:
256,192,82598,1,2,0:0:0:0:
256,192,82676,1,2,0:0:0:0:
256,192,82755,1,2,0:0:0:0:
256,192,82833,1,0,0:0:0:0:
256,192,82912,1,0,0:0:0:0:
256,192,82990,1,2,0:0:0:0:
256,192,83069,1,2,0:0:0:0:
256,192,83147,1,2,0:0:0:0:
256,192,83304,1,4,0:0:0:0:
256,192,83619,1,0,0:0:0:0:
256,192,83776,1,2,0:0:0:0:
256,192,84090,1,2,0:0:0:0:
256,192,84247,1,0,0:0:0:0:
256,192,84404,1,2,0:0:0:0:
256,192,84561,1,2,0:0:0:0:
256,192,84639,1,2,0:0:0:0:
256,192,84718,1,0,0:0:0:0:
256,192,84875,1,0,0:0:0:0:
256,192,85032,1,2,0:0:0:0:
256,192,85189,1,0,0:0:0:0:
256,192,85268,1,0,0:0:0:0:
256,192,85346,1,0,0:0:0:0:
256,192,85503,1,2,0:0:0:0:
256,192,85660,1,2,0:0:0:0:
256,192,85817,1,0,0:0:0:0:
256,192,85975,1,2,0:0:0:0:
256,192,86053,1,2,0:0:0:0:
256,192,86132,1,0,0:0:0:0:
256,192,86210,1,0,0:0:0:0:
256,192,86289,1,2,0:0:0:0:
256,192,86367,1,2,0:0:0:0:
256,192,86446,1,0,0:0:0:0:
256,192,86524,1,0,0:0:0:0:
256,192,86603,1,2,0:0:0:0:
256,192,86760,1,0,0:0:0:0:
256,192,86838,1,0,0:0:0:0:
256,192,86917,1,2,0:0:0:0:
256,192,87074,1,0,0:0:0:0:
256,192,87231,1,2,0:0:0:0:
256,192,87859,1,2,0:0:0:0:
256,192,88016,1,0,0:0:0:0:
256,192,88331,1,4,0:0:0:0:
