osu file format v14

[General]
AudioFilename: audio.mp3
AudioLeadIn: 0
PreviewTime: 55575
Countdown: 0
SampleSet: Normal
StackLeniency: 0.7
Mode: 1
LetterboxInBreaks: 0
WidescreenStoryboard: 0

[Editor]
DistanceSpacing: 0.5
BeatDivisor: 4
GridSize: 32
TimelineZoom: 1.5

[Metadata]
Title:ADAMAS (TV Size)
TitleUnicode:ADAMAS (TV Size)
Artist:LiSA
ArtistUnicode:LiSA
Creator:-Sh1n1-
Version:QOOT8123'S INNER ONI ONLINE
Source:ソードアート・オンライン アリシゼーション
Tags:shini sword art online sao alicization season three 3 kirito asuna eugeo alice opening op1 nardoxyribonucleic qoot8123 tasuke912 judydanny volta flying_pan faputa juda anime japanese
BeatmapID:1817662
BeatmapSetID:869726

[Difficulty]
HPDrainRate:7
CircleSize:5
OverallDifficulty:6
ApproachRate:5
SliderMultiplier:1.4
SliderTickRate:1

[Events]
//Background and Video events
0,0,"SwordBG.jpg",0,100
//Break Periods
//Storyboard Layer 0 (Background)
//Storyboard Layer 1 (Fail)
//Storyboard Layer 2 (Pass)
//Storyboard Layer 3 (Foreground)
//Storyboard Layer 4 (Overlay)
//Storyboard Sound Samples

[TimingPoints]
537,314.13612565445,4,1,0,65,1,0
5392,314.13612565445,4,1,0,80,1,8
5549,314.13612565445,4,1,0,80,1,0
55661,314.13612565445,4,1,0,90,1,9
55661,-100,4,1,0,90,0,1
55818,314.13612565445,4,1,0,90,1,1
75765,-100,4,1,0,80,0,0

[Colours]
Combo1 : 255,240,255
Combo2 : 240,255,255

[HitObjects]
256,192,537,5,0,0:0:0:0:
256,192,851,1,8,0:0:0:0:
256,192,1008,1,0,0:0:0:0:
256,192,1322,1,0,0:0:0:0:
256,192,1479,1,8,0:0:0:0:
256,192,1793,1,0,0:0:0:0:
256,192,1950,1,0,0:0:0:0:
256,192,2107,1,8,0:0:0:0:
256,192,2264,1,8,0:0:0:0:
256,192,2343,1,8,0:0:0:0:
256,192,2421,1,8,0:0:0:0:
256,192,2578,1,0,0:0:0:0:
256,192,2735,1,8,0:0:0:0:
256,192,3050,1,0,0:0:0:0:
256,192,3364,1,8,0:0:0:0:
256,192,3521,1,0,0:0:0:0:
256,192,3835,1,0,0:0:0:0:
256,192,3992,1,8,0:0:0:0:
256,192,4306,1,0,0:0:0:0:
256,192,4463,1,0,0:0:0:0:
256,192,4620,1,8,0:0:0:0:
256,192,4777,1,8,0:0:0:0:
256,192,5392,5,4,0:0:0:0:
256,192,5706,1,0,0:0:0:0:
256,192,5863,1,8,0:0:0:0:
256,192,6020,1,0,0:0:0:0:
256,192,6177,1,8,0:0:0:0:
256,192,6255,1,8,0:0:0:0:
256,192,6334,1,0,0:0:0:0:
256,192,6491,1,8,0:0:0:0:
256,192,6648,1,0,0:0:0:0:
256,192,6727,1,0,0:0:0:0:
256,192,6805,1,8,0:0:0:0:
256,192,6962,1,0,0:0:0:0:
256,192,7119,1,8,0:0:0:0:
256,192,7276,1,8,0:0:0:0:
256,192,7355,1,0,0:0:0:0:
256,192,7433,1,8,0:0:0:0:
256,192,7590,1,8,0:0:0:0:
256,192,7747,1,8,0:0:0:0:
256,192,7905,1,0,0:0:0:0:
256,192,8219,1,0,0:0:0:0:
256,192,8376,1,8,0:0:0:0:
256,192,8533,1,0,0:0:0:0:
256,192,8690,1,8,0:0:0:0:
256,192,8768,1,8,0:0:0:0:
256,192,8847,1,0,0:0:0:0:
256,192,9004,1,8,0:0:0:0:
256,192,9161,1,8,0:0:0:0:
256,192,9240,1,0,0:0:0:0:
256,192,9318,1,8,0:0:0:0:
256,192,9475,1,0,0:0:0:0:
256,192,9632,1,8,0:0:0:0:
256,192,9789,1,0,0:0:0:0:
256,192,9946,1,8,0:0:0:0:
256,192,10025,1,8,0:0:0:0:
256,192,10103,1,8,0:0:0:0:
256,192,10182,1,8,0:0:0:0:
256,192,10261,1,8,0:0:0:0:
256,192,10418,1,4,0:0:0:0:
256,192,10732,1,0,0:0:0:0:
256,192,10889,1,8,0:0:0:0:
256,192,11046,1,0,0:0:0:0:
256,192,11203,1,8,0:0:0:0:
256,192,11281,1,8,0:0:0:0:
256,192,11360,1,0,0:0:0:0:
256,192,11517,1,8,0:0:0:0:
256,192,11674,1,0,0:0:0:0:
256,192,11753,1,0,0:0:0:0:
256,192,11831,1,8,0:0:0:0:
256,192,11988,1,8,0:0:0:0:
256,192,12067,1,0,0:0:0:0:
256,192,12145,1,8,0:0:0:0:
256,192,12224,1,8,0:0:0:0:
256,192,12302,1,0,0:0:0:0:
256,192,12459,1,8,0:0:0:0:
256,192,12538,1,0,0:0:0:0:
256,192,12617,1,8,0:0:0:0:
256,192,12695,1,8,0:0:0:0:
256,192,12774,1,8,0:0:0:0:
256,192,12931,1,4,0:0:0:0:
256,192,13245,1,0,0:0:0:0:
256,192,13402,1,8,0:0:0:0:
256,192,13716,1,8,0:0:0:0:
256,192,13873,1,0,0:0:0:0:
256,192,14030,1,8,0:0:0:0:
256,192,14344,1,8,0:0:0:0:
256,192,14423,1,8,0:0:0:0:
256,192,14501,1,0,0:0:0:0:
256,192,14580,1,0,0:0:0:0:
256,192,14658,1,8,0:0:0:0:
256,192,14737,1,8,0:0:0:0:
256,192,14816,1,0,0:0:0:0:
256,192,14894,1,0,0:0:0:0:
256,192,14973,1,0,0:0:0:0:
256,192,15130,1,0,0:0:0:0:
256,192,15287,1,12,0:0:0:0:
256,192,15444,1,0,0:0:0:0:
256,192,15758,1,0,0:0:0:0:
256,192,15915,1,8,0:0:0:0:
256,192,16229,1,8,0:0:0:0:
256,192,16386,1,0,0:0:0:0:
256,192,16543,1,8,0:0:0:0:
256,192,16857,1,8,0:0:0:0:
256,192,17014,1,0,0:0:0:0:
256,192,17172,1,8,0:0:0:0:
256,192,17329,1,8,0:0:0:0:
256,192,17486,1,8,0:0:0:0:
256,192,17643,1,0,0:0:0:0:
256,192,17800,1,8,0:0:0:0:
256,192,17957,1,8,0:0:0:0:
256,192,18114,1,8,0:0:0:0:
256,192,18271,1,0,0:0:0:0:
256,192,18428,1,8,0:0:0:0:
256,192,18742,1,8,0:0:0:0:
256,192,19056,1,8,0:0:0:0:
256,192,19213,1,0,0:0:0:0:
256,192,19370,1,8,0:0:0:0:
256,192,19685,1,8,0:0:0:0:
256,192,19842,1,0,0:0:0:0:
256,192,19999,1,8,0:0:0:0:
256,192,20156,1,0,0:0:0:0:
256,192,20234,1,0,0:0:0:0:
256,192,20313,1,8,0:0:0:0:
256,192,20470,1,8,0:0:0:0:
256,192,20627,1,8,0:0:0:0:
256,192,20941,1,8,0:0:0:0:
256,192,21098,1,0,0:0:0:0:
256,192,21255,1,8,0:0:0:0:
256,192,21569,1,8,0:0:0:0:
256,192,21884,1,8,0:0:0:0:
256,192,22041,1,0,0:0:0:0:
256,192,22198,1,8,0:0:0:0:
256,192,22355,1,0,0:0:0:0:
256,192,22512,1,8,0:0:0:0:
256,192,22669,1,8,0:0:0:0:
256,192,22826,1,8,0:0:0:0:
256,192,22983,1,0,0:0:0:0:
256,192,23140,1,8,0:0:0:0:
256,192,23454,1,8,0:0:0:0:
256,192,23611,1,0,0:0:0:0:
256,192,23690,1,0,0:0:0:0:
256,192,23768,1,8,0:0:0:0:
256,192,23847,1,0,0:0:0:0:
256,192,23925,1,0,0:0:0:0:
256,192,24083,1,8,0:0:0:0:
256,192,24240,1,4,0:0:0:0:
256,192,24554,1,8,0:0:0:0:
256,192,24868,1,8,0:0:0:0:
256,192,25182,1,0,0:0:0:0:
256,192,25339,1,8,0:0:0:0:
256,192,25496,5,4,0:0:0:0:
256,192,25810,1,0,0:0:0:0:
256,192,25967,1,8,0:0:0:0:
256,192,26281,1,0,0:0:0:0:
256,192,26439,1,0,0:0:0:0:
256,192,26596,1,8,0:0:0:0:
256,192,26753,1,8,0:0:0:0:
256,192,26910,1,0,0:0:0:0:
256,192,27067,1,8,0:0:0:0:
256,192,27145,1,8,0:0:0:0:
256,192,27224,1,8,0:0:0:0:
256,192,27381,1,0,0:0:0:0:
256,192,27459,1,0,0:0:0:0:
256,192,27538,1,8,0:0:0:0:
256,192,27695,1,0,0:0:0:0:
256,192,27852,1,8,0:0:0:0:
256,192,28009,1,8,0:0:0:0:
256,192,28323,1,0,0:0:0:0:
256,192,28480,1,8,0:0:0:0:
256,192,28795,1,8,0:0:0:0:
256,192,28952,1,0,0:0:0:0:
256,192,29109,1,8,0:0:0:0:
256,192,29266,1,8,0:0:0:0:
256,192,29344,1,8,0:0:0:0:
256,192,29423,1,0,0:0:0:0:
256,192,29580,1,0,0:0:0:0:
256,192,29737,1,8,0:0:0:0:
256,192,29894,1,0,0:0:0:0:
256,192,29973,1,0,0:0:0:0:
256,192,30051,1,0,0:0:0:0:
256,192,30208,1,0,0:0:0:0:
256,192,30365,1,8,0:0:0:0:
256,192,30522,1,8,0:0:0:0:
256,192,30679,1,4,0:0:0:0:
256,192,30836,1,8,0:0:0:0:
256,192,30915,1,8,0:0:0:0:
256,192,30994,1,8,0:0:0:0:
256,192,31151,1,8,0:0:0:0:
256,192,31308,1,0,0:0:0:0:
256,192,31465,1,8,0:0:0:0:
256,192,31543,1,0,0:0:0:0:
256,192,31622,1,8,0:0:0:0:
256,192,31779,1,0,0:0:0:0:
256,192,31857,1,0,0:0:0:0:
256,192,31936,1,8,0:0:0:0:
256,192,32093,1,0,0:0:0:0:
256,192,32250,1,8,0:0:0:0:
256,192,32407,1,8,0:0:0:0:
256,192,32486,1,8,0:0:0:0:
256,192,32564,1,0,0:0:0:0:
256,192,32721,1,0,0:0:0:0:
256,192,32878,1,8,0:0:0:0:
256,192,33192,1,0,0:0:0:0:
256,192,33507,1,8,0:0:0:0:
256,192,33821,1,0,0:0:0:0:
256,192,33978,1,0,0:0:0:0:
256,192,34135,1,8,0:0:0:0:
256,192,34292,1,8,0:0:0:0:
256,192,34370,1,0,0:0:0:0:
256,192,34449,1,8,0:0:0:0:
256,192,34528,1,8,0:0:0:0:
256,192,34606,1,0,0:0:0:0:
256,192,34763,1,0,0:0:0:0:
256,192,34842,1,0,0:0:0:0:
256,192,34920,1,0,0:0:0:0:
256,192,34999,1,0,0:0:0:0:
256,192,35077,1,8,0:0:0:0:
256,192,35234,1,0,0:0:0:0:
256,192,35391,1,8,0:0:0:0:
256,192,35706,1,4,0:0:0:0:
256,192,36020,1,0,0:0:0:0:
256,192,36334,1,8,0:0:0:0:
256,192,36648,1,0,0:0:0:0:
256,192,36805,1,8,0:0:0:0:
256,192,36962,1,0,0:0:0:0:
256,192,37276,1,0,0:0:0:0:
256,192,37590,1,0,0:0:0:0:
256,192,37905,1,8,0:0:0:0:
256,192,38062,1,8,0:0:0:0:
256,192,38140,1,8,0:0:0:0:
256,192,38219,1,0,0:0:0:0:
256,192,38533,1,0,0:0:0:0:
256,192,38847,1,0,0:0:0:0:
256,192,39161,1,0,0:0:0:0:
256,192,39318,1,0,0:0:0:0:
256,192,39475,1,0,0:0:0:0:
256,192,39789,1,0,0:0:0:0:
256,192,39946,1,8,0:0:0:0:
256,192,40103,1,0,0:0:0:0:
256,192,40261,1,8,0:0:0:0:
256,192,40339,1,8,0:0:0:0:
256,192,40418,1,0,0:0:0:0:
256,192,40575,1,8,0:0:0:0:
256,192,40732,1,4,0:0:0:0:
256,192,41046,1,0,0:0:0:0:
256,192,41203,1,8,0:0:0:0:
256,192,41360,1,0,0:0:0:0:
256,192,41674,1,8,0:0:0:0:
256,192,41831,1,8,0:0:0:0:
256,192,41988,1,0,0:0:0:0:
256,192,42302,1,0,0:0:0:0:
256,192,42459,1,8,0:0:0:0:
256,192,42617,1,0,0:0:0:0:
256,192,42931,1,0,0:0:0:0:
256,192,43088,1,8,0:0:0:0:
256,192,43166,1,8,0:0:0:0:
256,192,43245,1,0,0:0:0:0:
256,192,43559,1,0,0:0:0:0:
256,192,43873,1,0,0:0:0:0:
256,192,44187,1,0,0:0:0:0:
256,192,44344,1,0,0:0:0:0:
256,192,44501,1,0,0:0:0:0:
256,192,44658,1,8,0:0:0:0:
256,192,44816,1,0,0:0:0:0:
256,192,44973,1,0,0:0:0:0:
256,192,45130,1,0,0:0:0:0:
256,192,45208,1,0,0:0:0:0:
256,192,45287,1,8,0:0:0:0:
256,192,45444,1,8,0:0:0:0:
256,192,45522,1,8,0:0:0:0:
256,192,45601,1,8,0:0:0:0:
256,192,45679,1,8,0:0:0:0:
256,192,45758,1,0,0:0:0:0:
256,192,45915,1,0,0:0:0:0:
256,192,46072,1,8,0:0:0:0:
256,192,46386,1,0,0:0:0:0:
256,192,46543,1,0,0:0:0:0:
256,192,46700,1,8,0:0:0:0:
256,192,46857,1,8,0:0:0:0:
256,192,46936,1,8,0:0:0:0:
256,192,47014,1,8,0:0:0:0:
256,192,47172,1,0,0:0:0:0:
256,192,47329,1,8,0:0:0:0:
256,192,47486,1,0,0:0:0:0:
256,192,47564,1,0,0:0:0:0:
256,192,47643,1,8,0:0:0:0:
256,192,47800,1,0,0:0:0:0:
256,192,47957,1,8,0:0:0:0:
256,192,48114,1,8,0:0:0:0:
256,192,48192,1,8,0:0:0:0:
256,192,48271,1,0,0:0:0:0:
256,192,48428,1,0,0:0:0:0:
256,192,48585,1,8,0:0:0:0:
256,192,48899,1,0,0:0:0:0:
256,192,49056,1,0,0:0:0:0:
256,192,49213,1,8,0:0:0:0:
256,192,49370,1,8,0:0:0:0:
256,192,49449,1,8,0:0:0:0:
256,192,49528,1,0,0:0:0:0:
256,192,49606,1,0,0:0:0:0:
256,192,49685,1,0,0:0:0:0:
256,192,49842,1,8,0:0:0:0:
256,192,49920,1,0,0:0:0:0:
256,192,49999,1,0,0:0:0:0:
256,192,50156,1,8,0:0:0:0:
256,192,50234,1,0,0:0:0:0:
256,192,50313,1,0,0:0:0:0:
256,192,50391,1,0,0:0:0:0:
256,192,50470,1,8,0:0:0:0:
256,192,50548,1,8,0:0:0:0:
256,192,50627,1,0,0:0:0:0:
256,192,50784,1,12,0:0:0:0:
256,192,50941,1,0,0:0:0:0:
256,192,51098,1,0,0:0:0:0:
256,192,51255,1,8,0:0:0:0:
256,192,51412,1,0,0:0:0:0:
256,192,51491,1,0,0:0:0:0:
256,192,51569,1,0,0:0:0:0:
256,192,51727,1,8,0:0:0:0:
256,192,51884,1,0,0:0:0:0:
256,192,51962,1,0,0:0:0:0:
256,192,52041,1,8,0:0:0:0:
256,192,52198,1,0,0:0:0:0:
256,192,52355,1,0,0:0:0:0:
256,192,52512,1,8,0:0:0:0:
256,192,52669,1,0,0:0:0:0:
256,192,52747,1,0,0:0:0:0:
256,192,52826,1,0,0:0:0:0:
256,192,52905,1,0,0:0:0:0:
256,192,52983,1,8,0:0:0:0:
256,192,53140,1,0,0:0:0:0:
256,192,53297,1,12,0:0:0:0:
256,192,53454,1,0,0:0:0:0:
256,192,53533,1,0,0:0:0:0:
256,192,53611,1,0,0:0:0:0:
256,192,53768,1,12,0:0:0:0:
256,192,53925,1,0,0:0:0:0:
256,192,54004,1,0,0:0:0:0:
256,192,54083,1,0,0:0:0:0:
256,192,54240,1,12,0:0:0:0:
256,192,54397,1,12,0:0:0:0:
256,192,55653,5,12,0:0:0:0:
256,192,55975,1,0,0:0:0:0:
256,192,56053,1,0,0:0:0:0:
256,192,56132,1,8,0:0:0:0:
256,192,56289,1,0,0:0:0:0:
256,192,56446,1,8,0:0:0:0:
256,192,56524,1,8,0:0:0:0:
256,192,56603,1,0,0:0:0:0:
256,192,56681,1,0,0:0:0:0:
256,192,56760,1,8,0:0:0:0:
256,192,56917,1,0,0:0:0:0:
256,192,57074,1,12,0:0:0:0:
256,192,57231,1,8,0:0:0:0:
256,192,57310,1,0,0:0:0:0:
256,192,57388,1,8,0:0:0:0:
256,192,57545,1,0,0:0:0:0:
256,192,57702,1,0,0:0:0:0:
256,192,57781,1,0,0:0:0:0:
256,192,57859,1,0,0:0:0:0:
256,192,57938,1,0,0:0:0:0:
256,192,58016,1,8,0:0:0:0:
256,192,58174,1,8,0:0:0:0:
256,192,58252,1,8,0:0:0:0:
256,192,58331,1,0,0:0:0:0:
256,192,58488,1,8,0:0:0:0:
256,192,58566,1,0,0:0:0:0:
256,192,58645,1,8,0:0:0:0:
256,192,58802,1,8,0:0:0:0:
256,192,58959,1,8,0:0:0:0:
256,192,59037,1,8,0:0:0:0:
256,192,59116,1,0,0:0:0:0:
256,192,59194,1,0,0:0:0:0:
256,192,59273,1,8,0:0:0:0:
256,192,59430,1,0,0:0:0:0:
256,192,59587,1,0,0:0:0:0:
256,192,59666,1,0,0:0:0:0:
256,192,59744,1,0,0:0:0:0:
256,192,59901,1,8,0:0:0:0:
256,192,59980,1,8,0:0:0:0:
256,192,60058,1,0,0:0:0:0:
256,192,60215,1,8,0:0:0:0:
256,192,60294,1,0,0:0:0:0:
256,192,60372,1,0,0:0:0:0:
256,192,60451,1,0,0:0:0:0:
256,192,60530,1,8,0:0:0:0:
256,192,60608,1,8,0:0:0:0:
256,192,60687,1,0,0:0:0:0:
256,192,60844,1,12,0:0:0:0:
256,192,61079,1,0,0:0:0:0:
256,192,61158,1,8,0:0:0:0:
256,192,61315,1,0,0:0:0:0:
256,192,61472,1,8,0:0:0:0:
256,192,61550,1,8,0:0:0:0:
256,192,61629,1,0,0:0:0:0:
256,192,61708,1,0,0:0:0:0:
256,192,61786,1,8,0:0:0:0:
256,192,61943,1,0,0:0:0:0:
256,192,62100,1,8,0:0:0:0:
256,192,62179,1,8,0:0:0:0:
256,192,62257,1,0,0:0:0:0:
256,192,62414,1,8,0:0:0:0:
256,192,62728,1,8,0:0:0:0:
256,192,62886,1,0,0:0:0:0:
256,192,63043,1,8,0:0:0:0:
256,192,63200,1,8,0:0:0:0:
256,192,63357,1,0,0:0:0:0:
256,192,63514,1,8,0:0:0:0:
256,192,63592,1,8,0:0:0:0:
256,192,63671,1,0,0:0:0:0:
256,192,63828,1,8,0:0:0:0:
256,192,63907,1,8,0:0:0:0:
256,192,63985,1,0,0:0:0:0:
256,192,64064,1,0,0:0:0:0:
256,192,64142,1,8,0:0:0:0:
256,192,64221,1,8,0:0:0:0:
256,192,64299,1,0,0:0:0:0:
256,192,64456,1,12,0:0:0:0:
256,192,64770,1,4,0:0:0:0:
256,192,65085,1,12,0:0:0:0:
256,192,65399,1,12,0:0:0:0:
256,192,65713,1,4,0:0:0:0:
256,192,66027,1,0,0:0:0:0:
256,192,66184,1,0,0:0:0:0:
256,192,66498,1,8,0:0:0:0:
256,192,66812,1,0,0:0:0:0:
256,192,66969,1,8,0:0:0:0:
256,192,67126,1,0,0:0:0:0:
256,192,67441,1,0,0:0:0:0:
256,192,67755,1,8,0:0:0:0:
256,192,67912,1,0,0:0:0:0:
256,192,67990,1,0,0:0:0:0:
256,192,68069,1,0,0:0:0:0:
256,192,68226,1,8,0:0:0:0:
256,192,68540,1,8,0:0:0:0:
256,192,68697,1,8,0:0:0:0:
256,192,68854,1,0,0:0:0:0:
256,192,69168,1,8,0:0:0:0:
256,192,69325,1,8,0:0:0:0:
256,192,69482,1,0,0:0:0:0:
256,192,69639,1,8,0:0:0:0:
256,192,69797,1,8,0:0:0:0:
256,192,69875,1,0,0:0:0:0:
256,192,69954,1,8,0:0:0:0:
256,192,70111,1,8,0:0:0:0:
256,192,70189,1,8,0:0:0:0:
256,192,70268,1,0,0:0:0:0:
256,192,70346,1,0,0:0:0:0:
256,192,70425,1,0,0:0:0:0:
256,192,70503,1,0,0:0:0:0:
256,192,70582,1,8,0:0:0:0:
256,192,70660,1,8,0:0:0:0:
256,192,70739,1,0,0:0:0:0:
256,192,70896,1,12,0:0:0:0:
256,192,71053,1,0,0:0:0:0:
256,192,71210,1,0,0:0:0:0:
256,192,71367,1,8,0:0:0:0:
256,192,71524,1,0,0:0:0:0:
256,192,71681,1,0,0:0:0:0:
256,192,71838,1,8,0:0:0:0:
256,192,71996,1,0,0:0:0:0:
256,192,72074,1,0,0:0:0:0:
256,192,72153,1,0,0:0:0:0:
256,192,72310,1,8,0:0:0:0:
256,192,72467,1,8,0:0:0:0:
256,192,72545,1,8,0:0:0:0:
256,192,72624,1,0,0:0:0:0:
256,192,72781,1,8,0:0:0:0:
256,192,72859,1,8,0:0:0:0:
256,192,72938,1,0,0:0:0:0:
256,192,73016,1,0,0:0:0:0:
256,192,73095,1,8,0:0:0:0:
256,192,73252,1,8,0:0:0:0:
256,192,73409,1,0,0:0:0:0:
256,192,73488,1,0,0:0:0:0:
256,192,73566,1,0,0:0:0:0:
256,192,73645,1,0,0:0:0:0:
256,192,73723,1,8,0:0:0:0:
256,192,73880,1,0,0:0:0:0:
256,192,73959,1,0,0:0:0:0:
256,192,74037,1,8,0:0:0:0:
256,192,74116,1,0,0:0:0:0:
256,192,74194,1,0,0:0:0:0:
256,192,74352,1,8,0:0:0:0:
256,192,74430,1,0,0:0:0:0:
256,192,74509,1,8,0:0:0:0:
256,192,74587,1,8,0:0:0:0:
256,192,74666,1,0,0:0:0:0:
256,192,74744,1,0,0:0:0:0:
256,192,74823,1,8,0:0:0:0:
256,192,74901,1,0,0:0:0:0:
256,192,74980,1,8,0:0:0:0:
256,192,75058,1,8,0:0:0:0:
256,192,75137,1,0,0:0:0:0:
256,192,75215,1,0,0:0:0:0:
256,192,75294,1,8,0:0:0:0:
256,192,75372,1,0,0:0:0:0:
256,192,75451,1,8,0:0:0:0:
256,192,75530,1,8,0:0:0:0:
256,192,75608,1,8,0:0:0:0:
256,192,75765,1,4,0:0:0:0:
256,192,76079,1,0,0:0:0:0:
256,192,76236,1,8,0:0:0:0:
256,192,76550,1,0,0:0:0:0:
256,192,76708,1,0,0:0:0:0:
256,192,76865,1,8,0:0:0:0:
256,192,77179,1,0,0:0:0:0:
256,192,77336,1,0,0:0:0:0:
256,192,77493,1,8,0:0:0:0:
256,192,77650,1,0,0:0:0:0:
256,192,77728,1,0,0:0:0:0:
256,192,77807,1,0,0:0:0:0:
256,192,77964,1,0,0:0:0:0:
256,192,78121,1,8,0:0:0:0:
256,192,78278,1,12,0:0:0:0:
256,192,78592,1,0,0:0:0:0:
256,192,78749,1,8,0:0:0:0:
256,192,79064,1,0,0:0:0:0:
256,192,79221,1,0,0:0:0:0:
256,192,79378,1,8,0:0:0:0:
224,192,79692,1,0,0:0:0:0:
224,192,79849,1,0,0:0:0:0:
224,192,80006,1,8,0:0:0:0:
224,192,80163,1,0,0:0:0:0:
224,192,80320,1,8,0:0:0:0:
224,192,80477,1,8,0:0:0:0:
224,192,80556,1,8,0:0:0:0:
224,192,80634,1,8,0:0:0:0:
224,192,80791,1,4,0:0:0:0:
224,192,81105,1,0,0:0:0:0:
224,192,81263,1,8,0:0:0:0:
256,192,81577,1,0,0:0:0:0:
256,192,81734,1,0,0:0:0:0:
256,192,81891,1,8,0:0:0:0:
256,192,82205,1,8,0:0:0:0:
256,192,82283,1,8,0:0:0:0:
256,192,82362,1,0,0:0:0:0:
256,192,82441,1,0,0:0:0:0:
256,192,82519,1,8,0:0:0:0:
256,192,82598,1,8,0:0:0:0:
256,192,82676,1,8,0:0:0:0:
256,192,82755,1,8,0:0:0:0:
256,192,82833,1,0,0:0:0:0:
256,192,82912,1,0,0:0:0:0:
256,192,82990,1,8,0:0:0:0:
256,192,83069,1,8,0:0:0:0:
256,192,83147,1,8,0:0:0:0:
256,192,83304,1,4,0:0:0:0:
256,192,83619,1,0,0:0:0:0:
256,192,83776,1,8,0:0:0:0:
256,192,84090,1,0,0:0:0:0:
256,192,84247,1,0,0:0:0:0:
256,192,84404,1,8,0:0:0:0:
256,192,84718,1,0,0:0:0:0:
256,192,84875,1,0,0:0:0:0:
256,192,85032,1,8,0:0:0:0:
256,192,85189,1,0,0:0:0:0:
256,192,85268,1,0,0:0:0:0:
256,192,85346,1,8,0:0:0:0:
256,192,85503,1,0,0:0:0:0:
256,192,85660,1,8,0:0:0:0:
256,192,85817,1,0,0:0:0:0:
256,192,85975,1,8,0:0:0:0:
256,192,86053,1,0,0:0:0:0:
256,192,86132,1,0,0:0:0:0:
256,192,86210,1,0,0:0:0:0:
256,192,86289,1,8,0:0:0:0:
256,192,86367,1,8,0:0:0:0:
256,192,86446,1,0,0:0:0:0:
256,192,86524,1,0,0:0:0:0:
256,192,86603,1,8,0:0:0:0:
256,192,86681,1,0,0:0:0:0:
256,192,86760,1,0,0:0:0:0:
256,192,86838,1,0,0:0:0:0:
256,192,86917,1,8,0:0:0:0:
256,192,86996,1,8,0:0:0:0:
256,192,87074,1,0,0:0:0:0:
256,192,87153,1,0,0:0:0:0:
256,192,87231,1,8,0:0:0:0:
256,192,88331,1,12,0:0:0:0:
