osu file format v14

[General]
AudioFilename: audio.mp3
AudioLeadIn: 0
PreviewTime: 55575
Countdown: 0
SampleSet: Normal
StackLeniency: 0.7
Mode: 1
LetterboxInBreaks: 0
WidescreenStoryboard: 0

[Editor]
Bookmarks: 5720,6662,8022,8042,8062,8081,8101,10275,12945,13323,13343,13363,13382,13402,13422,13441,13461,13480,15444,15463,15483,15503,15522,15775,15932,16246,16560,16717,16874,17031,17188,17345,17502,17659,17816,17974,18288,18445,18759,18916,19387,20251,20487,21900,23471,23785,23942,24256,24554,24868,25182,25339,25496,25810,25967,26281,26439,26596,26753,26910,27067,27224,27381,27538,27695,27852,28009,28323,28480,28795,28952,29109,29266,29423,29501,29580,29737,29894,30051,30208,30365,30522,30836,30994,31151,31308,31465,31622,31779,31936,32093,32250,32407,32564,32721,32878,33195,33353,33510,33667,33824,33981,34138,34295,34452,35453,35473,35493,35610,35630,35650,36020,38533,38847,39318,39475,39789,39946,40103,40732,41988,42302,42931,43088,43559,43873,44344,45719,45738,45758,45778,45797,45817,46072,46386,46700,47014,47329,47643,47957,48232,48251,48271,48291,48310,48330,48585,48899,49213,49528,49842,50018,50038,50058,50077,50097,50117,50136,50156,50470,50548,50784,50863,50941,51020,51098,51177,51255,51334,51412,51491,51569,51648,51727,51805,51884,51962,52041,52119,52198,52276,52355,52433,52512,52590,52669,52747,52826,52905,52983,53062,53140,53219,53297,53376,53454,53533,53611,53690,53768,53847,53925,54004,54083,54161,54240,54318,54397,54711,54868,55025,55182,55339,55975,56132,56289,56446,56485,56524,56564,56583,56603,56622,56642,56681,56760,56799,56838,56858,56878,56897,56917,57077,57156,57234,57548,57627,57705,66027,70896,71367,71838,72310,72467,72781,72938,73095,73412,73569,73648,73726,73805,73883,74040,74119,74197,74276,74355,74512,74590,74669,74826,74904,74983,75061,75140,75218,75297,75375,75454,75533,75611,78435
DistanceSpacing: 0.5
BeatDivisor: 4
GridSize: 32
TimelineZoom: 2.3

[Metadata]
Title:ADAMAS (TV Size)
TitleUnicode:ADAMAS (TV Size)
Artist:LiSA
ArtistUnicode:LiSA
Creator:-Sh1n1-
Version:JUDA'S INNER ONI ONLINE
Source:ソードアート・オンライン アリシゼーション
Tags:shini sword art online sao alicization season three 3 kirito asuna eugeo alice opening op1 nardoxyribonucleic qoot8123 tasuke912 judydanny volta flying_pan faputa juda anime japanese
BeatmapID:1833903
BeatmapSetID:869726

[Difficulty]
HPDrainRate:6.5
CircleSize:5
OverallDifficulty:6.5
ApproachRate:5
SliderMultiplier:1.4
SliderTickRate:1

[Events]
//Background and Video events
0,0,"SwordBG.jpg",0,100
//Break Periods
//Storyboard Layer 0 (Background)
//Storyboard Layer 1 (Fail)
//Storyboard Layer 2 (Pass)
//Storyboard Layer 3 (Foreground)
//Storyboard Layer 4 (Overlay)
//Storyboard Sound Samples

[TimingPoints]
537,314.13612565445,4,1,0,65,1,0
5392,314.13612565445,4,1,0,80,1,8
5549,314.13612565445,4,1,0,80,1,0
55661,314.13612565445,4,1,0,90,1,9
55661,-100,4,1,0,90,0,1
55818,314.13612565445,4,1,0,90,1,1
75765,-100,4,1,0,80,0,0

[HitObjects]
281,227,851,5,8,0:0:0:0:
281,227,1479,1,8,0:0:0:0:
281,227,2107,1,8,0:0:0:0:
281,227,2735,1,8,0:0:0:0:
236,175,3364,1,8,0:0:0:0:
236,175,3992,1,8,0:0:0:0:
236,175,4306,1,8,0:0:0:0:
126,105,4463,1,8,0:0:0:0:
126,105,4542,1,8,0:0:0:0:
209,40,4620,1,8,0:0:0:0:
236,175,4777,1,8,0:0:0:0:
250,184,5392,5,4,0:0:0:0:
165,70,5706,1,0,0:0:0:0:
226,148,5863,1,8,0:0:0:0:
223,141,6020,1,0,0:0:0:0:
226,148,6177,1,0,0:0:0:0:
223,145,6255,1,0,0:0:0:0:
165,69,6334,1,0,0:0:0:0:
226,148,6491,1,8,0:0:0:0:
214,80,6648,1,2,0:0:0:0:
179,22,6727,1,2,0:0:0:0:
226,148,6805,1,0,0:0:0:0:
160,69,6962,1,0,0:0:0:0:
161,66,7041,1,0,0:0:0:0:
226,148,7119,1,8,0:0:0:0:
160,69,7276,1,0,0:0:0:0:
226,148,7433,1,0,0:0:0:0:
179,22,7512,1,0,0:0:0:0:
160,69,7590,1,8,0:0:0:0:
160,67,7669,1,0,0:0:0:0:
201,22,7747,1,8,0:0:0:0:
179,22,7905,5,4,0:0:0:0:
160,69,8219,1,0,0:0:0:0:
226,148,8376,1,8,0:0:0:0:
223,142,8533,1,0,0:0:0:0:
226,148,8690,1,0,0:0:0:0:
224,145,8768,1,0,0:0:0:0:
217,46,8847,1,0,0:0:0:0:
217,46,9004,1,8,0:0:0:0:
160,69,9161,1,0,0:0:0:0:
161,64,9240,1,0,0:0:0:0:
203,31,9318,1,2,0:0:0:0:
160,69,9475,1,2,0:0:0:0:
161,66,9554,1,2,0:0:0:0:
160,69,9632,1,0,0:0:0:0:
160,68,9789,1,0,0:0:0:0:
160,69,9947,1,2,0:0:0:0:
168,59,10025,1,2,0:0:0:0:
226,148,10104,1,0,0:0:0:0:
224,143,10182,1,0,0:0:0:0:
191,47,10261,1,8,0:0:0:0:
226,148,10418,5,4,0:0:0:0:
168,59,10732,1,0,0:0:0:0:
226,148,10889,1,8,0:0:0:0:
224,142,11046,1,0,0:0:0:0:
226,148,11203,1,0,0:0:0:0:
184,27,11281,1,0,0:0:0:0:
168,59,11360,1,0,0:0:0:0:
226,148,11517,1,8,0:0:0:0:
184,27,11674,1,2,0:0:0:0:
184,27,11753,1,2,0:0:0:0:
226,148,11831,1,0,0:0:0:0:
224,142,11988,1,2,0:0:0:0:
226,148,12146,1,0,0:0:0:0:
176,22,12224,1,2,0:0:0:0:
168,59,12303,1,0,0:0:0:0:
176,16,12381,1,0,0:0:0:0:
180,57,12460,1,2,0:0:0:0:
176,16,12538,1,2,0:0:0:0:
176,16,12617,1,0,0:0:0:0:
176,22,12695,1,0,0:0:0:0:
176,22,12774,1,2,0:0:0:0:
180,57,12931,5,4,0:0:0:0:
183,43,13244,1,0,0:0:0:0:
180,39,13323,1,0,0:0:0:0:
226,148,13401,1,2,0:0:0:0:
182,34,13558,1,0,0:0:0:0:
181,31,13638,1,0,0:0:0:0:
181,28,13716,1,2,0:0:0:0:
182,27,13872,1,2,0:0:0:0:
226,148,14030,1,0,0:0:0:0:
225,145,14109,1,0,0:0:0:0:
182,27,14187,1,0,0:0:0:0:
179,24,14266,1,0,0:0:0:0:
182,27,14344,1,8,0:0:0:0:
182,27,14423,1,10,0:0:0:0:
204,42,14501,1,0,0:0:0:0:
182,27,14658,1,2,0:0:0:0:
177,39,14737,1,0,0:0:0:0:
165,53,14816,1,0,0:0:0:0:
165,53,14894,1,0,0:0:0:0:
226,148,14973,1,10,0:0:0:0:
226,148,15130,1,8,0:0:0:0:
226,148,15287,5,4,0:0:0:0:
186,62,15758,1,0,0:0:0:0:
226,148,15915,1,8,0:0:0:0:
226,148,16229,1,8,0:0:0:0:
226,148,16543,1,8,0:0:0:0:
180,56,16700,1,0,0:0:0:0:
226,148,16857,1,8,0:0:0:0:
226,148,17172,1,8,0:0:0:0:
226,148,17329,1,0,0:0:0:0:
226,148,17486,1,8,0:0:0:0:
226,148,17643,1,0,0:0:0:0:
226,148,17800,1,8,0:0:0:0:
180,56,17957,1,0,0:0:0:0:
226,148,18114,5,8,0:0:0:0:
226,148,18428,1,8,0:0:0:0:
226,148,18742,1,8,0:0:0:0:
220,144,18899,1,8,0:0:0:0:
226,148,19056,1,8,0:0:0:0:
180,56,19213,1,0,0:0:0:0:
226,148,19370,1,8,0:0:0:0:
226,148,19685,1,8,0:0:0:0:
226,148,19842,1,0,0:0:0:0:
226,148,19999,1,8,0:0:0:0:
226,148,20156,1,0,0:0:0:0:
180,56,20234,1,0,0:0:0:0:
226,148,20313,1,8,0:0:0:0:
180,56,20470,1,0,0:0:0:0:
226,148,20627,5,8,0:0:0:0:
226,148,20941,1,8,0:0:0:0:
222,143,21098,1,0,0:0:0:0:
226,148,21255,1,8,0:0:0:0:
226,148,21570,1,8,0:0:0:0:
180,56,21727,1,8,0:0:0:0:
226,148,21884,1,8,0:0:0:0:
226,148,22197,1,8,0:0:0:0:
226,148,22355,1,0,0:0:0:0:
226,148,22512,1,8,0:0:0:0:
226,148,22669,1,0,0:0:0:0:
180,56,22747,1,0,0:0:0:0:
226,148,22826,1,8,0:0:0:0:
180,56,22983,1,0,0:0:0:0:
226,148,23140,5,2,0:0:0:0:
221,141,23297,1,0,0:0:0:0:
213,47,23454,1,8,0:0:0:0:
206,45,23612,1,0,0:0:0:0:
203,44,23690,1,0,0:0:0:0:
200,44,23768,1,8,0:0:0:0:
224,144,23847,1,2,0:0:0:0:
226,148,23925,1,0,0:0:0:0:
180,56,24004,1,0,0:0:0:0:
180,56,24083,1,0,0:0:0:0:
226,148,24240,1,12,0:0:0:0:
180,56,24554,1,8,0:0:0:0:
180,56,24868,1,0,0:0:0:0:
180,56,25182,1,0,0:0:0:0:
180,56,25339,1,8,0:0:0:0:
226,148,25496,1,4,0:0:0:0:
180,56,25810,1,0,0:0:0:0:
226,148,25967,1,8,0:0:0:0:
199,57,26282,1,0,0:0:0:0:
201,13,26439,1,0,0:0:0:0:
226,148,26596,1,8,0:0:0:0:
222,142,26753,1,0,0:0:0:0:
199,57,26910,1,0,0:0:0:0:
188,51,26988,1,0,0:0:0:0:
193,54,27067,1,0,0:0:0:0:
188,51,27224,1,2,0:0:0:0:
182,47,27381,1,2,0:0:0:0:
175,43,27538,1,0,0:0:0:0:
169,40,27695,1,0,0:0:0:0:
165,38,27774,1,0,0:0:0:0:
169,40,27852,1,2,0:0:0:0:
169,40,28009,1,0,0:0:0:0:
169,40,28088,1,0,0:0:0:0:
176,45,28166,1,0,0:0:0:0:
176,45,28323,1,0,0:0:0:0:
226,148,28480,1,8,0:0:0:0:
199,57,28795,1,0,0:0:0:0:
192,0,28952,1,0,0:0:0:0:
226,148,29109,1,8,0:0:0:0:
176,45,29266,1,0,0:0:0:0:
176,45,29423,1,0,0:0:0:0:
173,42,29501,1,2,0:0:0:0:
176,45,29580,1,0,0:0:0:0:
226,148,29737,1,10,0:0:0:0:
176,45,29894,1,0,0:0:0:0:
176,45,29973,1,0,0:0:0:0:
176,45,30051,1,2,0:0:0:0:
176,45,30208,1,0,0:0:0:0:
226,148,30365,1,8,0:0:0:0:
173,42,30522,1,2,0:0:0:0:
173,42,30601,1,2,0:0:0:0:
173,41,30679,1,0,0:0:0:0:
173,42,30836,1,2,0:0:0:0:
174,39,30915,1,2,0:0:0:0:
173,42,30994,1,2,0:0:0:0:
173,42,31151,1,0,0:0:0:0:
173,42,31308,1,2,0:0:0:0:
207,35,31465,1,0,0:0:0:0:
226,148,31622,1,8,0:0:0:0:
173,42,31779,1,8,0:0:0:0:
174,38,31857,1,8,0:0:0:0:
173,42,31936,1,0,0:0:0:0:
172,35,32093,1,0,0:0:0:0:
226,148,32250,1,8,0:0:0:0:
225,141,32407,1,10,0:0:0:0:
199,57,32564,1,0,0:0:0:0:
195,50,32721,1,2,0:0:0:0:
192,44,32878,1,0,0:0:0:0:
196,43,33192,1,4,0:0:0:0:
190,39,33350,1,2,0:0:0:0:
190,39,33428,1,2,0:0:0:0:
196,43,33507,1,0,0:0:0:0:
190,39,33664,1,2,0:0:0:0:
190,39,33821,1,0,0:0:0:0:
186,41,33899,1,0,0:0:0:0:
190,39,33978,1,0,0:0:0:0:
190,39,34056,1,0,0:0:0:0:
190,39,34135,1,2,0:0:0:0:
191,68,34292,1,8,0:0:0:0:
226,148,34449,1,4,0:0:0:0:
191,68,34606,1,2,0:0:0:0:
191,68,34685,1,2,0:0:0:0:
226,148,34763,1,0,0:0:0:0:
191,68,34842,1,0,0:0:0:0:
191,68,34920,1,2,0:0:0:0:
191,68,34999,1,0,0:0:0:0:
191,68,35077,1,2,0:0:0:0:
191,68,35156,1,2,0:0:0:0:
191,68,35234,1,0,0:0:0:0:
191,68,35313,1,0,0:0:0:0:
232,136,35391,1,8,0:0:0:0:
191,68,35548,1,0,0:0:0:0:
203,42,35706,5,12,0:0:0:0:
195,30,36177,1,0,0:0:0:0:
178,50,36334,1,8,0:0:0:0:
231,132,36648,1,0,0:0:0:0:
199,48,36805,1,8,0:0:0:0:
231,132,36962,1,0,0:0:0:0:
231,132,37276,1,0,0:0:0:0:
178,50,37433,1,0,0:0:0:0:
231,132,37590,1,2,0:0:0:0:
231,132,37905,1,0,0:0:0:0:
231,132,38062,1,2,0:0:0:0:
207,48,38140,1,2,0:0:0:0:
207,48,38219,5,0,0:0:0:0:
204,22,38533,1,8,0:0:0:0:
195,44,38847,1,0,0:0:0:0:
198,38,39161,1,0,0:0:0:0:
192,52,39318,1,0,0:0:0:0:
192,52,39475,1,8,0:0:0:0:
231,129,39789,1,0,0:0:0:0:
231,129,39946,1,2,0:0:0:0:
201,22,40025,1,2,0:0:0:0:
231,129,40103,1,0,0:0:0:0:
231,129,40261,1,2,0:0:0:0:
231,129,40418,1,0,0:0:0:0:
201,22,40575,1,0,0:0:0:0:
201,22,40653,1,0,0:0:0:0:
201,22,40732,5,2,0:0:0:0:
231,129,41046,1,0,0:0:0:0:
201,23,41203,1,8,0:0:0:0:
231,129,41360,1,0,0:0:0:0:
231,129,41674,1,0,0:0:0:0:
216,37,41831,1,0,0:0:0:0:
231,129,41988,1,8,0:0:0:0:
231,129,42302,1,0,0:0:0:0:
201,23,42459,1,8,0:0:0:0:
231,129,42617,1,0,0:0:0:0:
231,129,42931,1,8,0:0:0:0:
231,129,43088,1,8,0:0:0:0:
198,18,43166,1,8,0:0:0:0:
198,18,43245,5,0,0:0:0:0:
231,129,43559,1,0,0:0:0:0:
198,18,43716,1,0,0:0:0:0:
231,129,43873,1,8,0:0:0:0:
231,129,44187,1,0,0:0:0:0:
207,12,44344,1,8,0:0:0:0:
231,129,44501,1,0,0:0:0:0:
207,12,44580,1,0,0:0:0:0:
207,12,44658,1,8,0:0:0:0:
199,17,44737,1,8,0:0:0:0:
231,129,44816,1,0,0:0:0:0:
198,18,44973,1,8,0:0:0:0:
198,18,45051,1,0,0:0:0:0:
231,129,45130,1,0,0:0:0:0:
183,27,45287,1,2,0:0:0:0:
231,129,45444,1,2,0:0:0:0:
231,129,45522,1,8,0:0:0:0:
231,129,45601,1,8,0:0:0:0:
193,23,45679,1,8,0:0:0:0:
231,129,45758,5,0,0:0:0:0:
206,16,46072,1,8,0:0:0:0:
181,44,46229,1,0,0:0:0:0:
204,32,46308,1,0,0:0:0:0:
181,44,46386,1,0,0:0:0:0:
204,32,46543,1,0,0:0:0:0:
231,129,46700,1,8,0:0:0:0:
196,57,46857,1,0,0:0:0:0:
204,32,46936,1,2,0:0:0:0:
181,44,47014,1,0,0:0:0:0:
196,57,47172,1,0,0:0:0:0:
231,129,47329,1,8,0:0:0:0:
197,7,47486,1,0,0:0:0:0:
204,32,47564,1,0,0:0:0:0:
181,44,47643,1,0,0:0:0:0:
204,32,47800,1,0,0:0:0:0:
231,129,47957,1,8,0:0:0:0:
204,32,48114,1,0,0:0:0:0:
204,32,48192,1,0,0:0:0:0:
204,32,48271,1,2,0:0:0:0:
231,129,48585,1,8,0:0:0:0:
192,32,48742,1,2,0:0:0:0:
204,32,48821,1,2,0:0:0:0:
179,14,48899,1,0,0:0:0:0:
204,32,49056,1,0,0:0:0:0:
231,129,49213,1,8,0:0:0:0:
184,45,49370,1,0,0:0:0:0:
204,32,49449,1,0,0:0:0:0:
180,12,49528,1,2,0:0:0:0:
184,45,49685,1,0,0:0:0:0:
231,129,49842,1,8,0:0:0:0:
204,32,49999,1,2,0:0:0:0:
204,32,50077,1,0,0:0:0:0:
231,129,50156,1,0,0:0:0:0:
204,32,50313,1,2,0:0:0:0:
192,27,50470,1,0,0:0:0:0:
192,27,50548,1,2,0:0:0:0:
204,32,50627,1,2,0:0:0:0:
192,27,50706,1,2,0:0:0:0:
231,129,50784,5,0,0:0:0:0:
204,32,50941,5,0,0:0:0:0:
204,32,51020,5,0,0:0:0:0:
180,12,51098,5,2,0:0:0:0:
180,12,51255,5,0,0:0:0:0:
180,12,51334,5,0,0:0:0:0:
204,32,51412,5,0,0:0:0:0:
203,30,51491,5,0,0:0:0:0:
180,12,51569,5,2,0:0:0:0:
180,12,51727,5,0,0:0:0:0:
183,11,51805,5,0,0:0:0:0:
186,10,51884,5,2,0:0:0:0:
186,10,52041,5,0,0:0:0:0:
186,10,52119,5,0,0:0:0:0:
204,32,52198,5,0,0:0:0:0:
204,34,52276,5,0,0:0:0:0:
203,30,52355,5,2,0:0:0:0:
202,23,52512,5,0,0:0:0:0:
202,23,52590,5,0,0:0:0:0:
180,12,52669,5,0,0:0:0:0:
180,12,52747,5,0,0:0:0:0:
180,12,52826,5,2,0:0:0:0:
180,12,52983,5,0,0:0:0:0:
204,32,53062,5,0,0:0:0:0:
196,19,53140,5,2,0:0:0:0:
196,19,53297,5,4,0:0:0:0:
196,19,53454,5,8,0:0:0:0:
196,19,53533,5,8,0:0:0:0:
196,19,53611,5,8,0:0:0:0:
196,19,53768,5,4,0:0:0:0:
197,33,53925,5,8,0:0:0:0:
196,19,54004,5,8,0:0:0:0:
206,2,54083,5,8,0:0:0:0:
196,19,54240,5,4,0:0:0:0:
196,19,54397,5,4,0:0:0:0:
231,129,55661,5,4,0:0:0:0:
196,19,55975,1,0,0:0:0:0:
231,129,56132,1,2,0:0:0:0:
196,18,56289,1,0,0:0:0:0:
196,18,56446,1,0,0:0:0:0:
181,14,56524,1,2,0:0:0:0:
211,37,56603,1,0,0:0:0:0:
181,14,56681,1,0,0:0:0:0:
190,46,56760,1,2,0:0:0:0:
192,64,56838,1,2,0:0:0:0:
191,47,56917,1,0,0:0:0:0:
231,129,57074,1,2,0:0:0:0:
211,37,57153,1,0,0:0:0:0:
184,17,57231,1,0,0:0:0:0:
196,27,57310,1,0,0:0:0:0:
181,14,57388,1,2,0:0:0:0:
181,14,57545,1,2,0:0:0:0:
181,14,57624,1,2,0:0:0:0:
181,14,57702,1,0,0:0:0:0:
181,14,57859,1,0,0:0:0:0:
211,37,58016,1,8,0:0:0:0:
171,33,58174,1,0,0:0:0:0:
166,32,58252,1,2,0:0:0:0:
220,106,58331,1,0,0:0:0:0:
214,52,58488,1,0,0:0:0:0:
226,116,58645,1,8,0:0:0:0:
212,47,58802,1,0,0:0:0:0:
224,113,58959,1,0,0:0:0:0:
201,45,59037,1,0,0:0:0:0:
209,76,59116,1,0,0:0:0:0:
201,45,59273,1,8,0:0:0:0:
209,75,59430,1,2,0:0:0:0:
209,75,59509,1,2,0:0:0:0:
226,117,59587,1,0,0:0:0:0:
225,114,59666,1,0,0:0:0:0:
207,73,59823,1,0,0:0:0:0:
226,117,59901,1,8,0:0:0:0:
224,32,60058,1,0,0:0:0:0:
224,32,60215,1,8,0:0:0:0:
219,28,60372,1,0,0:0:0:0:
208,74,60451,1,0,0:0:0:0:
226,118,60530,1,8,0:0:0:0:
196,37,60608,1,8,0:0:0:0:
192,32,60687,1,8,0:0:0:0:
226,118,60844,1,4,0:0:0:0:
208,74,61079,1,0,0:0:0:0:
226,118,61158,1,8,0:0:0:0:
224,111,61315,1,0,0:0:0:0:
223,109,61393,1,0,0:0:0:0:
221,105,61472,1,2,0:0:0:0:
208,74,61550,1,0,0:0:0:0:
206,70,61629,1,2,0:0:0:0:
204,66,61708,1,2,0:0:0:0:
202,63,61786,1,0,0:0:0:0:
208,74,61943,1,0,0:0:0:0:
208,74,62022,1,0,0:0:0:0:
218,82,62100,1,2,0:0:0:0:
193,31,62179,1,2,0:0:0:0:
193,31,62336,1,0,0:0:0:0:
217,81,62414,1,2,0:0:0:0:
193,31,62571,1,0,0:0:0:0:
217,81,62728,1,2,0:0:0:0:
193,31,62807,1,2,0:0:0:0:
193,31,62886,1,0,0:0:0:0:
193,31,62964,1,0,0:0:0:0:
193,31,63043,1,2,0:0:0:0:
216,80,63200,1,2,0:0:0:0:
191,47,63357,1,0,0:0:0:0:
217,81,63514,1,10,0:0:0:0:
191,47,63592,1,2,0:0:0:0:
191,47,63671,1,0,0:0:0:0:
191,44,63749,1,0,0:0:0:0:
217,81,63828,1,8,0:0:0:0:
191,47,63907,1,8,0:0:0:0:
191,47,63985,1,0,0:0:0:0:
191,47,64064,1,0,0:0:0:0:
217,46,64142,1,8,0:0:0:0:
191,47,64221,1,8,0:0:0:0:
191,47,64299,1,8,0:0:0:0:
217,46,64456,1,12,0:0:0:0:
215,41,64771,1,4,0:0:0:0:
215,41,65085,1,4,0:0:0:0:
215,41,65399,1,12,0:0:0:0:
216,80,65713,1,4,0:0:0:0:
210,67,66027,1,0,0:0:0:0:
215,40,66184,1,0,0:0:0:0:
208,37,66498,1,2,0:0:0:0:
176,42,66655,1,0,0:0:0:0:
181,38,66812,1,2,0:0:0:0:
181,38,66969,1,0,0:0:0:0:
211,37,67047,1,0,0:0:0:0:
215,40,67126,1,0,0:0:0:0:
215,40,67284,1,2,0:0:0:0:
209,38,67441,1,0,0:0:0:0:
187,11,67755,1,2,0:0:0:0:
215,40,67912,1,0,0:0:0:0:
190,9,68069,1,8,0:0:0:0:
215,40,68226,1,8,0:0:0:0:
187,11,68304,1,8,0:0:0:0:
215,40,68383,1,0,0:0:0:0:
187,11,68540,1,10,0:0:0:0:
187,11,68697,1,0,0:0:0:0:
187,11,68854,1,2,0:0:0:0:
187,11,68933,1,2,0:0:0:0:
215,39,69011,1,2,0:0:0:0:
187,11,69168,1,0,0:0:0:0:
215,39,69325,1,2,0:0:0:0:
176,37,69483,1,2,0:0:0:0:
176,37,69561,1,2,0:0:0:0:
192,32,69640,1,0,0:0:0:0:
192,32,69718,1,0,0:0:0:0:
192,32,69797,1,2,0:0:0:0:
192,32,69875,1,2,0:0:0:0:
192,32,69954,1,0,0:0:0:0:
180,10,70032,1,0,0:0:0:0:
198,25,70111,1,2,0:0:0:0:
180,10,70189,1,2,0:0:0:0:
215,39,70268,1,0,0:0:0:0:
198,25,70346,1,0,0:0:0:0:
215,39,70425,1,0,0:0:0:0:
180,10,70503,1,0,0:0:0:0:
192,32,70582,1,2,0:0:0:0:
180,10,70660,1,2,0:0:0:0:
180,10,70739,1,2,0:0:0:0:
215,39,70896,1,4,0:0:0:0:
192,32,71210,1,0,0:0:0:0:
215,39,71367,1,8,0:0:0:0:
180,10,71524,1,0,0:0:0:0:
192,32,71603,1,0,0:0:0:0:
192,32,71681,1,0,0:0:0:0:
215,39,71838,1,8,0:0:0:0:
215,39,71996,1,0,0:0:0:0:
215,39,72074,1,0,0:0:0:0:
192,32,72153,1,0,0:0:0:0:
215,39,72310,1,8,0:0:0:0:
192,32,72467,1,2,0:0:0:0:
194,26,72624,1,0,0:0:0:0:
192,30,72702,1,0,0:0:0:0:
215,39,72781,1,8,0:0:0:0:
192,32,72938,1,0,0:0:0:0:
193,29,73016,1,0,0:0:0:0:
215,39,73095,1,8,0:0:0:0:
215,39,73174,1,2,0:0:0:0:
193,29,73252,1,0,0:0:0:0:
178,8,73409,1,2,0:0:0:0:
201,47,73488,1,2,0:0:0:0:
192,32,73566,1,0,0:0:0:0:
178,8,73645,1,0,0:0:0:0:
201,47,73723,1,0,0:0:0:0:
178,8,73802,1,0,0:0:0:0:
178,8,73880,1,8,0:0:0:0:
178,8,73959,1,2,0:0:0:0:
178,8,74037,1,0,0:0:0:0:
178,8,74116,1,0,0:0:0:0:
190,22,74194,1,0,0:0:0:0:
178,8,74273,1,0,0:0:0:0:
178,8,74352,1,8,0:0:0:0:
178,8,74430,1,2,0:0:0:0:
178,8,74509,1,0,0:0:0:0:
178,8,74587,1,0,0:0:0:0:
178,8,74666,1,2,0:0:0:0:
178,8,74744,1,0,0:0:0:0:
178,8,74823,1,0,0:0:0:0:
178,8,74901,1,0,0:0:0:0:
178,8,74980,1,2,0:0:0:0:
178,8,75058,1,2,0:0:0:0:
178,8,75137,1,0,0:0:0:0:
178,8,75215,1,2,0:0:0:0:
178,8,75294,1,0,0:0:0:0:
178,8,75372,1,0,0:0:0:0:
178,8,75451,1,2,0:0:0:0:
178,8,75530,1,0,0:0:0:0:
215,39,75608,1,8,0:0:0:0:
215,39,75765,5,4,0:0:0:0:
215,39,76079,1,0,0:0:0:0:
215,39,76236,1,8,0:0:0:0:
215,39,76393,1,0,0:0:0:0:
215,39,76472,1,0,0:0:0:0:
215,39,76550,1,0,0:0:0:0:
197,39,76708,1,0,0:0:0:0:
215,39,76865,1,8,0:0:0:0:
215,39,77022,1,2,0:0:0:0:
215,39,77100,1,8,0:0:0:0:
215,39,77179,1,0,0:0:0:0:
215,39,77336,1,0,0:0:0:0:
213,38,77414,1,0,0:0:0:0:
215,39,77493,1,8,0:0:0:0:
204,7,77650,1,8,0:0:0:0:
215,39,77807,1,0,0:0:0:0:
215,39,77886,1,0,0:0:0:0:
215,39,77964,1,0,0:0:0:0:
215,39,78043,1,0,0:0:0:0:
215,39,78121,1,8,0:0:0:0:
215,39,78278,5,4,0:0:0:0:
215,39,78592,1,0,0:0:0:0:
215,39,78749,1,8,0:0:0:0:
215,39,78907,1,0,0:0:0:0:
215,39,78985,1,0,0:0:0:0:
215,39,79064,1,0,0:0:0:0:
224,64,79221,1,0,0:0:0:0:
215,39,79378,1,8,0:0:0:0:
215,39,79535,1,0,0:0:0:0:
215,39,79613,1,0,0:0:0:0:
215,39,79692,1,8,0:0:0:0:
213,36,79770,1,8,0:0:0:0:
215,39,79849,1,0,0:0:0:0:
215,39,80006,1,8,0:0:0:0:
224,64,80163,1,0,0:0:0:0:
215,39,80320,1,2,0:0:0:0:
215,39,80399,1,2,0:0:0:0:
215,39,80477,1,8,0:0:0:0:
215,39,80556,1,8,0:0:0:0:
215,39,80634,1,8,0:0:0:0:
215,39,80791,5,4,0:0:0:0:
215,39,81105,1,0,0:0:0:0:
215,39,81263,1,8,0:0:0:0:
192,0,81420,1,0,0:0:0:0:
212,36,81498,1,0,0:0:0:0:
214,38,81577,1,0,0:0:0:0:
192,32,81734,1,0,0:0:0:0:
214,38,81891,1,8,0:0:0:0:
214,38,82048,1,8,0:0:0:0:
192,0,82126,1,8,0:0:0:0:
214,39,82205,1,0,0:0:0:0:
214,39,82362,1,0,0:0:0:0:
214,39,82441,1,0,0:0:0:0:
214,39,82519,1,8,0:0:0:0:
214,39,82676,1,0,0:0:0:0:
201,26,82755,1,8,0:0:0:0:
201,26,82833,1,0,0:0:0:0:
201,26,82912,1,0,0:0:0:0:
201,26,82990,1,8,0:0:0:0:
201,26,83069,1,2,0:0:0:0:
214,39,83147,1,8,0:0:0:0:
214,39,83304,5,4,0:0:0:0:
215,40,83619,1,0,0:0:0:0:
215,40,83697,1,0,0:0:0:0:
215,40,83776,1,8,0:0:0:0:
215,40,83933,1,0,0:0:0:0:
215,40,84011,1,0,0:0:0:0:
215,40,84090,1,8,0:0:0:0:
215,40,84247,1,8,0:0:0:0:
215,40,84404,1,0,0:0:0:0:
215,40,84482,1,0,0:0:0:0:
215,40,84561,1,0,0:0:0:0:
215,40,84639,1,0,0:0:0:0:
215,40,84718,1,8,0:0:0:0:
215,40,84875,1,0,0:0:0:0:
213,38,84954,1,0,0:0:0:0:
215,39,85032,1,8,0:0:0:0:
215,39,85189,1,8,0:0:0:0:
215,39,85346,1,0,0:0:0:0:
213,37,85425,1,2,0:0:0:0:
210,35,85503,1,0,0:0:0:0:
215,39,85660,1,0,0:0:0:0:
215,39,85817,1,0,0:0:0:0:
212,37,85896,1,0,0:0:0:0:
209,56,85975,1,8,0:0:0:0:
215,39,86053,1,0,0:0:0:0:
181,66,86132,1,0,0:0:0:0:
215,39,86210,1,0,0:0:0:0:
215,39,86289,1,8,0:0:0:0:
215,39,86367,1,8,0:0:0:0:
204,75,86446,1,0,0:0:0:0:
215,39,86524,1,0,0:0:0:0:
215,39,86603,1,8,0:0:0:0:
215,39,86760,1,0,0:0:0:0:
215,39,86839,1,0,0:0:0:0:
215,39,86917,1,8,0:0:0:0:
215,39,86996,1,0,0:0:0:0:
215,39,87074,1,0,0:0:0:0:
215,39,87153,1,0,0:0:0:0:
202,30,87231,1,8,0:0:0:0:
192,34,87466,1,8,0:0:0:0:
202,30,87544,1,0,0:0:0:0:
200,32,87623,1,8,0:0:0:0:
198,35,87702,1,0,0:0:0:0:
196,38,87780,1,0,0:0:0:0:
194,40,87859,1,8,0:0:0:0:
190,46,88016,1,0,0:0:0:0:
215,39,88331,1,4,0:0:0:0:
