osu file format v14

[General]
AudioFilename: audio.mp3
AudioLeadIn: 0
PreviewTime: 55575
Countdown: 0
SampleSet: Normal
StackLeniency: 0.7
Mode: 1
LetterboxInBreaks: 0
WidescreenStoryboard: 1

[Editor]
Bookmarks: 25496
DistanceSpacing: 0.7
BeatDivisor: 4
GridSize: 32
TimelineZoom: 3.499999

[Metadata]
Title:ADAMAS (TV Size)
TitleUnicode:ADAMAS (TV Size)
Artist:LiSA
ArtistUnicode:LiSA
Creator:-Sh1n1-
Version:INNER ONI ONLINE
Source:ソードアート・オンライン アリシゼーション
Tags:shini sword art online sao alicization season three 3 kirito asuna eugeo alice opening op1 nardoxyribonucleic qoot8123 tasuke912 judydanny volta flying_pan faputa juda anime japanese
BeatmapID:1905437
BeatmapSetID:869726

[Difficulty]
HPDrainRate:6.5
CircleSize:5
OverallDifficulty:6.5
ApproachRate:5
SliderMultiplier:1.4
SliderTickRate:1

[Events]
//Background and Video events
0,0,"SwordBG.jpg",0,100
//Break Periods
//Storyboard Layer 0 (Background)
//Storyboard Layer 1 (Fail)
//Storyboard Layer 2 (Pass)
//Storyboard Layer 3 (Foreground)
//Storyboard Layer 4 (Overlay)
//Storyboard Sound Samples

[TimingPoints]
537,314.13612565445,4,1,0,65,1,0
5392,314.13612565445,4,1,0,80,1,8
5549,314.13612565445,4,1,0,80,1,0
55661,314.13612565445,4,1,0,90,1,9
55661,-100,4,1,0,90,0,1
55818,314.13612565445,4,1,0,90,1,1
75765,-100,4,1,0,80,0,0

[HitObjects]
256,192,537,5,0,0:0:0:0:
256,192,694,1,0,0:0:0:0:
256,192,851,1,8,0:0:0:0:
256,192,1008,1,0,0:0:0:0:
256,192,1165,1,8,0:0:0:0:
256,192,1479,1,8,0:0:0:0:
256,192,1636,1,8,0:0:0:0:
256,192,1715,1,8,0:0:0:0:
256,192,1793,1,0,0:0:0:0:
256,192,1950,1,0,0:0:0:0:
256,192,2107,1,8,0:0:0:0:
256,192,2421,1,0,0:0:0:0:
256,192,2578,1,0,0:0:0:0:
256,192,2735,1,8,0:0:0:0:
256,192,2893,1,0,0:0:0:0:
256,192,2971,1,0,0:0:0:0:
256,192,3050,1,8,0:0:0:0:
256,192,3207,1,0,0:0:0:0:
256,192,3364,1,8,0:0:0:0:
256,192,3521,1,8,0:0:0:0:
256,192,3678,1,0,0:0:0:0:
256,192,3992,1,8,0:0:0:0:
256,192,4149,1,0,0:0:0:0:
256,192,4306,1,8,0:0:0:0:
256,192,4385,1,8,0:0:0:0:
256,192,4463,1,0,0:0:0:0:
256,192,4542,1,0,0:0:0:0:
256,192,4620,1,8,0:0:0:0:
256,192,4777,1,0,0:0:0:0:
256,192,5392,1,4,0:0:0:0:
256,192,5706,1,0,0:0:0:0:
256,192,5863,1,8,0:0:0:0:
256,192,6020,1,0,0:0:0:0:
256,192,6098,1,0,0:0:0:0:
256,192,6177,1,8,0:0:0:0:
256,192,6334,1,0,0:0:0:0:
256,192,6491,1,8,0:0:0:0:
256,192,6570,1,0,0:0:0:0:
256,192,6648,1,0,0:0:0:0:
256,192,6727,1,0,0:0:0:0:
256,192,6805,1,8,0:0:0:0:
256,192,6962,1,0,0:0:0:0:
256,192,7119,1,8,0:0:0:0:
256,192,7198,1,8,0:0:0:0:
256,192,7276,1,0,0:0:0:0:
256,192,7355,1,0,0:0:0:0:
256,192,7433,1,8,0:0:0:0:
256,192,7591,1,8,0:0:0:0:
256,192,7669,1,8,0:0:0:0:
256,192,7748,1,8,0:0:0:0:
256,192,7905,1,0,0:0:0:0:
256,192,8219,1,0,0:0:0:0:
256,192,8376,1,8,0:0:0:0:
256,192,8533,1,8,0:0:0:0:
256,192,8612,1,8,0:0:0:0:
256,192,8690,1,0,0:0:0:0:
256,192,8847,1,0,0:0:0:0:
256,192,9004,1,8,0:0:0:0:
256,192,9083,1,8,0:0:0:0:
256,192,9161,1,8,0:0:0:0:
256,192,9240,1,0,0:0:0:0:
256,192,9318,1,8,0:0:0:0:
256,192,9475,1,0,0:0:0:0:
256,192,9632,1,8,0:0:0:0:
256,192,9711,1,8,0:0:0:0:
256,192,9790,1,0,0:0:0:0:
256,192,9947,1,8,0:0:0:0:
256,192,10025,1,0,0:0:0:0:
256,192,10104,1,8,0:0:0:0:
256,192,10182,1,8,0:0:0:0:
256,192,10261,1,0,0:0:0:0:
256,192,10339,1,8,0:0:0:0:
256,192,10418,1,0,0:0:0:0:
256,192,10732,1,0,0:0:0:0:
256,192,10889,1,8,0:0:0:0:
256,192,11046,1,0,0:0:0:0:
256,192,11125,1,0,0:0:0:0:
256,192,11203,1,8,0:0:0:0:
256,192,11360,1,0,0:0:0:0:
256,192,11517,1,8,0:0:0:0:
256,192,11596,1,8,0:0:0:0:
256,192,11674,1,0,0:0:0:0:
256,192,11753,1,0,0:0:0:0:
256,192,11831,1,8,0:0:0:0:
256,192,11988,1,8,0:0:0:0:
256,192,12146,1,0,0:0:0:0:
256,192,12224,1,0,0:0:0:0:
256,192,12303,1,8,0:0:0:0:
256,192,12381,1,0,0:0:0:0:
256,192,12460,1,8,0:0:0:0:
256,192,12538,1,8,0:0:0:0:
256,192,12617,1,0,0:0:0:0:
256,192,12695,1,0,0:0:0:0:
256,192,12774,1,8,0:0:0:0:
256,192,12931,1,4,0:0:0:0:
256,192,13245,1,0,0:0:0:0:
256,192,13402,1,8,0:0:0:0:
256,192,13559,1,0,0:0:0:0:
256,192,13638,1,8,0:0:0:0:
256,192,13716,1,8,0:0:0:0:
256,192,13873,1,0,0:0:0:0:
256,192,14030,1,8,0:0:0:0:
256,192,14109,1,8,0:0:0:0:
256,192,14187,1,0,0:0:0:0:
256,192,14344,1,8,0:0:0:0:
256,192,14423,1,8,0:0:0:0:
256,192,14502,1,0,0:0:0:0:
256,192,14580,1,0,0:0:0:0:
256,192,14659,1,8,0:0:0:0:
256,192,14816,1,8,0:0:0:0:
256,192,14973,1,0,0:0:0:0:
256,192,15051,1,0,0:0:0:0:
256,192,15130,1,0,0:0:0:0:
256,192,15287,1,12,0:0:0:0:
256,192,15444,1,0,0:0:0:0:
256,192,15758,1,0,0:0:0:0:
256,192,15915,1,8,0:0:0:0:
256,192,16229,1,8,0:0:0:0:
256,192,16386,1,0,0:0:0:0:
256,192,16543,1,8,0:0:0:0:
256,192,16857,1,0,0:0:0:0:
256,192,17014,1,0,0:0:0:0:
256,192,17172,1,8,0:0:0:0:
256,192,17329,1,8,0:0:0:0:
256,192,17486,1,0,0:0:0:0:
256,192,17643,1,0,0:0:0:0:
256,192,17800,1,8,0:0:0:0:
256,192,17957,1,0,0:0:0:0:
256,192,18114,1,8,0:0:0:0:
256,192,18428,1,8,0:0:0:0:
256,192,18742,1,0,0:0:0:0:
256,192,18899,1,0,0:0:0:0:
256,192,19056,1,8,0:0:0:0:
256,192,19370,1,8,0:0:0:0:
256,192,19528,1,8,0:0:0:0:
256,192,19685,1,0,0:0:0:0:
256,192,19842,1,0,0:0:0:0:
256,192,19999,5,8,0:0:0:0:
256,192,20155,1,0,0:0:0:0:
256,192,20234,1,0,0:0:0:0:
256,192,20313,1,8,0:0:0:0:
256,192,20470,1,0,0:0:0:0:
256,192,20627,1,8,0:0:0:0:
256,192,20941,1,8,0:0:0:0:
256,192,21255,1,8,0:0:0:0:
256,192,21412,1,0,0:0:0:0:
256,192,21569,1,8,0:0:0:0:
256,192,21884,1,0,0:0:0:0:
256,192,22041,1,0,0:0:0:0:
256,192,22198,1,8,0:0:0:0:
256,192,22355,1,8,0:0:0:0:
256,192,22512,1,0,0:0:0:0:
256,192,22669,1,0,0:0:0:0:
256,192,22826,1,8,0:0:0:0:
256,192,22983,1,0,0:0:0:0:
256,192,23140,1,8,0:0:0:0:
256,192,23454,1,8,0:0:0:0:
256,192,23611,1,0,0:0:0:0:
256,192,23690,1,0,0:0:0:0:
256,192,23768,1,8,0:0:0:0:
256,192,23847,1,8,0:0:0:0:
256,192,23925,1,0,0:0:0:0:
256,192,24083,1,8,0:0:0:0:
256,192,24240,5,4,0:0:0:0:
256,192,24554,1,8,0:0:0:0:
256,192,24868,1,8,0:0:0:0:
256,192,25182,1,0,0:0:0:0:
256,192,25339,1,0,0:0:0:0:
256,192,25496,1,12,0:0:0:0:
256,192,25810,1,0,0:0:0:0:
256,192,25967,1,8,0:0:0:0:
256,192,26124,1,0,0:0:0:0:
256,192,26203,1,0,0:0:0:0:
256,192,26281,1,0,0:0:0:0:
256,192,26438,1,0,0:0:0:0:
256,192,26595,1,8,0:0:0:0:
256,192,26752,1,0,0:0:0:0:
256,192,26831,1,0,0:0:0:0:
256,192,26909,1,8,0:0:0:0:
256,192,27066,1,0,0:0:0:0:
256,192,27145,1,0,0:0:0:0:
256,192,27224,1,8,0:0:0:0:
256,192,27382,1,8,0:0:0:0:
256,192,27539,1,0,0:0:0:0:
256,192,27696,1,0,0:0:0:0:
256,192,27853,1,8,0:0:0:0:
256,192,28010,1,0,0:0:0:0:
256,192,28324,1,0,0:0:0:0:
256,192,28481,1,8,0:0:0:0:
256,192,28638,1,0,0:0:0:0:
256,192,28717,1,0,0:0:0:0:
256,192,28795,1,0,0:0:0:0:
256,192,28951,1,0,0:0:0:0:
256,192,29108,1,8,0:0:0:0:
256,192,29265,1,8,0:0:0:0:
256,192,29344,1,8,0:0:0:0:
256,192,29422,1,0,0:0:0:0:
256,192,29580,1,0,0:0:0:0:
256,192,29658,1,0,0:0:0:0:
256,192,29737,1,8,0:0:0:0:
256,192,29894,1,8,0:0:0:0:
256,192,30051,1,0,0:0:0:0:
256,192,30208,1,0,0:0:0:0:
256,192,30365,1,8,0:0:0:0:
256,192,30522,1,0,0:0:0:0:
256,192,30836,1,0,0:0:0:0:
256,192,30993,1,8,0:0:0:0:
256,192,31150,1,0,0:0:0:0:
256,192,31229,1,0,0:0:0:0:
256,192,31307,1,8,0:0:0:0:
256,192,31464,1,0,0:0:0:0:
256,192,31621,1,8,0:0:0:0:
256,192,31779,1,8,0:0:0:0:
256,192,31936,1,0,0:0:0:0:
256,192,32014,1,8,0:0:0:0:
256,192,32093,1,8,0:0:0:0:
256,192,32171,1,0,0:0:0:0:
256,192,32250,1,8,0:0:0:0:
256,192,32408,1,8,0:0:0:0:
256,192,32486,1,8,0:0:0:0:
256,192,32565,1,0,0:0:0:0:
256,192,32722,1,0,0:0:0:0:
256,192,32878,1,8,0:0:0:0:
256,192,33193,1,12,0:0:0:0:
256,192,33350,1,0,0:0:0:0:
256,192,33507,1,8,0:0:0:0:
256,192,33663,1,0,0:0:0:0:
256,192,33742,1,0,0:0:0:0:
256,192,33821,1,8,0:0:0:0:
256,192,33978,1,0,0:0:0:0:
256,192,34135,1,8,0:0:0:0:
256,192,34292,1,8,0:0:0:0:
256,192,34450,1,4,0:0:0:0:
256,192,34607,1,8,0:0:0:0:
256,192,34685,1,8,0:0:0:0:
256,192,34764,1,8,0:0:0:0:
256,192,34921,1,0,0:0:0:0:
256,192,35078,1,0,0:0:0:0:
256,192,35156,1,8,0:0:0:0:
256,192,35235,1,8,0:0:0:0:
256,192,35313,1,0,0:0:0:0:
256,192,35392,1,8,0:0:0:0:
256,192,35471,1,0,0:0:0:0:
256,192,35549,1,0,0:0:0:0:
256,192,35706,1,12,0:0:0:0:
256,192,36020,1,0,0:0:0:0:
256,192,36177,1,0,0:0:0:0:
256,192,36334,1,8,0:0:0:0:
256,192,36648,1,0,0:0:0:0:
256,192,36805,1,0,0:0:0:0:
256,192,36883,1,0,0:0:0:0:
256,192,36962,1,8,0:0:0:0:
256,192,37119,1,0,0:0:0:0:
256,192,37276,1,8,0:0:0:0:
256,192,37433,1,0,0:0:0:0:
256,192,37590,1,0,0:0:0:0:
256,192,37905,1,8,0:0:0:0:
256,192,38062,1,8,0:0:0:0:
256,192,38140,1,8,0:0:0:0:
256,192,38219,1,8,0:0:0:0:
256,192,38376,1,0,0:0:0:0:
256,192,38533,1,8,0:0:0:0:
256,192,38690,1,8,0:0:0:0:
256,192,38847,1,0,0:0:0:0:
256,192,39161,1,8,0:0:0:0:
256,192,39475,1,8,0:0:0:0:
256,192,39632,1,0,0:0:0:0:
256,192,39711,1,0,0:0:0:0:
256,192,39789,1,0,0:0:0:0:
256,192,39946,1,8,0:0:0:0:
256,192,40103,1,0,0:0:0:0:
256,192,40261,1,8,0:0:0:0:
256,192,40340,1,8,0:0:0:0:
256,192,40418,1,0,0:0:0:0:
256,192,40575,1,8,0:0:0:0:
256,192,40732,1,12,0:0:0:0:
256,192,41046,1,0,0:0:0:0:
256,192,41203,1,0,0:0:0:0:
256,192,41360,1,8,0:0:0:0:
256,192,41674,1,0,0:0:0:0:
256,192,41831,1,0,0:0:0:0:
256,192,41910,1,0,0:0:0:0:
256,192,41988,1,8,0:0:0:0:
256,192,42145,1,0,0:0:0:0:
256,192,42302,1,8,0:0:0:0:
256,192,42459,1,0,0:0:0:0:
256,192,42617,1,0,0:0:0:0:
256,192,42931,1,8,0:0:0:0:
256,192,43088,1,8,0:0:0:0:
256,192,43166,1,8,0:0:0:0:
256,192,43245,1,8,0:0:0:0:
256,192,43402,1,0,0:0:0:0:
256,192,43559,1,8,0:0:0:0:
256,192,43716,1,8,0:0:0:0:
256,192,43873,1,0,0:0:0:0:
256,192,44187,1,8,0:0:0:0:
256,192,44501,1,8,0:0:0:0:
256,192,44658,1,0,0:0:0:0:
256,192,44737,1,0,0:0:0:0:
256,192,44816,1,8,0:0:0:0:
256,192,44973,1,8,0:0:0:0:
256,192,45051,1,0,0:0:0:0:
256,192,45130,1,8,0:0:0:0:
256,192,45287,1,0,0:0:0:0:
256,192,45444,1,8,0:0:0:0:
256,192,45522,1,8,0:0:0:0:
256,192,45601,1,0,0:0:0:0:
256,192,45679,1,0,0:0:0:0:
256,192,45758,1,8,0:0:0:0:
256,192,46072,1,8,0:0:0:0:
256,192,46229,1,8,0:0:0:0:
256,192,46308,1,8,0:0:0:0:
256,192,46386,1,0,0:0:0:0:
256,192,46543,1,0,0:0:0:0:
256,192,46700,1,8,0:0:0:0:
256,192,46857,1,0,0:0:0:0:
256,192,46936,1,0,0:0:0:0:
256,192,47014,1,8,0:0:0:0:
256,192,47172,1,0,0:0:0:0:
256,192,47329,1,8,0:0:0:0:
256,192,47486,1,8,0:0:0:0:
256,192,47643,1,0,0:0:0:0:
256,192,47957,1,8,0:0:0:0:
256,192,48114,1,8,0:0:0:0:
256,192,48192,1,8,0:0:0:0:
256,192,48271,1,0,0:0:0:0:
256,192,48428,1,0,0:0:0:0:
256,192,48585,1,8,0:0:0:0:
256,192,48742,1,0,0:0:0:0:
256,192,48899,1,8,0:0:0:0:
256,192,49213,1,8,0:0:0:0:
256,192,49370,1,0,0:0:0:0:
256,192,49449,1,0,0:0:0:0:
256,192,49528,1,8,0:0:0:0:
256,192,49685,1,0,0:0:0:0:
256,192,49842,1,8,0:0:0:0:
256,192,49920,1,8,0:0:0:0:
256,192,49999,1,0,0:0:0:0:
256,192,50156,1,8,0:0:0:0:
256,192,50234,1,0,0:0:0:0:
256,192,50313,1,0,0:0:0:0:
256,192,50391,1,0,0:0:0:0:
256,192,50470,1,8,0:0:0:0:
256,192,50548,1,8,0:0:0:0:
256,192,50627,1,0,0:0:0:0:
256,192,50706,1,0,0:0:0:0:
256,192,50784,1,8,0:0:0:0:
256,192,50941,1,0,0:0:0:0:
256,192,51020,1,0,0:0:0:0:
256,192,51098,1,0,0:0:0:0:
256,192,51255,1,8,0:0:0:0:
256,192,51412,1,8,0:0:0:0:
256,192,51491,1,8,0:0:0:0:
256,192,51569,1,0,0:0:0:0:
256,192,51727,1,8,0:0:0:0:
256,192,51806,1,0,0:0:0:0:
256,192,51884,1,8,0:0:0:0:
256,192,51963,1,0,0:0:0:0:
256,192,52041,1,8,0:0:0:0:
256,192,52198,1,0,0:0:0:0:
256,192,52355,1,8,0:0:0:0:
256,192,52512,1,8,0:0:0:0:
256,192,52591,1,0,0:0:0:0:
256,192,52670,1,8,0:0:0:0:
256,192,52748,1,8,0:0:0:0:
256,192,52827,1,0,0:0:0:0:
256,192,52984,1,0,0:0:0:0:
256,192,53141,1,8,0:0:0:0:
256,192,53298,1,8,0:0:0:0:
256,192,53376,1,8,0:0:0:0:
256,192,53455,1,0,0:0:0:0:
256,192,53533,1,0,0:0:0:0:
256,192,53612,1,0,0:0:0:0:
256,192,53691,1,0,0:0:0:0:
256,192,53769,1,8,0:0:0:0:
256,192,53848,1,0,0:0:0:0:
256,192,53926,1,8,0:0:0:0:
256,192,54005,1,8,0:0:0:0:
256,192,54083,1,0,0:0:0:0:
256,192,54162,1,0,0:0:0:0:
256,192,54240,1,8,0:0:0:0:
256,192,54397,1,4,0:0:0:0:
256,192,55661,5,12,0:0:0:0:
256,192,55975,1,0,0:0:0:0:
256,192,56132,1,8,0:0:0:0:
256,192,56289,1,0,0:0:0:0:
256,192,56367,1,0,0:0:0:0:
256,192,56446,1,8,0:0:0:0:
256,192,56603,1,0,0:0:0:0:
256,192,56760,1,8,0:0:0:0:
256,192,56838,1,0,0:0:0:0:
256,192,56917,1,0,0:0:0:0:
256,192,56996,1,0,0:0:0:0:
256,192,57074,1,8,0:0:0:0:
256,192,57231,1,8,0:0:0:0:
256,192,57310,1,8,0:0:0:0:
256,192,57388,1,8,0:0:0:0:
256,192,57545,1,0,0:0:0:0:
256,192,57859,1,0,0:0:0:0:
256,192,58016,1,8,0:0:0:0:
256,192,58174,1,0,0:0:0:0:
256,192,58252,1,0,0:0:0:0:
256,192,58331,1,8,0:0:0:0:
256,192,58488,1,8,0:0:0:0:
256,192,58566,1,0,0:0:0:0:
256,192,58645,1,8,0:0:0:0:
256,192,58802,1,0,0:0:0:0:
256,192,58959,1,8,0:0:0:0:
256,192,59037,1,8,0:0:0:0:
256,192,59116,1,0,0:0:0:0:
256,192,59194,1,0,0:0:0:0:
256,192,59273,1,8,0:0:0:0:
256,192,59430,1,0,0:0:0:0:
256,192,59587,1,8,0:0:0:0:
256,192,59666,1,8,0:0:0:0:
256,192,59744,1,0,0:0:0:0:
256,192,59901,1,8,0:0:0:0:
256,192,59980,1,0,0:0:0:0:
256,192,60058,1,0,0:0:0:0:
256,192,60215,1,0,0:0:0:0:
256,192,60294,1,8,0:0:0:0:
256,192,60372,1,0,0:0:0:0:
256,192,60451,1,0,0:0:0:0:
256,192,60530,1,8,0:0:0:0:
256,192,60608,1,8,0:0:0:0:
256,192,60687,1,8,0:0:0:0:
256,192,60765,1,0,0:0:0:0:
256,192,60844,1,8,0:0:0:0:
256,192,61079,1,0,0:0:0:0:
256,192,61158,1,8,0:0:0:0:
256,192,61315,1,0,0:0:0:0:
256,192,61393,1,0,0:0:0:0:
256,192,61472,1,8,0:0:0:0:
256,192,61629,1,0,0:0:0:0:
256,192,61786,1,8,0:0:0:0:
256,192,61943,1,0,0:0:0:0:
256,192,62022,1,8,0:0:0:0:
256,192,62100,1,8,0:0:0:0:
256,192,62257,1,0,0:0:0:0:
256,192,62414,1,8,0:0:0:0:
256,192,62571,1,0,0:0:0:0:
256,192,62728,1,8,0:0:0:0:
256,192,62807,1,8,0:0:0:0:
256,192,62886,1,0,0:0:0:0:
256,192,62964,1,0,0:0:0:0:
256,192,63043,1,8,0:0:0:0:
256,192,63200,1,8,0:0:0:0:
256,192,63278,1,0,0:0:0:0:
256,192,63357,1,0,0:0:0:0:
256,192,63514,1,8,0:0:0:0:
256,192,63671,1,0,0:0:0:0:
256,192,63749,1,0,0:0:0:0:
256,192,63828,1,8,0:0:0:0:
256,192,63907,1,8,0:0:0:0:
256,192,63985,1,0,0:0:0:0:
256,192,64064,1,8,0:0:0:0:
256,192,64142,1,0,0:0:0:0:
256,192,64221,1,0,0:0:0:0:
256,192,64299,1,8,0:0:0:0:
256,192,64456,1,4,0:0:0:0:
256,192,64770,1,12,0:0:0:0:
256,192,65085,1,4,0:0:0:0:
256,192,65399,1,12,0:0:0:0:
256,192,65713,1,4,0:0:0:0:
256,192,66027,1,0,0:0:0:0:
256,192,66184,1,8,0:0:0:0:
256,192,66341,1,8,0:0:0:0:
256,192,66420,1,8,0:0:0:0:
256,192,66498,1,0,0:0:0:0:
256,192,66812,1,8,0:0:0:0:
256,192,66969,1,8,0:0:0:0:
256,192,67126,1,0,0:0:0:0:
256,192,67283,1,0,0:0:0:0:
256,192,67441,1,8,0:0:0:0:
256,192,67755,1,0,0:0:0:0:
256,192,67912,1,0,0:0:0:0:
256,192,67990,1,0,0:0:0:0:
256,192,68069,1,8,0:0:0:0:
256,192,68226,1,4,0:0:0:0:
256,192,68540,1,0,0:0:0:0:
256,192,68697,1,8,0:0:0:0:
256,192,68854,1,8,0:0:0:0:
256,192,68933,1,8,0:0:0:0:
256,192,69011,1,0,0:0:0:0:
256,192,69168,1,0,0:0:0:0:
256,192,69325,1,8,0:0:0:0:
256,192,69482,1,0,0:0:0:0:
256,192,69639,1,8,0:0:0:0:
256,192,69718,1,8,0:0:0:0:
256,192,69797,1,0,0:0:0:0:
256,192,69875,1,0,0:0:0:0:
256,192,69954,1,8,0:0:0:0:
256,192,70032,1,0,0:0:0:0:
256,192,70111,1,8,0:0:0:0:
256,192,70189,1,8,0:0:0:0:
256,192,70268,1,0,0:0:0:0:
256,192,70346,1,8,0:0:0:0:
256,192,70425,1,8,0:0:0:0:
256,192,70503,1,0,0:0:0:0:
256,192,70582,1,8,0:0:0:0:
256,192,70660,1,8,0:0:0:0:
256,192,70739,1,0,0:0:0:0:
256,192,70817,1,0,0:0:0:0:
256,192,70896,1,8,0:0:0:0:
256,192,71053,1,0,0:0:0:0:
256,192,71132,1,0,0:0:0:0:
256,192,71210,1,8,0:0:0:0:
256,192,71366,1,8,0:0:0:0:
256,192,71445,1,0,0:0:0:0:
256,192,71523,1,8,0:0:0:0:
256,192,71602,1,8,0:0:0:0:
256,192,71681,1,0,0:0:0:0:
256,192,71838,1,8,0:0:0:0:
256,192,71996,1,8,0:0:0:0:
256,192,72074,1,0,0:0:0:0:
256,192,72153,1,0,0:0:0:0:
256,192,72310,1,8,0:0:0:0:
256,192,72467,1,8,0:0:0:0:
256,192,72545,1,8,0:0:0:0:
256,192,72624,1,0,0:0:0:0:
256,192,72781,1,8,0:0:0:0:
256,192,72860,1,8,0:0:0:0:
256,192,72938,1,0,0:0:0:0:
256,192,73017,1,0,0:0:0:0:
256,192,73095,1,8,0:0:0:0:
256,192,73252,1,0,0:0:0:0:
256,192,73409,1,0,0:0:0:0:
256,192,73488,1,0,0:0:0:0:
256,192,73566,1,8,0:0:0:0:
256,192,73645,1,0,0:0:0:0:
256,192,73723,1,8,0:0:0:0:
256,192,73881,1,8,0:0:0:0:
256,192,74038,1,8,0:0:0:0:
256,192,74116,1,8,0:0:0:0:
256,192,74195,1,0,0:0:0:0:
256,192,74352,1,8,0:0:0:0:
256,192,74509,1,8,0:0:0:0:
256,192,74587,1,0,0:0:0:0:
256,192,74666,1,8,0:0:0:0:
256,192,74744,1,0,0:0:0:0:
256,192,74823,1,8,0:0:0:0:
256,192,74901,1,8,0:0:0:0:
256,192,74980,1,0,0:0:0:0:
256,192,75059,1,8,0:0:0:0:
256,192,75137,1,0,0:0:0:0:
256,192,75216,1,8,0:0:0:0:
256,192,75294,1,0,0:0:0:0:
256,192,75373,1,0,0:0:0:0:
256,192,75451,1,8,0:0:0:0:
256,192,75530,1,8,0:0:0:0:
256,192,75608,1,0,0:0:0:0:
256,192,75765,1,12,0:0:0:0:
256,192,76079,1,0,0:0:0:0:
256,192,76237,1,8,0:0:0:0:
256,192,76394,1,0,0:0:0:0:
256,192,76472,1,8,0:0:0:0:
256,192,76551,1,0,0:0:0:0:
256,192,76708,1,0,0:0:0:0:
256,192,76786,1,8,0:0:0:0:
256,192,76865,1,8,0:0:0:0:
256,192,77022,1,0,0:0:0:0:
256,192,77179,1,0,0:0:0:0:
256,192,77257,1,0,0:0:0:0:
256,192,77336,1,8,0:0:0:0:
256,192,77493,1,8,0:0:0:0:
256,192,77650,1,0,0:0:0:0:
256,192,77729,1,8,0:0:0:0:
256,192,77807,1,0,0:0:0:0:
256,192,77886,1,0,0:0:0:0:
256,192,77964,1,8,0:0:0:0:
256,192,78043,1,0,0:0:0:0:
256,192,78121,1,8,0:0:0:0:
256,192,78278,1,4,0:0:0:0:
256,192,78593,1,0,0:0:0:0:
256,192,78750,1,8,0:0:0:0:
256,192,78828,1,8,0:0:0:0:
256,192,78907,1,0,0:0:0:0:
256,192,78985,1,0,0:0:0:0:
256,192,79064,1,0,0:0:0:0:
256,192,79221,1,0,0:0:0:0:
256,192,79299,1,0,0:0:0:0:
256,192,79378,1,8,0:0:0:0:
256,192,79535,1,8,0:0:0:0:
256,192,79692,1,8,0:0:0:0:
256,192,79770,1,8,0:0:0:0:
256,192,79849,1,0,0:0:0:0:
256,192,79928,1,0,0:0:0:0:
256,192,80006,1,8,0:0:0:0:
256,192,80163,1,0,0:0:0:0:
256,192,80320,1,0,0:0:0:0:
256,192,80399,1,0,0:0:0:0:
256,192,80477,1,8,0:0:0:0:
256,192,80556,1,0,0:0:0:0:
256,192,80634,1,8,0:0:0:0:
256,192,80791,1,4,0:0:0:0:
256,192,81105,1,0,0:0:0:0:
256,192,81262,1,8,0:0:0:0:
256,192,81419,1,0,0:0:0:0:
256,192,81497,1,0,0:0:0:0:
256,192,81576,1,8,0:0:0:0:
256,192,81733,1,0,0:0:0:0:
256,192,81811,1,0,0:0:0:0:
256,192,81890,1,8,0:0:0:0:
256,192,82047,1,0,0:0:0:0:
256,192,82204,1,8,0:0:0:0:
256,192,82283,1,8,0:0:0:0:
256,192,82361,1,0,0:0:0:0:
256,192,82440,1,0,0:0:0:0:
256,192,82518,1,8,0:0:0:0:
256,192,82597,1,0,0:0:0:0:
256,192,82675,1,8,0:0:0:0:
256,192,82754,1,8,0:0:0:0:
256,192,82832,1,0,0:0:0:0:
256,192,82911,1,0,0:0:0:0:
256,192,82989,1,8,0:0:0:0:
256,192,83068,1,0,0:0:0:0:
256,192,83147,1,8,0:0:0:0:
256,192,83304,1,4,0:0:0:0:
256,192,83619,1,0,0:0:0:0:
256,192,83776,1,8,0:0:0:0:
256,192,83933,1,0,0:0:0:0:
256,192,84011,1,8,0:0:0:0:
256,192,84090,1,8,0:0:0:0:
256,192,84247,1,0,0:0:0:0:
256,192,84404,1,8,0:0:0:0:
256,192,84483,1,8,0:0:0:0:
256,192,84561,1,0,0:0:0:0:
256,192,84718,1,8,0:0:0:0:
256,192,84797,1,8,0:0:0:0:
256,192,84875,1,0,0:0:0:0:
256,192,84954,1,0,0:0:0:0:
256,192,85032,1,8,0:0:0:0:
256,192,85189,1,8,0:0:0:0:
256,192,85346,1,0,0:0:0:0:
256,192,85425,1,8,0:0:0:0:
256,192,85504,1,0,0:0:0:0:
256,192,85582,1,0,0:0:0:0:
256,192,85661,1,8,0:0:0:0:
256,192,85818,1,0,0:0:0:0:
256,192,85975,1,8,0:0:0:0:
256,192,86053,1,0,0:0:0:0:
256,192,86132,1,0,0:0:0:0:
256,192,86210,1,0,0:0:0:0:
256,192,86289,1,8,0:0:0:0:
256,192,86367,1,8,0:0:0:0:
256,192,86446,1,0,0:0:0:0:
256,192,86524,1,0,0:0:0:0:
256,192,86603,1,8,0:0:0:0:
256,192,86682,1,0,0:0:0:0:
256,192,86760,1,0,0:0:0:0:
256,192,86839,1,0,0:0:0:0:
256,192,86917,1,8,0:0:0:0:
256,192,86996,1,8,0:0:0:0:
256,192,87074,1,0,0:0:0:0:
256,192,87153,1,0,0:0:0:0:
256,192,87231,1,8,0:0:0:0:
256,192,87467,1,0,0:0:0:0:
256,192,87545,1,8,0:0:0:0:
256,192,87624,1,0,0:0:0:0:
256,192,87702,1,0,0:0:0:0:
256,192,87781,1,8,0:0:0:0:
256,192,87860,1,0,0:0:0:0:
256,192,88017,1,8,0:0:0:0:
256,192,88331,1,4,0:0:0:0:
