osu file format v14

[General]
AudioFilename: audio.mp3
AudioLeadIn: 0
PreviewTime: 55575
Countdown: 0
SampleSet: Normal
StackLeniency: 0.7
Mode: 1
LetterboxInBreaks: 0
WidescreenStoryboard: 0

[Editor]
DistanceSpacing: 0.5
BeatDivisor: 4
GridSize: 32
TimelineZoom: 2.3

[Metadata]
Title:ADAMAS (TV Size)
TitleUnicode:ADAMAS (TV Size)
Artist:LiSA
ArtistUnicode:LiSA
Creator:-Sh1n1-
Version:FAPU'S ONI ONLINE
Source:ソードアート・オンライン アリシゼーション
Tags:shini sword art online sao alicization season three 3 kirito asuna eugeo alice opening op1 nardoxyribonucleic qoot8123 tasuke912 judydanny volta flying_pan faputa juda anime japanese
BeatmapID:1826885
BeatmapSetID:869726

[Difficulty]
HPDrainRate:5.5
CircleSize:5
OverallDifficulty:5.5
ApproachRate:5
SliderMultiplier:1.4
SliderTickRate:1

[Events]
//Background and Video events
0,0,"SwordBG.jpg",0,100
//Break Periods
//Storyboard Layer 0 (Background)
//Storyboard Layer 1 (Fail)
//Storyboard Layer 2 (Pass)
//Storyboard Layer 3 (Foreground)
//Storyboard Layer 4 (Overlay)
//Storyboard Sound Samples

[TimingPoints]
537,314.13612565445,4,1,0,65,1,0
5392,314.13612565445,4,1,0,90,1,9
5549,314.13612565445,4,1,0,90,1,1
15444,-100,4,1,0,70,0,0
25496,-100,4,1,0,80,0,0
35706,-100,4,1,0,70,0,0
45444,-100,4,1,0,80,0,0
55661,314.13612565445,4,1,0,90,1,9
55818,314.13612565445,4,1,0,90,1,1
64456,-100,4,1,0,80,0,0
65713,-100,4,1,0,90,0,1
70896,-100,4,1,0,80,0,0
74666,-100,4,1,0,85,0,0
75765,-100,4,1,0,90,0,1
87231,-100,4,1,0,80,0,0

[HitObjects]
255,192,537,5,8,0:0:0:0:
255,192,851,1,0,0:0:0:0:
255,192,1008,1,8,0:0:0:0:
255,192,1322,1,0,0:0:0:0:
255,192,1479,1,8,0:0:0:0:
255,192,1793,1,0,0:0:0:0:
255,192,1950,1,8,0:0:0:0:
255,192,2264,1,0,0:0:0:0:
255,192,2421,1,8,0:0:0:0:
255,192,2735,1,8,0:0:0:0:
255,192,3050,1,8,0:0:0:0:
255,192,3364,1,0,0:0:0:0:
255,192,3521,1,8,0:0:0:0:
255,192,3835,1,0,0:0:0:0:
255,192,3992,1,8,0:0:0:0:
255,192,4306,1,8,0:0:0:0:
255,192,4463,1,8,0:0:0:0:
255,192,4620,1,0,0:0:0:0:
255,192,4777,1,8,0:0:0:0:
255,192,5392,1,12,0:0:0:0:
255,192,5863,1,8,0:0:0:0:
255,192,6177,1,8,0:0:0:0:
255,192,6491,1,0,0:0:0:0:
255,192,6805,1,8,0:0:0:0:
255,192,6962,1,0,0:0:0:0:
255,192,7119,1,8,0:0:0:0:
255,192,7433,1,0,0:0:0:0:
255,192,7512,1,0,0:0:0:0:
255,192,7590,1,8,0:0:0:0:
255,192,7747,1,8,0:0:0:0:
255,192,7905,1,0,0:0:0:0:
255,192,8219,1,0,0:0:0:0:
255,192,8376,1,8,0:0:0:0:
255,192,8690,1,8,0:0:0:0:
255,192,9004,1,0,0:0:0:0:
255,192,9318,1,8,0:0:0:0:
255,192,9475,1,8,0:0:0:0:
255,192,9632,1,0,0:0:0:0:
255,192,9946,1,0,0:0:0:0:
255,192,10025,1,0,0:0:0:0:
255,192,10103,1,0,0:0:0:0:
255,192,10261,1,8,0:0:0:0:
255,192,10418,1,4,0:0:0:0:
255,192,10732,1,0,0:0:0:0:
255,192,10889,1,8,0:0:0:0:
255,192,11203,1,8,0:0:0:0:
255,192,11517,1,0,0:0:0:0:
255,192,11831,1,8,0:0:0:0:
255,192,11988,1,8,0:0:0:0:
255,192,12145,1,0,0:0:0:0:
255,192,12224,1,0,0:0:0:0:
255,192,12302,1,0,0:0:0:0:
255,192,12459,1,8,0:0:0:0:
255,192,12617,1,8,0:0:0:0:
255,192,12695,1,8,0:0:0:0:
255,192,12774,1,0,0:0:0:0:
255,192,12931,1,12,0:0:0:0:
255,192,13402,1,4,0:0:0:0:
255,192,13716,1,12,0:0:0:0:
255,192,14030,1,0,0:0:0:0:
255,192,14344,1,8,0:0:0:0:
255,192,14501,1,0,0:0:0:0:
255,192,14580,1,0,0:0:0:0:
255,192,14658,1,8,0:0:0:0:
255,192,14816,1,0,0:0:0:0:
255,192,14973,1,12,0:0:0:0:
255,192,15130,1,4,0:0:0:0:
255,192,15287,1,12,0:0:0:0:
255,192,15444,1,0,0:0:0:0:
255,192,15758,1,0,0:0:0:0:
255,192,15915,1,8,0:0:0:0:
255,192,16229,1,8,0:0:0:0:
255,192,16543,1,8,0:0:0:0:
255,192,16857,1,8,0:0:0:0:
255,192,17172,1,8,0:0:0:0:
255,192,17329,1,0,0:0:0:0:
255,192,17486,1,8,0:0:0:0:
255,192,17800,1,8,0:0:0:0:
255,192,17957,1,0,0:0:0:0:
255,192,18114,1,8,0:0:0:0:
255,192,18428,1,8,0:0:0:0:
255,192,18742,1,8,0:0:0:0:
255,192,19056,1,8,0:0:0:0:
255,192,19370,1,8,0:0:0:0:
255,192,19685,1,8,0:0:0:0:
255,192,19842,1,0,0:0:0:0:
255,192,19999,1,8,0:0:0:0:
255,192,20156,1,0,0:0:0:0:
255,192,20234,1,0,0:0:0:0:
255,192,20313,1,8,0:0:0:0:
255,192,20470,1,0,0:0:0:0:
255,192,20627,1,8,0:0:0:0:
255,192,20941,1,8,0:0:0:0:
255,192,21255,1,8,0:0:0:0:
255,192,21569,1,8,0:0:0:0:
255,192,21884,1,8,0:0:0:0:
255,192,22198,1,8,0:0:0:0:
255,192,22355,1,0,0:0:0:0:
255,192,22512,1,8,0:0:0:0:
255,192,22826,1,8,0:0:0:0:
255,192,22983,1,0,0:0:0:0:
255,192,23140,1,8,0:0:0:0:
255,192,23454,1,8,0:0:0:0:
255,192,23611,1,0,0:0:0:0:
255,192,23690,1,0,0:0:0:0:
255,192,23768,1,8,0:0:0:0:
255,192,23925,1,8,0:0:0:0:
255,192,24004,1,8,0:0:0:0:
255,192,24083,1,0,0:0:0:0:
255,192,24240,1,12,0:0:0:0:
256,192,24397,8,0,25339,0:0:0:0:
256,192,25496,5,4,0:0:0:0:
256,192,25810,1,8,0:0:0:0:
256,192,25967,1,8,0:0:0:0:
256,192,26281,1,8,0:0:0:0:
256,192,26439,1,8,0:0:0:0:
256,192,26596,1,0,0:0:0:0:
256,192,26753,1,8,0:0:0:0:
256,192,26910,1,0,0:0:0:0:
256,192,27067,1,0,0:0:0:0:
256,192,27224,1,8,0:0:0:0:
256,192,27381,1,8,0:0:0:0:
256,192,27538,1,0,0:0:0:0:
256,192,27695,1,8,0:0:0:0:
256,192,27852,1,0,0:0:0:0:
256,192,28009,1,8,0:0:0:0:
256,192,28323,1,0,0:0:0:0:
256,192,28480,1,0,0:0:0:0:
256,192,28795,1,8,0:0:0:0:
256,192,28952,1,8,0:0:0:0:
256,192,29109,1,8,0:0:0:0:
256,192,29266,1,0,0:0:0:0:
256,192,29423,1,8,0:0:0:0:
256,192,29580,1,8,0:0:0:0:
256,192,29737,1,0,0:0:0:0:
256,192,29894,1,0,0:0:0:0:
256,192,30051,1,8,0:0:0:0:
256,192,30208,1,0,0:0:0:0:
256,192,30365,1,8,0:0:0:0:
256,192,30522,1,0,0:0:0:0:
256,192,30836,1,8,0:0:0:0:
256,192,30994,1,8,0:0:0:0:
256,192,31151,1,8,0:0:0:0:
256,192,31308,1,0,0:0:0:0:
256,192,31465,1,0,0:0:0:0:
256,192,31622,1,8,0:0:0:0:
256,192,31779,1,0,0:0:0:0:
256,192,31936,1,8,0:0:0:0:
256,192,32093,1,0,0:0:0:0:
256,192,32250,1,8,0:0:0:0:
256,192,32407,1,8,0:0:0:0:
256,192,32564,1,0,0:0:0:0:
256,192,32721,1,8,0:0:0:0:
256,192,32878,1,0,0:0:0:0:
256,192,33192,1,8,0:0:0:0:
256,192,33507,1,0,0:0:0:0:
256,192,33664,1,8,0:0:0:0:
256,192,33821,1,0,0:0:0:0:
256,192,34135,1,8,0:0:0:0:
256,192,34292,1,0,0:0:0:0:
256,192,34449,1,8,0:0:0:0:
256,192,34606,1,0,0:0:0:0:
256,192,34685,1,8,0:0:0:0:
256,192,34763,1,8,0:0:0:0:
256,192,34920,1,0,0:0:0:0:
256,192,35077,1,8,0:0:0:0:
256,192,35234,1,0,0:0:0:0:
256,192,35391,1,8,0:0:0:0:
256,192,35706,1,4,0:0:0:0:
256,192,36020,1,0,0:0:0:0:
256,192,36334,1,8,0:0:0:0:
256,192,36648,1,8,0:0:0:0:
256,192,36962,1,0,0:0:0:0:
256,192,37433,1,8,0:0:0:0:
256,192,37905,1,0,0:0:0:0:
256,192,38062,1,8,0:0:0:0:
256,192,38140,1,8,0:0:0:0:
256,192,38219,1,0,0:0:0:0:
256,192,38533,1,0,0:0:0:0:
256,192,38847,1,8,0:0:0:0:
256,192,39161,1,0,0:0:0:0:
256,192,39475,1,8,0:0:0:0:
256,192,39946,1,8,0:0:0:0:
256,192,40261,1,0,0:0:0:0:
256,192,40575,1,0,0:0:0:0:
256,192,40653,1,0,0:0:0:0:
256,192,40732,1,8,0:0:0:0:
256,192,41046,1,8,0:0:0:0:
256,192,41203,1,8,0:0:0:0:
256,192,41674,1,8,0:0:0:0:
256,192,41831,1,0,0:0:0:0:
256,192,42145,1,0,0:0:0:0:
256,192,42302,1,8,0:0:0:0:
256,192,42459,1,8,0:0:0:0:
256,192,42931,1,8,0:0:0:0:
256,192,43088,1,8,0:0:0:0:
256,192,43166,1,8,0:0:0:0:
256,192,43245,1,0,0:0:0:0:
256,192,43559,1,0,0:0:0:0:
256,192,43873,1,8,0:0:0:0:
256,192,44187,1,8,0:0:0:0:
256,192,44501,1,8,0:0:0:0:
256,192,44658,1,0,0:0:0:0:
256,192,44816,1,0,0:0:0:0:
256,192,44973,1,8,0:0:0:0:
256,192,45130,1,0,0:0:0:0:
256,192,45287,1,8,0:0:0:0:
256,192,45444,1,8,0:0:0:0:
256,192,45522,1,8,0:0:0:0:
256,192,45601,1,8,0:0:0:0:
256,192,45758,1,0,0:0:0:0:
256,192,46072,1,8,0:0:0:0:
256,192,46229,1,0,0:0:0:0:
256,192,46386,1,8,0:0:0:0:
256,192,46700,1,0,0:0:0:0:
256,192,46857,1,0,0:0:0:0:
256,192,47014,1,8,0:0:0:0:
256,192,47329,1,8,0:0:0:0:
256,192,47486,1,8,0:0:0:0:
256,192,47643,1,0,0:0:0:0:
256,192,47957,1,8,0:0:0:0:
256,192,48114,1,0,0:0:0:0:
256,192,48192,1,0,0:0:0:0:
256,192,48271,1,0,0:0:0:0:
256,192,48585,1,8,0:0:0:0:
256,192,48899,1,0,0:0:0:0:
256,192,49213,1,8,0:0:0:0:
256,192,49370,1,8,0:0:0:0:
256,192,49528,1,0,0:0:0:0:
256,192,49685,1,0,0:0:0:0:
256,192,49842,1,8,0:0:0:0:
256,192,50156,1,4,0:0:0:0:
256,192,50470,1,4,0:0:0:0:
256,192,50784,1,12,0:0:0:0:
256,192,51098,1,0,0:0:0:0:
256,192,51255,1,12,0:0:0:0:
256,192,51569,1,0,0:0:0:0:
256,192,51727,1,12,0:0:0:0:
256,192,52041,1,12,0:0:0:0:
256,192,52355,1,0,0:0:0:0:
256,192,52512,1,12,0:0:0:0:
256,192,52669,1,0,0:0:0:0:
256,192,52826,1,0,0:0:0:0:
256,192,52983,1,12,0:0:0:0:
256,192,53297,1,12,0:0:0:0:
256,192,53454,1,0,0:0:0:0:
256,192,53533,1,0,0:0:0:0:
256,192,53611,1,0,0:0:0:0:
256,192,53768,1,12,0:0:0:0:
256,192,53925,1,0,0:0:0:0:
256,192,54004,1,0,0:0:0:0:
256,192,54083,1,0,0:0:0:0:
256,192,54240,1,8,0:0:0:0:
256,192,54397,1,12,0:0:0:0:
160,192,54711,2,0,L|448:192,1,280
256,192,55661,1,12,0:0:0:0:
256,192,55975,1,0,0:0:0:0:
256,192,56132,1,8,0:0:0:0:
256,192,56446,1,0,0:0:0:0:
256,192,56603,1,0,0:0:0:0:
256,192,56760,1,8,0:0:0:0:
256,192,56917,1,0,0:0:0:0:
256,192,56996,1,0,0:0:0:0:
256,192,57074,1,8,0:0:0:0:
224,192,57231,1,0,0:0:0:0:
256,192,57388,1,8,0:0:0:0:
256,192,57545,1,0,0:0:0:0:
256,192,57859,1,0,0:0:0:0:
256,192,58016,1,8,0:0:0:0:
256,192,58174,1,0,0:0:0:0:
256,192,58331,1,0,0:0:0:0:
256,192,58488,1,8,0:0:0:0:
256,192,58645,1,8,0:0:0:0:
256,192,58802,1,0,0:0:0:0:
256,192,58959,1,8,0:0:0:0:
256,192,59116,1,8,0:0:0:0:
256,192,59273,1,0,0:0:0:0:
256,192,59430,1,8,0:0:0:0:
256,192,59509,1,8,0:0:0:0:
256,192,59587,1,0,0:0:0:0:
256,192,59901,1,8,0:0:0:0:
256,192,60215,1,0,0:0:0:0:
256,192,60530,1,8,0:0:0:0:
256,192,60687,1,8,0:0:0:0:
256,192,60765,1,8,0:0:0:0:
256,192,60844,1,0,0:0:0:0:
256,192,61079,1,8,0:0:0:0:
256,192,61158,1,8,0:0:0:0:
256,192,61472,1,8,0:0:0:0:
256,192,61629,1,8,0:0:0:0:
256,192,61786,1,0,0:0:0:0:
256,192,61943,1,0,0:0:0:0:
256,192,62100,1,8,0:0:0:0:
256,192,62414,1,0,0:0:0:0:
256,192,62728,1,8,0:0:0:0:
256,192,62886,1,8,0:0:0:0:
256,192,63043,1,0,0:0:0:0:
256,192,63200,1,12,0:0:0:0:
256,192,63514,1,12,0:0:0:0:
256,192,63671,1,0,0:0:0:0:
256,192,63828,1,8,0:0:0:0:
256,192,63907,1,8,0:0:0:0:
256,192,63985,1,0,0:0:0:0:
256,192,64142,1,8,0:0:0:0:
256,192,64299,1,8,0:0:0:0:
256,192,64456,1,4,0:0:0:0:
256,192,64770,1,4,0:0:0:0:
256,192,65085,1,12,0:0:0:0:
256,192,65399,1,12,0:0:0:0:
256,192,65713,1,4,0:0:0:0:
256,192,66027,1,0,0:0:0:0:
256,192,66184,1,8,0:0:0:0:
256,192,66498,1,0,0:0:0:0:
256,192,66812,1,8,0:0:0:0:
256,192,66969,1,0,0:0:0:0:
256,192,67283,1,8,0:0:0:0:
256,192,67755,1,0,0:0:0:0:
256,192,67912,1,8,0:0:0:0:
256,192,68069,1,8,0:0:0:0:
256,192,68226,1,4,0:0:0:0:
256,192,68540,1,0,0:0:0:0:
256,192,68854,1,8,0:0:0:0:
256,192,69168,1,8,0:0:0:0:
256,192,69482,1,8,0:0:0:0:
256,192,69639,1,0,0:0:0:0:
256,192,69797,1,0,0:0:0:0:
256,192,69875,1,0,0:0:0:0:
256,192,69954,1,8,0:0:0:0:
256,192,70111,1,8,0:0:0:0:
256,192,70268,1,0,0:0:0:0:
256,192,70425,1,8,0:0:0:0:
256,192,70503,1,8,0:0:0:0:
256,192,70582,1,8,0:0:0:0:
256,192,70739,1,0,0:0:0:0:
256,192,70896,1,12,0:0:0:0:
256,192,71210,1,0,0:0:0:0:
256,224,71367,1,12,0:0:0:0:
256,192,71681,1,0,0:0:0:0:
256,224,71838,1,12,0:0:0:0:
256,224,72153,1,0,0:0:0:0:
256,224,72310,1,12,0:0:0:0:
256,224,72624,1,0,0:0:0:0:
256,224,72781,1,12,0:0:0:0:
256,224,72938,1,0,0:0:0:0:
256,224,73095,1,12,0:0:0:0:
256,224,73409,1,0,0:0:0:0:
256,224,73566,1,0,0:0:0:0:
256,224,73645,1,0,0:0:0:0:
256,224,73723,1,8,0:0:0:0:
256,224,73880,1,0,0:0:0:0:
256,224,74037,1,8,0:0:0:0:
256,224,74116,1,8,0:0:0:0:
256,192,74194,1,0,0:0:0:0:
256,224,74352,1,8,0:0:0:0:
256,224,74509,1,8,0:0:0:0:
256,192,74666,1,0,0:0:0:0:
256,224,74744,1,8,0:0:0:0:
256,224,74823,1,8,0:0:0:0:
256,224,74980,1,8,0:0:0:0:
256,224,75137,1,0,0:0:0:0:
256,224,75215,1,0,0:0:0:0:
256,224,75294,1,8,0:0:0:0:
256,224,75372,1,8,0:0:0:0:
256,224,75451,1,0,0:0:0:0:
256,224,75608,1,8,0:0:0:0:
255,192,75765,1,12,0:0:0:0:
255,192,76079,1,0,0:0:0:0:
255,192,76236,1,8,0:0:0:0:
256,192,76550,1,0,0:0:0:0:
255,192,76708,1,0,0:0:0:0:
255,192,76865,1,8,0:0:0:0:
255,192,77179,1,0,0:0:0:0:
255,192,77493,1,8,0:0:0:0:
255,192,77650,1,8,0:0:0:0:
255,192,77807,1,0,0:0:0:0:
255,192,77886,1,0,0:0:0:0:
255,192,77964,1,8,0:0:0:0:
255,192,78121,1,8,0:0:0:0:
255,192,78278,1,4,0:0:0:0:
255,192,78592,1,0,0:0:0:0:
255,192,78749,1,8,0:0:0:0:
255,192,79064,1,8,0:0:0:0:
255,192,79221,1,8,0:0:0:0:
255,192,79378,1,0,0:0:0:0:
255,192,79692,1,8,0:0:0:0:
255,192,79849,1,8,0:0:0:0:
255,192,80006,1,0,0:0:0:0:
255,192,80163,1,8,0:0:0:0:
255,192,80320,1,0,0:0:0:0:
255,192,80399,1,0,0:0:0:0:
255,192,80477,1,0,0:0:0:0:
255,192,80634,1,8,0:0:0:0:
255,192,80791,1,4,0:0:0:0:
255,192,81105,1,0,0:0:0:0:
255,192,81263,1,8,0:0:0:0:
255,192,81577,1,0,0:0:0:0:
255,192,81734,1,0,0:0:0:0:
255,192,81891,1,8,0:0:0:0:
255,192,82205,1,8,0:0:0:0:
255,192,82283,1,8,0:0:0:0:
255,192,82362,1,0,0:0:0:0:
255,192,82519,1,8,0:0:0:0:
255,192,82676,1,8,0:0:0:0:
255,192,82833,1,0,0:0:0:0:
255,192,82912,1,0,0:0:0:0:
256,192,82990,1,8,0:0:0:0:
255,192,83147,1,0,0:0:0:0:
255,192,83304,1,12,0:0:0:0:
255,192,83776,1,4,0:0:0:0:
255,192,84090,1,12,0:0:0:0:
255,192,84404,1,0,0:0:0:0:
255,192,84718,1,4,0:0:0:0:
255,192,85032,1,12,0:0:0:0:
255,192,85346,1,0,0:0:0:0:
256,192,85503,1,12,0:0:0:0:
256,192,85660,1,4,0:0:0:0:
256,192,85817,1,12,0:0:0:0:
256,192,85975,1,0,0:0:0:0:
256,192,86132,1,0,0:0:0:0:
256,192,86289,1,8,0:0:0:0:
256,192,86446,1,0,0:0:0:0:
256,192,86524,1,0,0:0:0:0:
256,192,86603,1,8,0:0:0:0:
256,192,86760,1,0,0:0:0:0:
256,192,86917,1,8,0:0:0:0:
256,192,87074,1,0,0:0:0:0:
256,192,87153,1,0,0:0:0:0:
256,192,87231,1,8,0:0:0:0:
256,192,88331,1,12,0:0:0:0:
