osu file format v14

[General]
AudioFilename: audio.mp3
AudioLeadIn: 0
PreviewTime: 178842
Countdown: 0
SampleSet: Soft
StackLeniency: 0.5
Mode: 0
LetterboxInBreaks: 0
WidescreenStoryboard: 1

[Editor]
DistanceSpacing: 1
BeatDivisor: 4
GridSize: 32
TimelineZoom: 1.7

[Metadata]
Title:ADAMAS
TitleUnicode:ADAMAS
Artist:LiSA
ArtistUnicode:LiSA
Creator:Shirahane Suou
Version:Diamond
Source:ソードアート・オンライン アリシゼーション
Tags:sword art online sao alicization japanese anime op opening rock jrock j-rock iceluin Alice Zuberg アリス・ツーベルク
BeatmapID:3793751
BeatmapSetID:1846855

[Difficulty]
HPDrainRate:6
CircleSize:4.5
OverallDifficulty:9.2
ApproachRate:9.4
SliderMultiplier:2
SliderTickRate:1

[Events]
//Background and Video events
0,0,"adamas.jpg",0,0
//Break Periods
2,176213,178465
//Storyboard Layer 0 (Background)
//Storyboard Layer 1 (Fail)
//Storyboard Layer 2 (Pass)
//Storyboard Layer 3 (Foreground)
//Storyboard Layer 4 (Overlay)
//Storyboard Sound Samples

[TimingPoints]
420,314.13612565445,4,2,1,50,1,0
420,-142.857142857143,4,2,1,50,0,0
5274,314.13612565445,4,2,1,70,1,0
5274,-105.263157894737,4,2,1,70,0,0
5431,314.13612565445,4,2,1,70,1,0
5431,-105.263157894737,4,2,1,70,0,0
15326,-166.666666666667,4,2,1,60,0,0
25378,-117.647058823529,4,2,1,70,0,0
33703,-105.263157894737,4,2,1,70,0,0
35588,-133.333333333333,4,2,1,60,0,0
45640,-117.647058823529,4,2,1,70,0,0
50675,-105.263157894737,4,2,1,70,0,0
54593,-200,4,2,1,60,0,0
55543,314.13612565445,4,2,1,80,1,0
55543,-90.9090909090909,4,2,1,80,0,1
55700,314.13612565445,4,2,1,80,1,0
55700,-90.9090909090909,4,2,1,80,0,1
59469,-125,4,2,1,80,0,1
59783,-105.263157894737,4,2,1,80,0,1
60097,-90.9090909090909,4,2,1,80,0,1
60412,-80,4,2,1,80,0,1
60726,-71.4285714285714,4,2,1,80,0,1
61040,-90.9090909090909,4,2,1,80,0,1
64338,-71.4285714285714,4,2,1,80,0,1
65595,-133.333333333333,4,2,1,60,0,0
69521,-100,4,2,1,70,0,0
70778,-90.9090909090909,4,2,1,80,0,1
75647,-105.263157894737,4,2,1,70,0,0
83343,314.13612565445,4,2,1,70,1,0
83343,-105.263157894737,4,2,1,70,0,0
93238,-166.666666666667,4,2,1,60,0,0
94651,-125,4,2,1,60,0,0
95437,-250,4,2,1,60,0,0
95751,-166.666666666667,4,2,1,60,0,0
96536,-125,4,2,1,60,0,0
97164,-166.666666666667,4,2,1,60,0,0
97793,-250,4,2,1,60,0,0
98264,-166.666666666667,4,2,1,60,0,0
99678,-125,4,2,1,60,0,0
100306,-250,4,2,1,60,0,0
100777,-100,4,2,1,70,0,0
103290,-105.263157894737,4,2,1,70,0,0
114286,314.13612565445,4,2,1,80,1,0
114286,-90.9090909090909,4,2,1,80,0,1
114443,314.13612565445,4,2,1,80,1,0
114443,-90.9090909090909,4,2,1,80,0,1
118212,-125,4,2,1,80,0,1
118526,-105.263157894737,4,2,1,80,0,1
118840,-90.9090909090909,4,2,1,80,0,1
123081,-71.4285714285714,4,2,1,80,0,1
124338,-133.333333333333,4,2,1,60,0,0
128264,-100,4,2,1,70,0,0
129521,-90.9090909090909,4,2,1,80,0,1
134390,-250,4,2,1,50,0,0
139573,-166.666666666667,4,2,1,50,0,0
142086,-125,4,2,1,50,0,0
142715,-166.666666666667,4,2,1,50,0,0
143343,-125,4,2,1,60,0,0
144600,-166.666666666667,4,2,1,60,0,0
152139,-100,4,2,1,70,0,0
154652,-133.333333333333,4,2,1,70,0,0
154966,-250,4,2,1,70,0,0
155280,-133.333333333333,4,2,1,70,0,0
157479,-250,4,2,1,70,0,0
157793,-133.333333333333,4,2,1,70,0,0
158736,-250,4,2,1,70,0,0
159050,-100,4,2,1,70,0,0
159678,-133.333333333333,4,2,1,70,0,0
159992,-250,4,2,1,70,0,0
160306,-133.333333333333,4,2,1,70,0,0
161563,-100,4,2,1,70,0,0
161877,-200,4,2,1,70,0,0
162191,-133.333333333333,4,2,1,70,0,0
163448,-100,4,2,1,70,0,0
164704,-100,4,2,1,80,0,0
168160,-80,4,2,1,80,0,0
169102,-100,4,2,1,80,0,0
174757,-133.333333333333,4,2,1,80,0,0
175699,-71.4285714285714,4,2,1,80,0,0
179005,314.13612565445,4,2,1,80,1,0
179005,-90.9090909090909,4,2,1,80,0,1
179162,314.13612565445,4,2,1,80,1,0
179162,-90.9090909090909,4,2,1,80,0,1
182931,-125,4,2,1,80,0,1
183245,-105.263157894737,4,2,1,80,0,1
183559,-90.9090909090909,4,2,1,80,0,1
184188,-71.4285714285714,4,2,1,80,0,1
184502,-90.9090909090909,4,2,1,80,0,1
187800,-71.4285714285714,4,2,1,80,0,1
189057,-133.333333333333,4,2,1,60,0,0
192983,-100,4,2,1,70,0,0
194240,-90.9090909090909,4,2,1,80,0,1
199109,-105.263157894737,4,2,1,70,0,0
206805,314.13612565445,4,2,1,70,1,0
206805,-105.263157894737,4,2,1,70,0,0
211666,314.13612565445,4,2,1,80,1,0
211666,-90.9090909090909,4,2,1,80,0,1
211823,314.13612565445,4,2,1,80,1,0
211823,-90.9090909090909,4,2,1,80,0,1
216692,-68.9655172413793,4,2,1,70,0,0
219205,-62.5,4,2,1,70,0,0

[Colours]
Combo1 : 227,181,214
Combo2 : 149,204,200
Combo3 : 225,215,153
Combo4 : 170,172,215

[HitObjects]
104,85,420,6,0,L|176:64,1,69.9999978637696,2|0,3:2|0:0,0:0:0:0:
223,1,734,1,8,0:3:0:0:
284,233,891,6,0,L|212:212,1,69.9999978637696,2|0,0:2|3:2,0:0:0:0:
165,149,1205,1,0,0:0:0:0:
147,332,1362,6,0,L|219:311,1,69.9999978637696,10|4,0:3|0:3,0:0:0:0:
222,306,1598,1,4,0:3:0:0:
229,300,1676,1,0,3:2:0:0:
359,176,1833,6,0,L|431:197,1,69.9999978637696,2|8,0:2|0:3,0:0:0:0:
478,260,2147,1,0,0:0:0:0:
348,384,2304,6,0,L|276:363,1,69.9999978637696,2|0,3:2|0:0,0:0:0:0:
229,300,2618,1,10,0:3:0:0:
120,372,2776,1,4,0:3:0:0:
127,377,2854,1,4,0:3:0:0:
134,383,2933,6,0,L|149:309,1,69.9999978637696,2|0,3:2|0:0,0:0:0:0:
115,238,3247,1,8,0:3:0:0:
226,67,3404,6,0,L|241:141,1,69.9999978637696,2|0,0:2|3:2,0:0:0:0:
207,212,3718,1,0,0:0:0:0:
348,383,3875,6,0,L|363:309,1,69.9999978637696,10|0,0:3|0:0,0:0:0:0:
333,229,4189,1,4,0:3:0:0:
325,231,4268,1,4,0:3:0:0:
316,233,4346,1,4,0:3:0:0:
308,235,4425,1,4,0:3:0:0:
300,238,4503,5,8,0:3:0:0:
456,362,4660,1,8,0:3:0:0:
456,362,5274,6,0,B|472:296|472:296|450:251|450:251|473:157,1,189.999994926453,6|0,3:2|3:2,0:0:0:0:
322,13,5745,2,0,P|373:44|363:124,1,142.49999619484,10|0,0:2|0:0,0:0:0:0:
315,175,6059,2,0,P|268:164|221:157,1,94.9999974632264,2|0,3:2|0:0,0:0:0:0:
33,38,6373,2,0,P|64:89|144:79,1,142.49999619484,8|0,0:2|0:0,0:0:0:0:
190,22,6687,5,2,3:2:0:0:
2,160,6844,1,2,0:0:0:0:
174,298,7001,2,0,P|154:229|144:158,1,142.49999619484,10|0,0:2|0:0,0:0:0:0:
139,83,7315,5,2,3:2:0:0:
256,263,7473,1,2,3:2:0:0:
75,380,7630,1,10,0:2:0:0:
245,153,7787,6,0,B|279:105|344:122|344:122|375:174|448:182,1,189.999994926453,2|0,3:2|3:2,0:0:0:0:
512,0,8258,2,0,P|454:2|440:79,1,142.49999619484,10|0,0:2|0:0,0:0:0:0:
495,129,8572,2,0,P|505:175|512:222,1,94.9999974632264,2|0,3:2|0:0,0:0:0:0:
348,384,8886,2,0,P|337:337|330:290,1,94.9999974632264,8|0,0:2|0:0,0:0:0:0:
326,216,9122,1,0,0:0:0:0:
332,204,9200,5,2,3:2:0:0:
444,363,9357,1,2,0:0:0:0:
240,282,9514,2,0,P|163:274|112:336,1,142.49999619484,10|0,0:2|0:0,0:0:0:0:
79,381,9829,5,10,0:2:0:0:
42,351,9907,1,8,0:2:0:0:
33,306,9986,1,10,0:2:0:0:
55,265,10064,1,8,0:2:0:0:
77,224,10142,1,10,0:2:0:0:
67,178,10221,1,8,0:2:0:0:
31,149,10300,6,0,B|23:175|-1:190|-1:190|151:163,1,189.999994926453,6|0,3:2|3:2,0:0:0:0:
354,133,10771,2,0,P|296:148|241:81,1,142.49999619484,10|0,0:2|0:0,0:0:0:0:
246,20,11085,2,0,B|286:-4|286:-4|297:50,1,94.9999974632264,2|0,3:2|0:0,0:0:0:0:
473,218,11399,2,0,P|415:203|360:270,1,142.49999619484,8|0,0:2|0:0,0:0:0:0:
373,332,11713,5,2,3:2:0:0:
450,115,11870,1,2,0:0:0:0:
251,216,12028,2,0,B|214:220|186:246|186:246|165:205|116:186,1,142.49999619484,10|0,0:2|0:0,0:0:0:0:
88,137,12342,5,2,3:2:0:0:
309,77,12499,1,2,3:2:0:0:
269,308,12656,1,10,0:2:0:0:
164,70,12813,6,0,B|194:57|210:19|210:19|182:94|232:155,1,189.999994926453,2|0,3:2|3:2,0:0:0:0:
382,297,13284,2,0,P|434:268|428:177,1,142.49999619484,10|0,0:2|0:0,0:0:0:0:
382,144,13598,2,0,P|335:154|285:179,1,94.9999974632264,2|0,3:2|0:0,0:0:0:0:
126,263,13912,1,8,0:2:0:0:
161,52,14069,1,0,3:2:0:0:
164,42,14148,1,0,3:2:0:0:
167,32,14226,5,10,0:2:0:0:
200,40,14304,1,8,0:2:0:0:
224,66,14383,1,0,3:2:0:0:
230,101,14461,1,0,3:2:0:0:
217,133,14540,1,10,0:3:0:0:
30,68,14698,1,0,3:2:0:0:
7,33,14776,1,0,3:2:0:0:
24,0,14855,5,6,0:3:0:0:
112,124,15012,1,2,3:2:0:0:
32,207,15169,1,10,0:2:0:0:
86,280,15326,6,0,L|68:368,1,89.9999972534181,6|0,3:2|0:0,0:0:0:0:
56,384,15640,1,2,3:2:0:0:
204,264,15797,1,8,0:2:0:0:
200,247,16111,1,10,0:2:0:0:
196,230,16425,1,10,0:2:0:0:
192,213,16739,1,10,0:2:0:0:
188,196,17054,2,0,L|129:180,1,59.9999981689454,10|2,0:2|3:2,0:0:0:0:
257,135,17368,5,10,0:2:0:0:
366,103,17525,1,2,3:2:0:0:
228,34,17682,1,10,0:2:0:0:
337,2,17839,1,2,3:2:0:0:
332,191,17996,5,8,0:2:0:0:
325,212,18310,1,10,0:2:0:0:
334,231,18624,1,10,0:2:0:0:
327,252,18938,1,10,0:2:0:0:
336,271,19253,1,10,0:2:0:0:
328,290,19567,2,0,L|259:308,1,59.9999981689454,10|2,0:2|3:2,0:0:0:0:
201,355,19881,5,10,0:2:0:0:
325,212,20038,1,2,3:2:0:0:
332,191,20117,1,0,3:2:0:0:
323,172,20195,1,10,0:2:0:0:
412,351,20352,1,2,3:2:0:0:
207,221,20509,5,8,0:2:0:0:
213,205,20823,1,10,0:2:0:0:
219,189,21137,1,10,0:2:0:0:
225,173,21451,1,10,0:2:0:0:
231,157,21766,1,10,0:2:0:0:
237,141,22080,2,0,L|306:123,1,59.9999981689454,10|2,0:2|3:2,0:0:0:0:
460,20,22394,5,10,0:2:0:0:
492,129,22551,1,2,3:2:0:0:
359,49,22708,1,10,0:2:0:0:
391,158,22865,1,2,3:2:0:0:
467,5,23022,5,8,0:2:0:0:
460,20,23336,1,10,0:2:0:0:
384,173,23494,1,0,3:2:0:0:
377,194,23573,1,0,3:2:0:0:
386,213,23651,1,10,0:3:0:0:
359,49,23808,1,2,3:2:0:0:
344,32,23887,1,0,3:2:0:0:
323,30,23965,1,8,0:2:0:0:
483,259,24122,5,2,3:2:0:0:
483,259,25378,6,0,P|425:252|374:307,1,127.50000243187,4|0,3:2|0:0,0:0:0:0:
371,331,25692,2,0,L|308:318,1,42.5000008106232,2|0,3:2|0:0,0:0:0:0:
235,201,25850,2,0,B|183:218|183:218|173:242|173:242|114:264,1,127.50000243187,10|0,0:2|0:0,0:0:0:0:
99,247,26164,1,2,3:2:0:0:
243,292,26321,1,2,0:2:0:0:
69,384,26478,2,0,B|35:357|35:357|56:308,1,85.0000016212464,10|2,0:2|0:2,0:0:0:0:
111,90,26792,5,2,3:2:0:0:
168,200,26949,1,2,0:2:0:0:
0,111,27106,1,10,0:2:0:0:
57,1,27263,1,2,0:2:0:0:
217,109,27420,5,2,3:2:0:0:
69,225,27577,1,2,0:2:0:0:
185,373,27734,1,10,0:2:0:0:
406,285,27891,6,0,B|376:259|339:275|339:275|326:306|274:324,1,127.50000243187,2|0,0:2|0:0,0:0:0:0:
269,308,28206,2,0,P|258:291|258:265,1,42.5000008106232,2|0,0:2|0:0,0:0:0:0:
320,118,28363,2,0,P|381:134|444:146,1,127.50000243187,10|0,0:2|0:0,0:0:0:0:
471,132,28677,1,2,3:2:0:0:
361,218,28834,1,2,0:2:0:0:
372,40,28991,2,0,B|406:12|406:12|420:51,1,85.0000016212464,10|2,0:2|0:2,0:0:0:0:
237,179,29305,5,2,3:2:0:0:
122,216,29462,1,2,0:2:0:0:
200,72,29619,1,10,0:2:0:0:
85,109,29776,1,2,0:2:0:0:
199,265,29933,5,2,3:2:0:0:
285,107,30090,1,2,0:2:0:0:
123,23,30247,1,10,0:2:0:0:
309,220,30404,6,0,P|292:281|281:344,1,127.50000243187,2|0,0:2|0:0,0:0:0:0:
292,370,30719,2,0,L|238:387,1,42.5000008106232,2|0,0:2|0:0,0:0:0:0:
400,313,30876,2,0,P|439:332|499:338,1,85.0000016212464,10|2,0:2|0:2,0:0:0:0:
395,188,31190,5,2,3:2:0:0:
309,220,31347,1,2,0:2:0:0:
466,244,31504,1,10,0:2:0:0:
408,96,31661,1,2,0:2:0:0:
380,276,31818,5,2,3:2:0:0:
481,156,31975,1,2,0:2:0:0:
335,36,32132,1,10,0:2:0:0:
395,188,32289,1,2,0:2:0:0:
246,69,32446,5,2,3:2:0:0:
423,2,32603,1,2,0:2:0:0:
287,176,32761,2,0,P|226:154|164:142,1,127.50000243187,10|0,0:2|0:0,0:0:0:0:
148,120,33075,6,0,P|87:112|51:176,1,127.50000243187,6|0,3:2|0:0,0:0:0:0:
32,190,33389,2,0,P|56:229|102:222,1,85.0000016212464,10|0,0:2|0:0,0:0:0:0:
289,268,33703,6,0,P|297:329|228:366,1,142.49999619484,6|0,3:2|0:0,0:0:0:0:
208,384,34017,2,0,P|169:360|178:312,1,94.9999974632264,10|0,0:2|0:0,0:0:0:0:
289,160,34331,5,6,3:2:0:0:
390,354,34488,1,8,0:3:0:0:
422,371,34566,1,8,0:3:0:0:
457,370,34645,1,10,0:3:0:0:
488,351,34723,1,8,0:3:0:0:
506,322,34802,2,0,L|492:270,1,47.4999987316132,4|4,0:3|0:3,0:0:0:0:
385,238,34959,2,0,L|399:186,1,47.4999987316132,6|4,0:3|0:3,0:0:0:0:
482,11,35117,1,0,3:2:0:0:
508,38,35195,1,0,3:2:0:0:
512,77,35274,1,2,3:2:0:0:
491,110,35352,1,0,3:2:0:0:
454,122,35431,1,0,3:2:0:0:
418,109,35509,1,0,3:2:0:0:
398,75,35588,6,0,L|382:-7,1,75.0000028610231,6|0,3:2|0:0,0:0:0:0:
313,93,35902,2,0,L|297:11,1,75.0000028610231,0|0,3:2|0:0,0:0:0:0:
238,155,36216,2,0,L|222:237,1,75.0000028610231,2|0,3:2|0:0,0:0:0:0:
153,137,36530,2,0,L|137:219,1,75.0000028610231,0|0,3:2|0:0,0:0:0:0:
70,90,36844,6,0,P|141:101|191:49,1,150.000005722046,2|0,3:2|3:2,0:0:0:0:
273,16,37315,1,2,0:2:0:0:
313,93,37473,2,0,P|348:104|385:112,1,75.0000028610231,0|0,3:2|0:0,0:0:0:0:
512,17,37787,1,2,3:2:0:0:
424,0,37944,1,8,0:2:0:0:
424,0,38022,1,8,0:2:0:0:
424,0,38101,6,0,L|450:84,1,75.0000028610231,4|0,3:2|0:0,0:0:0:0:
512,127,38415,2,0,L|486:211,1,75.0000028610231,0|0,3:2|0:0,0:0:0:0:
394,185,38729,2,0,L|420:269,1,75.0000028610231,0|0,3:2|0:0,0:0:0:0:
482,312,39043,2,0,L|456:396,1,75.0000028610231,0|0,3:2|0:0,0:0:0:0:
329,293,39357,6,0,P|257:276|201:348,1,150.000005722046,0|0,3:2|3:2,0:0:0:0:
223,132,39829,2,0,P|247:165|233:220,1,75.0000028610231,8|2,0:2|3:2,0:0:0:0:
142,384,40143,2,0,P|117:350|131:295,1,75.0000028610231,10|2,0:2|3:2,0:0:0:0:
13,203,40457,1,10,0:3:0:0:
13,203,40535,1,8,0:3:0:0:
13,203,40614,6,0,B|99:230|76:157|175:197,1,150.000005722046,4|2,3:2|3:2,0:0:0:0:
203,274,41085,1,2,0:2:0:0:
247,198,41242,2,0,P|229:125|216:51,1,150.000005722046,0|2,3:2|3:2,0:0:0:0:
145,0,41713,1,2,0:2:0:0:
306,63,41870,6,0,P|343:27|445:44,1,150.000005722046,0|2,3:2|3:2,0:0:0:0:
507,99,42342,1,2,0:2:0:0:
457,182,42499,2,0,P|384:163|310:151,1,150.000005722046,0|2,3:2|3:2,0:0:0:0:
218,15,42970,1,10,0:2:0:0:
218,15,43048,1,8,0:2:0:0:
218,15,43127,6,0,P|186:34|147:39,1,75.0000028610231,4|0,3:2|0:0,0:0:0:0:
62,82,43441,2,0,P|30:63|5:32,1,75.0000028610231,0|0,3:2|0:0,0:0:0:0:
127,153,43755,2,0,P|126:189|112:226,1,75.0000028610231,0|0,3:2|0:0,0:0:0:0:
106,321,44069,2,0,P|73:339|35:344,1,75.0000028610231,0|0,3:2|0:0,0:0:0:0:
38,175,44384,5,2,3:2:0:0:
194,286,44541,1,8,0:2:0:0:
213,96,44698,1,2,3:2:0:0:
368,207,44855,1,8,0:3:0:0:
400,210,44934,1,8,0:3:0:0:
419,190,45012,5,2,3:2:0:0:
357,4,45169,2,0,L|343:63,1,37.5000014305115,8|8,0:2|0:2,0:0:0:0:
276,171,45326,1,10,0:2:0:0:
263,206,45404,1,8,0:2:0:0:
267,243,45483,1,8,0:2:0:0:
288,274,45561,1,8,0:2:0:0:
321,291,45640,6,0,P|384:300|473:325,1,127.50000243187,6|0,3:2|0:0,0:0:0:0:
476,333,45954,2,0,P|499:291|478:241,1,85.0000016212464,8|0,0:2|3:2,0:0:0:0:
368,126,46268,1,2,3:2:0:0:
496,95,46425,1,0,3:2:0:0:
394,226,46583,2,0,P|352:216|310:210,1,85.0000016212464,8|2,0:2|3:2,0:0:0:0:
175,47,46897,6,0,P|217:82|197:198,1,170.000003242493,2|10,3:2|0:2,0:0:0:0:
95,356,47368,1,0,3:2:0:0:
265,310,47525,2,0,P|222:304|181:294,1,85.0000016212464,2|0,3:2|3:2,0:0:0:0:
1,216,47839,1,10,0:2:0:0:
140,129,47996,1,0,3:2:0:0:
140,129,48075,1,0,3:2:0:0:
140,129,48153,6,0,P|114:188|95:249,1,127.50000243187,0|0,3:2|0:0,0:0:0:0:
74,273,48467,2,0,P|85:314|95:356,1,85.0000016212464,8|0,0:2|3:2,0:0:0:0:
196,223,48781,1,0,3:2:0:0:
232,351,48939,1,0,3:2:0:0:
322,196,49096,2,0,P|333:140|267:92,1,127.50000243187,10|0,0:2|3:2,0:0:0:0:
261,69,49410,6,0,P|221:84|179:93,1,85.0000016212464,2|0,3:2|3:2,0:0:0:0:
9,190,49724,5,10,0:2:0:0:
115,6,49881,1,0,3:2:0:0:
169,282,50038,5,10,0:2:0:0:
62,98,50195,1,0,3:2:0:0:
328,189,50352,5,10,0:2:0:0:
115,189,50509,1,0,3:2:0:0:
115,189,50588,1,0,3:2:0:0:
115,189,50666,5,14,0:2:0:0:
269,25,50823,1,0,3:2:0:0:
226,217,50980,1,0,3:2:0:0:
159,0,51137,5,14,0:2:0:0:
379,50,51295,1,2,3:2:0:0:
193,107,51452,1,0,3:2:0:0:
413,158,51609,5,14,0:2:0:0:
269,25,51766,1,0,3:2:0:0:
269,25,51844,1,0,3:0:0:0:
269,25,51923,5,14,0:2:0:0:
489,75,52080,1,0,3:2:0:0:
303,133,52237,1,2,3:2:0:0:
447,266,52394,5,12,0:2:0:0:
379,50,52551,1,2,3:2:0:0:
336,240,52708,1,0,3:2:0:0:
193,107,52865,5,14,0:2:0:0:
259,321,53022,1,0,3:2:0:0:
89,158,53179,5,10,0:2:0:0:
43,149,53257,1,8,0:3:0:0:
8,178,53336,1,4,0:3:0:0:
8,224,53414,1,4,0:3:0:0:
43,254,53494,2,0,P|80:258|103:239,1,47.4999987316132,4|4,0:3|0:3,0:0:0:0:
292,144,53651,5,10,0:2:0:0:
276,100,53729,1,8,0:3:0:0:
233,84,53808,1,4,0:3:0:0:
193,107,53886,1,4,0:3:0:0:
185,152,53966,2,0,P|200:186|227:196,1,47.4999987316132,4|0,0:3|0:0,0:0:0:0:
336,240,54122,5,10,0:2:0:0:
99,64,54279,1,2,3:2:0:0:
99,64,54593,5,2,0:2:0:0:
48,131,54750,2,0,L|-1:144,2,50,2|0|2,0:2|0:0|0:0,0:0:0:0:
107,196,55221,2,0,P|107:233|79:272,1,75,2|0,0:2|0:0,0:0:0:0:
0,264,55543,6,0,B|40:282|80:291|80:291|96:337|96:337|136:342|192:366,1,220.000006713867,6|0,3:2|3:2,0:0:0:0:
259,123,56014,2,0,B|216:144|216:144|184:203|226:266,1,165.000005035401,10|0,0:2|0:0,0:0:0:0:
279,301,56328,1,2,3:2:0:0:
365,83,56485,1,0,3:0:0:0:
498,307,56642,2,0,P|430:284|443:173,1,165.000005035401,10|0,0:2|0:0,0:0:0:0:
497,213,56956,6,0,P|416:229|337:255,1,165.000005035401,2|0,3:2|0:0,0:0:0:0:
279,301,57270,1,10,0:2:0:0:
131,96,57427,2,0,B|204:74|238:133|218:143|270:201|341:158,1,220.000006713867,2|0,0:2|0:0,0:0:0:0:
482,34,57898,1,8,0:2:0:0:
430,296,58055,5,2,0:2:0:0:
306,75,58213,1,2,3:2:0:0:
267,328,58370,1,2,0:2:0:0:
441,153,58527,1,10,0:2:0:0:
181,34,58684,5,2,0:2:0:0:
335,259,58841,1,2,3:2:0:0:
482,34,58998,2,0,P|424:30|398:88,1,110.000003356934,2|8,0:2|0:2,0:0:0:0:
232,227,59312,1,2,0:2:0:0:
232,227,59391,1,2,0:0:0:0:
232,227,59469,6,0,P|175:209|116:198,1,120,2|0,3:2|0:0,0:0:0:0:
58,143,59783,2,0,B|28:179|28:179|44:232,1,94.9999974632264,10|0,0:2|0:0,0:0:0:0:
201,336,60097,6,0,B|298:366|275:280|395:339,1,165.000005035401,2|0,3:2|0:0,0:0:0:0:
422,361,60412,2,0,B|440:338|440:338|434:305,1,62.5,10|0,0:2|0:0,0:0:0:0:
390,71,60569,1,8,0:2:0:0:
379,64,60647,1,8,0:2:0:0:
367,56,60726,6,0,B|323:95|270:88|270:88|321:99|344:159,1,209.999993591309,6|0,3:2|0:0,0:0:0:0:
362,232,61040,2,0,P|413:200|417:137,1,110.000003356934,10|0,0:2|0:0,0:0:0:0:
297,0,61354,1,2,3:2:0:0:
213,239,61511,1,0,3:0:0:0:
70,41,61668,2,0,P|121:55|174:84,1,110.000003356934,10|0,0:2|0:0,0:0:0:0:
95,334,61982,6,0,P|43:291|66:196,1,165.000005035401,2|0,3:2|0:0,0:0:0:0:
29,134,62296,2,0,P|77:159|130:175,1,110.000003356934,8|0,0:2|0:0,0:0:0:0:
366,104,62610,5,2,3:2:0:0:
127,256,62768,1,2,0:2:0:0:
214,0,62925,1,10,0:2:0:0:
400,290,63082,6,0,B|362:270|343:231|343:231|307:265|240:260,1,165.000005035401,14|0,0:2|0:0,0:0:0:0:
225,199,63396,2,0,L|247:112,1,55.0000016784668,10|0,0:2|0:0,0:0:0:0:
414,0,63553,1,0,3:2:0:0:
424,0,63631,1,0,3:2:0:0:
434,0,63710,5,10,0:2:0:0:
479,29,63788,1,8,0:2:0:0:
492,81,63867,1,8,0:2:0:0:
467,128,63946,1,8,0:2:0:0:
441,175,64024,1,10,0:2:0:0:
455,227,64103,1,8,0:2:0:0:
500,255,64181,2,0,L|517:185,1,55.0000016784668,8|0,0:2|0:0,0:0:0:0:
399,77,64338,6,0,B|363:78|363:78|402:140,1,69.9999978637696,6|0,3:2|0:0,0:0:0:0:
352,293,64652,6,0,B|353:329|353:329|382:311,1,69.9999978637696,2|0,3:2|0:0,0:0:0:0:
113,307,64967,6,0,B|149:306|149:306|110:244,1,69.9999978637696,2|0,3:2|0:0,0:0:0:0:
159,90,65281,6,0,B|158:54|158:54|130:73,1,69.9999978637696,10|0,0:2|0:0,0:0:0:0:
41,136,65438,1,2,0:0:0:0:
41,136,65516,1,2,0:0:0:0:
41,136,65595,6,0,P|111:161|178:194,1,150.000005722046,6|0,3:2|3:2,0:0:0:0:
368,258,66066,2,0,P|332:298|279:289,1,112.500004291535,0|0,3:2|0:0,0:0:0:0:
252,308,66380,2,0,B|225:222|298:248|262:152,1,150.000005722046,2|2,3:2|3:2,0:0:0:0:
150,14,66851,6,0,P|177:77|263:72,1,150.000005722046,2|2,0:2|0:2,0:0:0:0:
395,0,67323,2,0,P|375:52|360:106,1,112.500004291535,0|0,3:2|0:0,0:0:0:0:
354,136,67637,1,2,3:2:0:0:
494,54,67794,1,10,0:3:0:0:
512,31,67872,1,8,0:3:0:0:
503,3,67951,1,2,3:2:0:0:
447,160,68108,6,0,P|459:195|478:278,1,112.500004291535,14|0,0:2|0:0,0:0:0:0:
499,293,68422,2,0,P|491:329|479:365,1,75.0000028610231,2|0,0:2|3:2,0:0:0:0:
308,259,68736,2,0,P|343:247|380:239,1,75.0000028610231,2|0,0:2|3:2,0:0:0:0:
240,353,69050,2,0,P|276:360|312:372,1,75.0000028610231,2|0,0:2|3:2,0:0:0:0:
216,268,69364,1,2,0:2:0:0:
87,379,69521,5,8,0:2:0:0:
51,343,69599,1,8,0:2:0:0:
43,294,69678,1,10,0:2:0:0:
63,250,69756,1,8,0:2:0:0:
104,223,69836,1,10,0:2:0:0:
146,196,69915,1,8,0:2:0:0:
166,151,69993,1,10,0:2:0:0:
157,103,70072,1,8,0:2:0:0:
122,67,70150,1,10,0:2:0:0:
72,63,70228,1,8,0:2:0:0:
30,88,70307,1,8,0:2:0:0:
9,133,70385,1,8,0:2:0:0:
20,181,70464,1,10,0:2:0:0:
55,215,70542,1,8,0:2:0:0:
104,222,70621,2,0,P|128:212|156:177,1,50,0|0,3:2|0:0,0:0:0:0:
254,16,70778,5,12,0:2:0:0:
20,181,70935,1,0,3:2:0:0:
280,302,71092,1,2,3:2:0:0:
83,38,71249,5,12,0:2:0:0:
108,324,71406,1,2,3:2:0:0:
343,159,71563,1,0,3:2:0:0:
512,381,71720,6,0,L|387:350,1,110.000003356934,14|2,0:2|3:2,0:0:0:0:
201,214,72035,1,0,3:2:0:0:
448,0,72192,6,0,L|417:124,1,110.000003356934,14|2,0:2|3:2,0:0:0:0:
280,302,72506,1,2,3:2:0:0:
311,35,72663,5,14,0:2:0:0:
470,237,72820,1,2,3:2:0:0:
201,214,72977,5,14,0:2:0:0:
421,106,73134,1,0,3:2:0:0:
207,7,73291,5,0,3:2:0:0:
166,0,73369,1,0,3:2:0:0:
128,16,73448,1,0,3:2:0:0:
106,50,73527,1,0,3:0:0:0:
104,91,73605,1,10,0:2:0:0:
103,131,73684,1,0,3:2:0:0:
80,164,73762,1,0,3:2:0:0:
43,181,73841,1,0,3:2:0:0:
3,175,73919,5,2,3:2:0:0:
0,163,73998,1,0,3:2:0:0:
0,153,74076,2,0,L|26:94,1,55.0000016784668,0|0,3:2|3:2,0:0:0:0:
189,94,74233,1,10,0:2:0:0:
192,106,74312,1,0,3:2:0:0:
192,116,74390,2,0,L|166:175,1,55.0000016784668,2|0,3:2|3:2,0:0:0:0:
0,335,74548,5,8,0:2:0:0:
21,285,74626,1,8,0:2:0:0:
68,258,74705,1,2,3:2:0:0:
122,263,74783,1,0,3:2:0:0:
162,298,74862,1,8,0:3:0:0:
192,326,74940,1,8,0:3:0:0:
233,332,75019,1,2,3:2:0:0:
270,317,75097,1,0,3:2:0:0:
293,283,75176,1,6,0:3:0:0:
298,256,75254,1,4,0:3:0:0:
287,231,75333,1,2,3:2:0:0:
265,216,75411,1,0,3:2:0:0:
238,215,75490,2,0,P|218:238|230:267,1,55.0000016784668,10|0,0:2|0:0,0:0:0:0:
372,384,75647,6,0,P|390:290|418:200,1,189.999994926453,6|0,3:2|3:2,0:0:0:0:
498,24,76118,2,0,P|466:80|393:66,1,142.49999619484,8|0,0:2|0:0,0:0:0:0:
339,19,76432,2,0,P|293:33|247:43,1,94.9999974632264,0|0,3:2|0:0,0:0:0:0:
128,253,76747,2,0,P|196:231|267:215,1,142.49999619484,8|0,0:2|0:0,0:0:0:0:
327,176,77061,6,0,P|387:211|364:297,1,142.49999619484,0|0,3:2|0:0,0:0:0:0:
334,335,77375,2,0,P|288:320|242:310,1,94.9999974632264,8|0,0:2|0:0,0:0:0:0:
52,194,77689,1,2,3:2:0:0:
143,158,77846,1,0,0:0:0:0:
52,334,78003,2,0,L|33:279,1,47.4999987316132,8|0,0:2|0:0,0:0:0:0:
88,70,78160,6,0,B|129:27|190:54|190:54|213:111|283:130,1,189.999994926453,14|0,0:2|0:0,0:0:0:0:
430,164,78631,2,0,P|379:146|330:227,1,142.49999619484,8|0,0:2|0:0,0:0:0:0:
369,267,78946,2,0,P|414:279|460:293,1,94.9999974632264,0|0,3:2|0:0,0:0:0:0:
512,92,79260,2,0,P|427:69|343:43,1,142.49999619484,8|0,0:2|0:0,0:0:0:0:
315,14,79574,6,0,P|256:4|207:73,1,142.49999619484,0|0,3:2|0:0,0:0:0:0:
165,123,79888,2,0,P|176:170|187:216,1,94.9999974632264,8|0,0:2|0:0,0:0:0:0:
329,352,80202,1,2,3:2:0:0:
369,267,80359,1,0,0:0:0:0:
190,347,80516,2,0,L|249:364,1,47.4999987316132,8|0,0:2|0:0,0:0:0:0:
406,184,80673,6,0,B|309:158|309:158|260:194|283:243,1,189.999994926453,6|0,3:2|3:2,0:0:0:0:
486,149,81144,2,0,P|505:98|443:27,1,142.49999619484,8|0,0:2|0:0,0:0:0:0:
388,0,81459,2,0,P|344:18|298:32,1,94.9999974632264,0|0,3:2|0:0,0:0:0:0:
196,227,81773,2,0,P|126:197|53:175,1,142.49999619484,8|0,0:2|0:0,0:0:0:0:
17,116,82087,5,8,0:2:0:0:
11,104,82165,1,8,0:2:0:0:
5,93,82244,2,0,L|22:40,1,47.4999987316132,4|4,0:3|0:3,0:0:0:0:
127,10,82401,5,8,0:3:0:0:
172,21,82479,1,8,0:3:0:0:
203,55,82558,1,8,0:3:0:0:
210,102,82636,1,8,0:3:0:0:
189,143,82715,2,0,L|139:158,1,47.4999987316132,6|4,0:3|0:3,0:0:0:0:
0,257,82873,1,8,0:2:0:0:
18,287,82951,1,8,0:2:0:0:
49,304,83030,1,8,0:3:0:0:
84,304,83108,1,8,0:3:0:0:
115,287,83186,6,0,B|149:239|214:256|214:256|245:308|318:316,1,189.999994926453,6|0,3:2|3:2,0:0:0:0:
408,155,83657,2,0,P|345:149|310:235,1,142.49999619484,10|0,0:2|0:0,0:0:0:0:
357,264,83971,2,0,B|403:268|403:268|379:223,1,94.9999974632264,2|0,3:2|0:0,0:0:0:0:
239,65,84285,2,0,P|202:116|259:189,1,142.49999619484,8|0,0:2|0:0,0:0:0:0:
305,209,84599,5,2,3:2:0:0:
140,46,84756,1,2,0:0:0:0:
79,259,84913,2,0,P|123:243|170:233,1,94.9999974632264,10|0,0:2|0:0,0:0:0:0:
341,75,85227,5,2,3:2:0:0:
480,212,85384,1,2,3:2:0:0:
343,351,85541,1,10,0:2:0:0:
145,140,85698,6,0,B|208:119|237:160|225:178|270:213|337:179,1,189.999994926453,6|0,3:2|3:2,0:0:0:0:
476,41,86170,2,0,P|422:82|434:149,1,142.49999619484,10|0,0:2|0:0,0:0:0:0:
480,212,86484,2,0,P|469:258|462:305,1,94.9999974632264,2|0,3:2|0:0,0:0:0:0:
266,357,86798,2,0,P|276:310|283:263,1,94.9999974632264,8|0,0:2|0:0,0:0:0:0:
321,200,87034,1,0,0:0:0:0:
316,187,87113,5,2,3:2:0:0:
379,363,87269,1,2,0:0:0:0:
188,314,87426,2,0,P|138:266|147:198,1,142.49999619484,10|0,0:2|0:0,0:0:0:0:
196,140,87740,5,10,0:2:0:0:
215,97,87818,1,8,0:2:0:0:
209,51,87897,1,10,0:2:0:0:
180,14,87975,1,8,0:2:0:0:
135,0,88054,1,10,0:2:0:0:
90,12,88132,1,8,0:2:0:0:
58,46,88212,6,0,B|44:113|44:113|72:156|72:156|52:241,1,189.999994926453,6|0,3:2|3:2,0:0:0:0:
217,384,88683,2,0,P|269:336|254:263,1,142.49999619484,10|0,0:2|0:0,0:0:0:0:
209,216,88997,2,0,P|164:233|120:273,1,94.9999974632264,2|0,3:2|0:0,0:0:0:0:
343,371,89311,2,0,P|391:319|464:334,1,142.49999619484,8|0,0:2|0:0,0:0:0:0:
512,379,89625,5,2,3:2:0:0:
341,245,89782,1,2,0:0:0:0:
512,143,89939,2,0,P|493:186|480:232,1,94.9999974632264,10|0,0:2|0:0,0:0:0:0:
244,286,90253,5,2,3:2:0:0:
403,159,90410,1,2,3:2:0:0:
276,0,90568,1,10,0:2:0:0:
123,245,90725,6,0,B|72:278|21:231|21:231|46:176,1,142.49999619484,6|0,3:2|0:0,0:0:0:0:
75,122,91039,1,0,3:2:0:0:
81,114,91117,1,0,3:2:0:0:
87,106,91196,5,10,0:2:0:0:
130,89,91274,1,0,3:2:0:0:
176,98,91353,1,0,3:2:0:0:
209,132,91431,1,0,3:2:0:0:
219,177,91510,2,0,L|203:246,1,47.4999987316132,10|0,0:2|3:2,0:0:0:0:
348,354,91667,5,0,3:2:0:0:
391,371,91745,1,0,3:2:0:0:
437,362,91824,1,8,0:2:0:0:
470,328,91902,1,0,3:2:0:0:
480,283,91981,2,0,L|464:214,1,47.4999987316132,0|0,3:2|3:2,0:0:0:0:
512,63,92138,5,10,0:2:0:0:
470,42,92216,1,8,0:2:0:0:
423,47,92295,1,4,0:3:0:0:
388,78,92373,1,4,0:3:0:0:
376,124,92452,1,10,0:3:0:0:
364,157,92530,1,8,0:3:0:0:
337,179,92609,1,4,0:3:0:0:
302,185,92687,1,4,0:3:0:0:
269,173,92767,5,10,0:2:0:0:
460,128,92924,1,10,0:3:0:0:
404,315,93081,1,6,0:3:0:0:
232,55,93238,6,0,L|106:86,1,119.999996337891,6|2,3:2|0:0,0:0:0:0:
34,56,93709,2,0,P|22:28|39:-16,1,59.9999981689454,2|2,3:2|0:0,0:0:0:0:
196,149,94023,2,0,B|234:174|228:236|228:236|193:275|205:334,1,179.999994506836,8|0,0:2|0:0,0:0:0:0:
265,369,94651,6,0,B|333:397|362:349|345:338|391:291|456:335,1,200,4|0,3:2|0:0,0:0:0:0:
512,360,95123,1,2,3:2:0:0:
510,372,95201,1,0,3:2:0:0:
508,384,95280,1,8,0:2:0:0:
378,222,95437,6,0,L|393:146,1,60,0|0,3:2|0:0,0:0:0:0:
461,121,95751,6,0,B|432:143|394:143|394:143|350:97|350:97|300:115|230:90,1,239.999992675781,6|0,3:2|0:0,0:0:0:0:
116,67,96536,6,0,B|148:64|177:36|177:36|265:114|179:215,1,240,10|0,0:2|0:0,0:0:0:0:
0,352,97164,6,0,P|33:302|155:331,1,179.999994506836,6|0,3:2|3:2,0:0:0:0:
145,324,97714,1,0,3:2:0:0:
142,335,97793,6,0,P|128:320|136:265,1,80,10|0,0:2|3:2,0:0:0:0:
292,173,98264,6,0,L|263:312,1,119.999996337891,6|2,3:2|0:0,0:0:0:0:
291,373,98735,2,0,P|321:382|355:376,1,59.9999981689454,2|2,3:2|0:0,0:0:0:0:
512,313,99049,2,0,B|471:262|404:304|404:304|431:326|439:369,1,179.999994506836,8|0,0:2|0:0,0:0:0:0:
493,199,99678,6,0,B|453:161|459:88|459:88|449:162|374:194,1,240,6|0,3:2|3:2,0:0:0:0:
237,68,100306,6,0,P|272:44|313:53,1,80,8|0,0:2|0:0,0:0:0:0:
368,102,100777,6,0,L|347:258,1,150,6|0,3:2|0:0,0:0:0:0:
317,324,101091,5,8,0:2:0:0:
271,342,101169,1,8,0:2:0:0:
225,326,101248,1,2,3:2:0:0:
200,283,101326,1,0,3:2:0:0:
209,235,101405,1,0,3:2:0:0:
245,210,101484,1,0,3:2:0:0:
265,179,101562,1,2,3:2:0:0:
262,144,101641,1,0,3:2:0:0:
242,121,101719,1,2,3:2:0:0:
218,114,101798,1,0,3:2:0:0:
201,118,101876,1,0,3:2:0:0:
191,128,101955,1,0,3:2:0:0:
187,136,102034,5,10,0:2:0:0:
187,136,103290,6,0,B|241:152|241:152|255:175|255:175|329:193,1,142.49999619484,4|0,3:2|0:0,0:0:0:0:
341,178,103604,2,0,P|333:155|328:132,1,47.4999987316132,2|0,3:2|0:0,0:0:0:0:
182,227,103761,2,0,P|195:272|199:319,1,94.9999974632264,10|2,0:2|0:0,0:0:0:0:
365,384,104075,2,0,P|392:336|475:344,1,142.49999619484,2|0,3:2|0:0,0:0:0:0:
496,364,104390,1,10,0:2:0:0:
294,293,104547,1,2,0:2:0:0:
506,110,104704,5,2,3:2:0:0:
465,249,104861,1,2,0:2:0:0:
384,81,105018,1,10,0:2:0:0:
343,220,105175,1,2,0:2:0:0:
458,31,105332,5,2,3:2:0:0:
310,132,105489,1,2,0:2:0:0:
391,299,105646,1,10,0:2:0:0:
169,347,105803,6,0,P|123:304|150:218,1,142.49999619484,2|0,0:2|0:0,0:0:0:0:
157,214,106117,2,0,P|202:227|249:236,1,94.9999974632264,2|8,3:2|0:2,0:0:0:0:
426,98,106431,1,2,0:2:0:0:
288,40,106589,1,2,3:2:0:0:
288,40,106667,2,0,P|301:85|310:132,1,94.9999974632264,2|0,0:2|0:0,0:0:0:0:
317,165,106903,1,10,0:2:0:0:
208,334,107060,1,2,0:2:0:0:
85,154,107217,5,2,3:2:0:0:
215,117,107374,1,2,0:2:0:0:
120,274,107531,1,10,0:2:0:0:
249,236,107688,1,2,0:2:0:0:
90,145,107845,6,0,P|45:129|0:117,1,94.9999974632264,2|0,3:2|0:2,0:0:0:0:
247,249,108159,2,0,P|315:253|359:200,1,142.49999619484,10|0,0:2|0:0,0:0:0:0:
404,137,108473,5,4,3:2:0:0:
356,0,108630,1,2,0:2:0:0:
274,165,108787,1,10,0:2:0:0:
226,28,108944,1,2,0:2:0:0:
90,145,109102,5,2,3:2:0:0:
158,200,109259,1,2,0:2:0:0:
10,176,109416,1,10,0:2:0:0:
104,60,109573,1,2,0:2:0:0:
78,231,109730,5,2,3:2:0:0:
22,90,109887,1,2,0:2:0:0:
158,200,110044,1,10,0:2:0:0:
64,319,110201,1,2,0:2:0:0:
170,114,110358,5,2,3:2:0:0:
0,264,110515,1,2,0:2:0:0:
190,357,110672,2,0,L|305:331,1,94.9999974632264,10|0,0:2|3:2,0:0:0:0:
353,308,110908,1,0,3:2:0:0:
364,311,110986,5,14,0:2:0:0:
270,163,111143,1,0,3:2:0:0:
433,268,111301,5,10,0:2:0:0:
257,158,111458,1,0,3:2:0:0:
469,193,111615,5,10,0:2:0:0:
244,163,111772,1,0,3:2:0:0:
468,104,111929,5,10,0:2:0:0:
238,175,112087,1,0,3:2:0:0:
316,0,112243,5,10,0:2:0:0:
358,19,112321,1,8,0:2:0:0:
384,58,112400,1,0,3:2:0:0:
386,105,112478,1,0,3:2:0:0:
363,146,112557,1,10,0:3:0:0:
348,182,112636,1,8,0:3:0:0:
352,212,112714,1,0,3:2:0:0:
369,234,112793,1,0,3:2:0:0:
400,249,112871,6,0,P|424:245|450:215,1,47.4999987316132,6|4,0:3|0:3,0:0:0:0:
304,85,113028,2,0,P|280:89|254:119,1,47.4999987316132,0|0,3:2|3:2,0:0:0:0:
92,195,113185,1,2,3:2:0:0:
80,184,113263,1,0,3:2:0:0:
77,170,113342,1,0,3:2:0:0:
83,156,113421,1,0,3:2:0:0:
96,149,113500,6,0,L|129:163,1,31.6666658210755,8|0,0:2|0:0,0:0:0:0:
187,279,113709,6,0,L|216:257,1,31.6666658210755,8|0,0:2|0:0,0:0:0:0:
345,265,113918,6,0,L|341:228,1,31.6666658210755,8|0,0:2|0:0,0:0:0:0:
401,0,114286,6,0,B|379:73|438:107|448:87|506:139|463:210,1,220.000006713867,6|0,3:2|3:2,0:0:0:0:
261,383,114757,2,0,P|202:345|225:249,1,165.000005035401,10|0,0:2|0:0,0:0:0:0:
268,206,115071,1,2,3:2:0:0:
469,348,115228,1,0,3:0:0:0:
420,101,115385,2,0,B|377:122|377:122|345:181|387:244,1,165.000005035401,10|0,0:2|0:0,0:0:0:0:
453,264,115699,6,0,P|371:278|292:300,1,165.000005035401,2|0,3:2|0:0,0:0:0:0:
225,334,116013,1,10,0:2:0:0:
116,97,116170,2,0,B|118:56|164:41|164:41|241:111|150:201,1,220.000006713867,2|0,0:2|0:0,0:0:0:0:
113,358,116641,1,8,0:2:0:0:
298,138,116799,5,2,0:2:0:0:
70,265,116956,1,2,3:2:0:0:
306,384,117113,1,2,0:2:0:0:
179,167,117270,1,10,0:2:0:0:
411,97,117427,5,2,0:2:0:0:
218,303,117584,1,2,3:2:0:0:
113,27,117741,2,0,P|163:47|216:63,1,110.000003356934,2|8,0:2|0:2,0:0:0:0:
414,228,118055,1,2,0:2:0:0:
414,228,118134,1,2,0:0:0:0:
414,228,118212,6,0,P|347:225|314:284,1,120,2|0,3:2|0:0,0:0:0:0:
305,336,118526,2,0,B|338:374|338:374|354:322,1,94.9999974632264,10|0,0:2|0:0,0:0:0:0:
411,97,118840,5,2,3:2:0:0:
218,303,118997,1,8,0:2:0:0:
504,371,119155,1,10,0:2:0:0:
304,138,119312,1,8,0:2:0:0:
294,142,119390,1,8,0:2:0:0:
285,146,119469,6,0,B|223:128|223:128|207:94|207:94|143:75,1,165.000005035401,6|0,3:2|0:0,0:0:0:0:
76,49,119783,2,0,B|56:76|33:84|33:84|63:87|89:116,1,110.000003356934,10|0,0:2|0:0,0:0:0:0:
311,38,120097,1,2,3:2:0:0:
147,203,120254,1,0,3:0:0:0:
321,24,120411,2,0,L|449:56,1,110.000003356934,10|0,0:2|0:0,0:0:0:0:
500,296,120725,6,0,P|432:279|353:363,1,165.000005035401,2|0,3:2|0:0,0:0:0:0:
304,384,121039,2,0,L|197:357,1,110.000003356934,8|0,0:2|0:0,0:0:0:0:
16,176,121353,5,2,3:2:0:0:
305,215,121511,1,2,0:2:0:0:
84,356,121668,1,10,0:2:0:0:
157,68,121825,6,0,B|206:98|206:98|231:164|179:225,1,165.000005035401,14|0,0:2|0:0,0:0:0:0:
172,274,122139,2,0,P|114:273|100:220,1,110.000003356934,10|0,0:2|0:0,0:0:0:0:
287,54,122453,5,10,0:2:0:0:
326,64,122532,1,8,0:2:0:0:
358,73,122610,2,0,B|394:116|394:116|355:167,1,110.000003356934,8|2,0:2|0:2,0:0:0:0:
305,215,122846,1,8,0:2:0:0:
278,202,122924,1,8,0:2:0:0:
450,46,123081,6,0,B|475:23|475:23|488:84,1,69.9999978637696,6|0,3:2|0:0,0:0:0:0:
396,267,123395,6,0,B|421:290|421:290|434:229,1,69.9999978637696,2|0,3:2|0:0,0:0:0:0:
254,41,123710,6,0,B|279:18|279:18|292:79,1,69.9999978637696,2|0,3:2|0:0,0:0:0:0:
174,311,124024,6,0,B|199:334|199:334|212:273,1,69.9999978637696,2|0,3:2|0:0,0:0:0:0:
26,109,124338,6,0,P|41:149|145:152,1,150.000005722046,6|0,3:2|3:2,0:0:0:0:
288,54,124809,2,0,P|248:89|265:162,1,112.500004291535,8|0,0:3|0:0,0:0:0:0:
269,167,125123,2,0,P|305:156|342:148,1,75.0000028610231,2|2,3:2|0:2,0:0:0:0:
459,18,125437,1,2,3:2:0:0:
511,86,125594,6,0,P|459:104|376:27,1,150.000005722046,2|2,0:2|0:2,0:0:0:0:
288,54,126066,1,0,3:2:0:0:
410,204,126223,1,8,0:2:0:0:
431,220,126301,1,8,0:2:0:0:
461,216,126380,1,2,3:2:0:0:
305,295,126537,1,10,0:3:0:0:
288,316,126615,1,8,0:3:0:0:
292,346,126694,1,2,3:2:0:0:
205,178,126851,6,0,P|169:156|102:181,1,112.500004291535,14|0,0:2|0:0,0:0:0:0:
87,203,127165,2,0,P|101:237|110:273,1,75.0000028610231,2|0,0:2|3:2,0:0:0:0:
178,384,127479,2,0,P|186:347|201:313,1,75.0000028610231,2|0,0:2|3:2,0:0:0:0:
306,209,127793,2,0,P|340:223|376:232,1,75.0000028610231,2|0,0:2|3:2,0:0:0:0:
456,172,128107,1,2,0:2:0:0:
238,69,128264,5,8,0:2:0:0:
189,62,128342,1,8,0:2:0:0:
144,81,128421,1,10,0:2:0:0:
114,120,128499,1,8,0:2:0:0:
107,169,128578,1,10,0:2:0:0:
127,215,128656,1,8,0:2:0:0:
167,244,128735,1,10,0:2:0:0:
216,250,128813,1,8,0:2:0:0:
261,230,128893,1,10,0:2:0:0:
306,209,128971,1,8,0:2:0:0:
355,214,129050,1,8,0:2:0:0:
395,243,129128,1,8,0:2:0:0:
414,289,129207,1,10,0:2:0:0:
409,338,129285,1,8,0:2:0:0:
379,377,129364,2,0,L|298:354,1,50,0|0,3:2|0:0,0:0:0:0:
203,154,129521,5,12,0:2:0:0:
480,230,129678,1,0,3:2:0:0:
216,370,129835,1,2,3:2:0:0:
361,90,129992,5,12,0:2:0:0:
510,341,130149,1,2,3:2:0:0:
241,265,130306,1,0,3:2:0:0:
500,122,130463,6,0,L|477:249,1,110.000003356934,14|2,0:2|3:2,0:0:0:0:
312,384,130778,1,0,3:2:0:0:
129,183,130935,6,0,L|256:160,1,110.000003356934,14|0,0:2|3:2,0:0:0:0:
412,321,131249,1,2,3:2:0:0:
307,91,131406,5,14,0:2:0:0:
143,292,131563,1,2,3:2:0:0:
391,193,131720,5,14,0:2:0:0:
186,42,131877,1,0,3:2:0:0:
186,42,131956,1,0,3:2:0:0:
186,42,132034,5,12,0:2:0:0:
275,290,132191,1,0,3:2:0:0:
417,48,132348,1,2,3:2:0:0:
449,337,132505,5,12,0:2:0:0:
307,91,132662,1,2,3:2:0:0:
253,379,132819,1,0,3:2:0:0:
499,243,132977,5,10,0:2:0:0:
447,225,133055,1,8,0:2:0:0:
395,239,133134,1,10,0:2:0:0:
359,280,133212,1,8,0:2:0:0:
351,334,133291,1,8,0:2:0:0:
471,113,133448,1,2,3:2:0:0:
210,193,133605,5,8,0:2:0:0:
449,337,133762,1,2,3:2:0:0:
449,337,133840,1,0,3:2:0:0:
449,337,133919,6,0,P|474:309|471:267,1,73.3333355712891,10|8,0:3|0:3,0:0:0:0:
512,167,134128,6,0,P|500:131|462:112,1,73.3333355712891,4|4,0:3|0:3,0:0:0:0:
318,29,134390,5,6,3:2:0:0:
256,192,134547,12,0,138945,0:0:0:0:
367,96,139259,6,0,P|387:110|433:104,1,60,8|0,0:3|0:3,0:0:0:0:
412,33,139573,6,0,P|387:120|368:232,1,199.999993896485,6|0,3:2|0:0,0:0:0:0:
446,317,140202,2,0,P|367:260|273:284,1,199.999993896485,2|0,0:2|0:0,0:0:0:0:
214,364,140830,6,0,P|238:277|258:165,1,199.999993896485,2|0,0:2|0:0,0:0:0:0:
180,80,141458,2,0,P|258:136|352:112,1,199.999993896485,2|0,0:2|0:0,0:0:0:0:
418,23,142086,6,0,B|342:-17|283:49|309:70|233:119|170:74,1,266.666666666667,2|0,0:2|0:0,0:0:0:0:
85,73,142715,2,0,B|127:96|179:80|179:80|129:120|121:183,1,199.999993896485,2|0,0:2|0:0,0:0:0:0:
77,240,143343,5,10,0:2:0:0:
113,260,143448,1,8,0:2:0:0:
153,252,143552,1,8,0:2:0:0:
206,194,143657,5,0,3:2:0:0:
219,185,143762,1,8,0:2:0:0:
234,190,143867,1,8,0:2:0:0:
300,237,143971,5,10,0:2:0:0:
309,251,144076,2,0,L|292:317,1,53.3333333333333,0|0,3:2|3:2,0:0:0:0:
381,190,144285,5,8,0:2:0:0:
390,176,144390,2,0,L|373:110,1,53.3333333333333,0|0,3:2|3:2,0:0:0:0:
220,90,144600,6,0,B|282:116|318:66|302:50|348:18|403:40,1,199.999993896485,6|0,3:2|0:0,0:0:0:0:
489,0,145228,2,0,P|473:48|474:135,1,119.999996337891,2|0,0:2|0:0,0:0:0:0:
495,237,145647,1,0,3:2:0:0:
495,237,145751,1,0,3:2:0:0:
495,237,145856,6,0,B|452:191|395:204|395:204|378:266|324:286,1,199.999993896485,10|0,0:2|0:0,0:0:0:0:
336,381,146484,2,0,P|314:283|280:189,1,199.999993896485,2|0,0:2|0:0,0:0:0:0:
217,124,147113,6,0,B|154:67|88:124|88:124|123:204,1,199.999993896485,6|0,3:2|0:0,0:0:0:0:
35,220,147741,2,0,P|73:263|131:260,1,119.999996337891,2|0,0:2|0:0,0:0:0:0:
218,334,148160,1,0,3:2:0:0:
218,334,148264,1,0,3:2:0:0:
218,334,148369,6,0,B|320:299|320:299|341:240|295:211,1,199.999993896485,10|0,0:2|0:0,0:0:0:0:
251,148,148997,6,0,P|246:108|236:69,1,79.9999975585938,2|0,0:2|0:0,0:0:0:0:
319,54,149312,2,0,P|323:93|333:132,1,79.9999975585938,8|0,0:3|0:0,0:0:0:0:
405,194,149626,6,0,P|435:159|493:164,2,89.9999972534181,6|2|2,3:2|0:2|0:2,0:0:0:0:
367,275,150254,2,0,P|309:289|253:310,1,119.999996337891,2|2,3:2|3:2,0:0:0:0:
97,364,150725,1,2,0:2:0:0:
178,384,150882,2,0,B|200:325|156:293|142:307|113:267|133:218,1,179.999994506836,2|0,3:2|0:0,0:0:0:0:
190,156,151511,2,0,P|219:151|248:142,1,59.9999981689454,2|0,3:2|0:0,0:0:0:0:
271,225,151825,2,0,P|241:229|212:238,1,59.9999981689454,0|0,3:2|0:0,0:0:0:0:
108,140,152139,5,10,0:2:0:0:
216,13,152296,1,8,0:2:0:0:
223,22,152374,1,8,0:2:0:0:
230,32,152453,2,0,L|295:53,1,50,8|8,0:2|0:2,0:0:0:0:
472,59,152610,1,8,0:2:0:0:
434,46,152688,1,8,0:2:0:0:
395,51,152767,1,10,0:2:0:0:
362,74,152845,1,8,0:2:0:0:
343,109,152924,1,8,0:2:0:0:
343,149,153003,1,8,0:2:0:0:
341,188,153081,1,8,0:2:0:0:
322,223,153160,1,8,0:2:0:0:
290,246,153238,1,8,0:2:0:0:
251,251,153317,1,8,0:2:0:0:
213,238,153395,5,10,0:2:0:0:
234,199,153473,1,8,0:2:0:0:
270,177,153552,1,8,0:2:0:0:
314,176,153630,1,8,0:2:0:0:
353,196,153709,1,8,0:2:0:0:
376,232,153787,1,8,0:2:0:0:
378,275,153866,1,8,0:2:0:0:
359,313,153944,1,8,0:2:0:0:
324,339,154024,5,10,0:2:0:0:
299,345,154102,1,8,0:2:0:0:
275,352,154181,1,8,0:3:0:0:
251,359,154259,1,8,0:3:0:0:
227,365,154338,5,4,0:3:0:0:
214,359,154416,1,4,0:3:0:0:
202,355,154495,1,4,0:3:0:0:
191,350,154573,1,4,0:3:0:0:
179,346,154652,6,0,P|164:291|146:238,1,112.500004291535,6|0,3:2|0:0,0:0:0:0:
61,237,154966,2,0,P|67:266|77:294,1,60,2|0,3:2|0:0,0:0:0:0:
85,311,155280,5,14,0:2:0:0:
212,176,155437,2,0,P|168:142|114:149,1,112.500004291535,2|0,3:2|0:0,0:0:0:0:
97,164,155751,1,2,0:2:0:0:
239,272,155908,6,0,L|312:255,1,75.0000028610231,2|2,3:2|0:2,0:0:0:0:
440,229,156223,1,0,3:2:0:0:
393,308,156380,1,2,0:2:0:0:
364,159,156537,5,10,0:2:0:0:
294,337,156772,5,2,0:2:0:0:
484,309,157008,5,2,0:2:0:0:
312,255,157165,6,0,P|285:207|293:139,1,112.500004291535,2|0,3:2|0:0,0:0:0:0:
364,159,157479,2,0,P|361:188|375:215,1,60,2|0,3:2|0:0,0:0:0:0:
396,230,157793,5,14,0:2:0:0:
282,60,157950,2,0,P|241:31|137:78,1,150.000005722046,2|2,3:2|0:2,0:0:0:0:
142,190,158422,1,2,3:2:0:0:
217,121,158579,1,2,0:2:0:0:
68,76,158736,6,0,L|86:145,1,60,0|0,3:2|0:0,0:0:0:0:
57,213,159050,6,0,B|106:224|106:224|141:191,1,100,10|0,0:2|0:0,0:0:0:0:
294,210,159285,6,0,B|245:198|245:198|210:232,1,100,2|0,3:2|0:0,0:0:0:0:
93,312,159521,6,0,L|154:299,1,50,2|0,3:2|0:0,0:0:0:0:
281,384,159678,6,0,P|250:338|261:285,1,112.500004291535,6|0,3:2|0:0,0:0:0:0:
360,278,159992,2,0,P|379:306|372:340,1,60,2|0,3:2|0:0,0:0:0:0:
367,345,160306,5,14,0:2:0:0:
294,210,160463,2,0,P|325:183|406:205,1,112.500004291535,2|0,3:2|0:0,0:0:0:0:
411,208,160778,1,2,0:2:0:0:
262,285,160935,6,0,L|161:262,1,75.0000028610231,6|2,3:2|0:2,0:0:0:0:
90,59,161249,2,0,L|58:196,1,112.500004291535,0|0,3:2|0:0,0:0:0:0:
64,184,161563,6,0,P|125:200|184:125,1,150,14|0,0:2|0:0,0:0:0:0:
173,135,161877,6,0,P|146:156|147:199,1,75,2|0,0:2|0:0,0:0:0:0:
189,268,162191,6,0,L|288:291,1,75.0000028610231,12|2,0:2|3:2,0:0:0:0:
371,195,162505,2,0,L|354:268,1,75.0000028610231,2|10,3:2|0:2,0:0:0:0:
269,160,162819,1,10,0:2:0:0:
262,284,162977,1,8,0:2:0:0:
465,169,163134,1,10,0:2:0:0:
308,40,163291,1,0,3:2:0:0:
302,31,163369,1,0,3:0:0:0:
296,23,163448,5,10,0:2:0:0:
343,11,163526,1,8,0:2:0:0:
386,34,163605,1,2,3:2:0:0:
403,80,163683,1,0,3:2:0:0:
385,125,163762,5,10,0:3:0:0:
369,158,163840,1,8,0:3:0:0:
371,195,163919,1,0,3:2:0:0:
390,227,163997,1,0,3:2:0:0:
423,245,164076,5,6,0:3:0:0:
432,241,164155,1,4,0:3:0:0:
442,237,164233,2,0,L|456:186,1,50,0|0,3:2|3:2,0:0:0:0:
301,104,164390,1,2,3:2:0:0:
292,108,164469,1,0,3:2:0:0:
282,112,164547,2,0,L|268:163,1,50,2|0,3:2|3:2,0:0:0:0:
136,341,164704,5,12,0:2:0:0:
309,267,164861,1,2,3:2:0:0:
141,178,165018,1,10,0:2:0:0:
239,365,165175,1,2,3:2:0:0:
239,365,165254,1,0,3:2:0:0:
239,365,165333,2,0,L|211:264,1,100,10|0,0:2|3:2,0:0:0:0:
41,165,165647,2,0,L|67:261,1,100,8|2,0:2|3:2,0:0:0:0:
97,334,165882,1,0,3:2:0:0:
105,347,165961,5,10,0:2:0:0:
141,178,166118,1,2,3:2:0:0:
293,291,166275,1,10,0:2:0:0:
329,122,166432,1,2,3:2:0:0:
329,122,166511,1,0,3:2:0:0:
329,122,166589,6,0,L|203:93,1,100,10|0,0:2|3:2,0:0:0:0:
180,0,166825,1,2,3:2:0:0:
160,5,166903,2,0,L|34:34,1,100,8|2,0:2|3:2,0:0:0:0:
16,89,167139,1,0,3:2:0:0:
0,83,167217,5,8,0:2:0:0:
45,264,167374,1,2,3:2:0:0:
118,98,167532,1,10,0:2:0:0:
118,98,167610,2,0,L|141:218,1,100,0|0,3:2|3:2,0:0:0:0:
159,271,167846,1,10,0:2:0:0:
327,99,168003,1,2,3:2:0:0:
327,99,168081,1,0,3:2:0:0:
327,99,168160,6,0,B|251:62|207:132|207:132|266:183,1,187.5,10|0,0:2|0:0,0:0:0:0:
305,210,168474,1,10,0:2:0:0:
497,138,168631,1,2,3:2:0:0:
497,138,168709,1,0,3:2:0:0:
497,138,168788,6,0,B|534:62|464:18|464:18|413:77,1,187.5,10|0,0:2|0:0,0:0:0:0:
405,123,169102,5,10,0:2:0:0:
460,294,169259,1,0,3:2:0:0:
481,310,169337,1,0,3:2:0:0:
511,306,169416,1,10,0:2:0:0:
305,210,169573,1,2,3:2:0:0:
280,220,169651,1,0,3:2:0:0:
258,229,169730,5,14,0:2:0:0:
221,384,169888,1,0,3:2:0:0:
96,204,170045,1,8,0:2:0:0:
59,359,170203,1,0,3:2:0:0:
59,359,170280,1,0,3:2:0:0:
59,359,170359,2,0,P|113:362|147:311,1,100,10|0,0:2|3:2,0:0:0:0:
197,96,170673,2,0,P|167:141|194:196,1,100,10|0,0:2|3:2,0:0:0:0:
240,222,170908,1,0,3:2:0:0:
258,229,170987,5,10,0:2:0:0:
448,150,171144,1,0,3:2:0:0:
296,73,171301,1,10,0:2:0:0:
373,269,171458,1,0,3:2:0:0:
373,269,171537,1,0,3:2:0:0:
373,269,171615,2,0,L|347:172,1,100,10|0,0:2|3:2,0:0:0:0:
197,96,171929,1,10,0:2:0:0:
44,238,172086,1,0,3:2:0:0:
34,234,172165,1,0,3:2:0:0:
24,230,172244,5,10,0:2:0:0:
35,194,172322,1,8,0:2:0:0:
63,171,172401,1,0,3:2:0:0:
100,167,172479,1,0,3:2:0:0:
133,184,172558,6,0,L|149:236,1,50,8|8,0:3|0:3,0:0:0:0:
231,335,172715,2,0,L|247:283,1,50,4|4,0:3|0:3,0:0:0:0:
330,158,172872,5,0,3:2:0:0:
354,152,172950,1,0,3:2:0:0:
378,146,173029,1,8,0:3:0:0:
402,140,173107,1,8,0:3:0:0:
430,165,173186,5,4,0:3:0:0:
442,168,173264,1,4,0:3:0:0:
454,171,173343,1,0,3:2:0:0:
466,174,173421,1,0,3:2:0:0:
503,158,173500,5,10,0:2:0:0:
512,115,173578,1,8,0:3:0:0:
504,72,173657,1,8,0:3:0:0:
481,36,173735,1,8,0:3:0:0:
445,11,173814,1,4,0:3:0:0:
403,2,173892,1,4,0:3:0:0:
360,10,173971,1,4,0:3:0:0:
324,33,174049,1,4,0:3:0:0:
299,68,174128,5,10,0:2:0:0:
349,335,174285,1,8,0:2:0:0:
137,210,174442,1,8,0:2:0:0:
402,140,174600,1,8,0:2:0:0:
276,384,174757,6,0,B|231:321|279:263|282:267|285:273|397:203|355:93|237:82|187:169|211:253|272:249,1,412.500015735627,2|0,0:2|0:0,0:0:0:0:
352,340,175699,5,0,3:2:0:0:
398,356,175778,1,0,3:2:0:0:
442,370,175856,2,0,B|462:347|509:354|509:354|472:343|454:314,1,139.999995727539,14|0,0:2|0:0,0:0:0:0:
68,71,179005,6,0,B|123:68|181:34|181:34|240:61|212:135,1,220.000006713867,6|0,3:2|3:2,0:0:0:0:
81,371,179476,2,0,P|26:328|56:235,1,165.000005035401,10|0,0:2|0:0,0:0:0:0:
104,190,179790,1,2,3:2:0:0:
252,384,179947,1,0,3:0:0:0:
394,164,180104,2,0,P|313:161|277:250,1,165.000005035401,10|0,0:2|0:0,0:0:0:0:
192,229,180418,6,0,P|271:249|349:276,1,165.000005035401,2|0,3:2|0:0,0:0:0:0:
425,262,180732,1,10,0:2:0:0:
217,30,180889,2,0,B|144:8|110:67|130:77|78:135|7:92,1,220.000006713867,2|0,0:2|0:0,0:0:0:0:
44,10,181360,1,8,0:2:0:0:
268,146,181518,5,2,0:2:0:0:
45,279,181675,1,2,3:2:0:0:
288,338,181832,1,2,0:2:0:0:
131,132,181989,1,10,0:2:0:0:
397,68,182146,5,2,0:2:0:0:
203,268,182303,1,2,3:2:0:0:
121,0,182460,2,0,P|171:18|228:21,1,110.000003356934,2|8,0:2|0:2,0:0:0:0:
417,197,182774,1,2,0:2:0:0:
417,197,182853,1,2,0:0:0:0:
417,197,182931,6,0,P|372:190|321:252,1,120,2|0,3:2|0:0,0:0:0:0:
323,314,183245,2,0,B|355:349|355:349|418:323,1,94.9999974632264,10|0,0:2|0:0,0:0:0:0:
512,149,183559,6,0,L|494:92,1,55.0000016784668,2|0,3:2|0:0,0:0:0:0:
354,13,183716,1,8,0:2:0:0:
302,0,183794,1,8,0:2:0:0:
256,27,183873,1,10,0:2:0:0:
240,79,183952,1,8,0:2:0:0:
225,130,184030,1,8,0:2:0:0:
179,157,184109,1,8,0:2:0:0:
126,145,184188,6,0,B|55:86|124:9|124:9|179:70,1,209.999993591309,6|0,3:2|0:0,0:0:0:0:
225,130,184502,2,0,L|200:237,1,110.000003356934,10|0,0:2|0:0,0:0:0:0:
2,384,184816,1,2,3:2:0:0:
65,216,184973,1,0,3:0:0:0:
279,324,185130,2,0,B|249:364|249:364|187:391|128:324,1,165.000005035401,10|0,0:2|0:0,0:0:0:0:
200,237,185444,6,0,B|294:257|261:179|366:207,1,165.000005035401,2|0,3:2|0:0,0:0:0:0:
431,182,185758,2,0,B|472:221|472:221|452:276,1,110.000003356934,8|0,0:2|0:0,0:0:0:0:
221,153,186072,2,0,B|202:102|202:102|243:63,1,110.000003356934,10|10,0:2|0:2,0:0:0:0:
320,74,186308,1,8,0:2:0:0:
338,79,186387,1,10,0:2:0:0:
116,289,186544,6,0,B|90:262|90:262|137:187|223:252,1,165.000005035401,10|0,0:2|0:0,0:0:0:0:
256,286,186858,2,0,L|241:361,1,55.0000016784668,10|0,0:2|0:0,0:0:0:0:
417,376,187015,5,8,0:2:0:0:
451,334,187093,1,8,0:2:0:0:
450,280,187172,1,2,3:2:0:0:
415,239,187251,1,8,0:2:0:0:
380,198,187329,1,8,0:2:0:0:
379,144,187408,1,8,0:2:0:0:
413,102,187486,2,0,L|482:118,1,55.0000016784668,2|0,3:2|0:0,0:0:0:0:
322,0,187643,2,0,L|253:16,1,55.0000016784668,8|0,0:2|0:0,0:0:0:0:
135,130,187800,6,0,B|116:101|116:101|152:100,1,69.9999978637696,6|0,3:2|0:0,0:0:0:0:
194,313,188114,6,0,B|165:331|165:331|164:295,1,69.9999978637696,2|0,3:2|0:0,0:0:0:0:
377,254,188429,6,0,B|395:282|395:282|359:283,1,69.9999978637696,2|0,3:2|0:0,0:0:0:0:
318,71,188743,6,0,B|346:52|346:52|347:88,1,69.9999978637696,10|0,0:2|0:0,0:0:0:0:
271,260,189057,6,0,B|282:170|215:208|234:108,1,150.000005722046,6|0,3:2|3:2,0:0:0:0:
101,2,189528,2,0,P|143:28|126:103,1,112.500004291535,0|0,3:2|0:0,0:0:0:0:
146,117,189842,2,0,P|73:96|0:87,1,150.000005722046,2|2,3:2|3:2,0:0:0:0:
118,259,190313,6,0,P|148:216|257:243,1,150.000005722046,2|2,0:2|0:2,0:0:0:0:
317,172,190785,1,0,3:2:0:0:
397,288,190942,1,8,0:3:0:0:
391,312,191020,1,8,0:3:0:0:
386,336,191099,1,2,3:2:0:0:
452,207,191256,1,6,0:3:0:0:
446,182,191334,1,4,0:3:0:0:
441,158,191413,1,2,3:2:0:0:
292,307,191570,6,0,P|237:320|184:338,1,112.500004291535,14|0,0:2|0:0,0:0:0:0:
146,351,191884,2,0,P|125:317|152:265,1,75.0000028610231,2|0,0:2|3:2,0:0:0:0:
213,122,192198,1,2,0:2:0:0:
263,224,192355,2,0,P|190:204|117:188,1,150.000005722046,0|0,3:2|3:2,0:0:0:0:
30,211,192826,1,2,0:2:0:0:
204,73,192983,6,0,L|219:149,1,50,0|0,3:2|0:0,0:0:0:0:
188,306,193141,1,10,0:2:0:0:
224,342,193219,1,8,0:2:0:0:
273,350,193298,1,10,0:2:0:0:
317,330,193376,1,8,0:2:0:0:
344,289,193456,1,10,0:2:0:0:
371,247,193533,1,8,0:2:0:0:
416,227,193612,1,10,0:2:0:0:
464,236,193690,1,8,0:2:0:0:
500,271,193770,1,8,0:2:0:0:
504,321,193848,1,8,0:2:0:0:
479,363,193927,1,10,0:2:0:0:
434,384,194005,1,8,0:2:0:0:
386,373,194083,2,0,L|421:316,1,50,0|0,3:2|0:0,0:0:0:0:
512,168,194240,5,12,0:2:0:0:
267,39,194397,1,0,3:2:0:0:
278,313,194554,1,2,3:2:0:0:
407,51,194711,5,12,0:2:0:0:
172,198,194868,1,2,3:2:0:0:
412,330,195025,1,0,3:2:0:0:
155,59,195182,5,14,0:2:0:0:
390,206,195339,1,2,3:2:0:0:
147,334,195496,1,0,3:2:0:0:
267,39,195654,5,14,0:2:0:0:
278,313,195811,1,2,3:2:0:0:
33,185,195968,1,2,3:2:0:0:
352,114,196125,5,14,0:2:0:0:
147,334,196282,1,2,3:2:0:0:
438,361,196439,5,14,0:2:0:0:
205,174,196596,1,0,3:2:0:0:
496,117,196753,6,0,L|476:198,1,55.0000016784668,8|0,0:2|0:0,0:0:0:0:
438,361,196910,1,0,3:2:0:0:
432,335,196988,1,0,3:2:0:0:
425,308,197067,2,0,L|412:255,1,55.0000016784668,2|0,3:2|0:0,0:0:0:0:
352,114,197224,6,0,L|332:195,1,55.0000016784668,8|0,0:2|0:0,0:0:0:0:
294,358,197381,1,2,3:2:0:0:
288,332,197459,1,0,3:2:0:0:
281,305,197538,2,0,L|268:252,1,55.0000016784668,0|0,3:2|0:0,0:0:0:0:
202,74,197696,6,0,B|227:124|227:124|201:183,1,110.000003356934,10|2,0:2|3:2,0:0:0:0:
182,305,197931,1,8,0:2:0:0:
182,340,198009,5,0,3:2:0:0:
151,356,198088,1,8,0:2:0:0:
121,384,198167,5,2,3:2:0:0:
88,373,198246,1,8,0:2:0:0:
47,371,198325,5,0,3:2:0:0:
32,340,198402,1,8,0:2:0:0:
4,309,198480,5,2,3:2:0:0:
16,276,198559,1,8,0:2:0:0:
6,233,198638,5,10,0:2:0:0:
46,196,198716,1,8,0:2:0:0:
101,194,198795,1,10,0:2:0:0:
142,229,198874,1,8,0:2:0:0:
184,262,198952,1,10,0:2:0:0:
238,260,199031,1,8,0:2:0:0:
277,224,199110,6,0,B|277:161|314:102|314:102|288:133|240:154,1,189.999994926453,6|0,3:2|3:2,0:0:0:0:
366,308,199581,2,0,P|429:334|476:286,1,142.49999619484,8|0,0:2|0:0,0:0:0:0:
511,222,199895,2,0,P|466:205|419:198,1,94.9999974632264,0|0,3:2|0:0,0:0:0:0:
234,53,200210,2,0,P|165:42|110:96,1,142.49999619484,8|0,0:2|0:0,0:0:0:0:
69,148,200524,6,0,P|94:214|107:284,1,142.49999619484,0|0,3:2|0:0,0:0:0:0:
50,333,200838,2,0,B|2:332|2:332|42:287,1,94.9999974632264,8|0,0:2|0:0,0:0:0:0:
197,151,201152,1,2,3:2:0:0:
264,232,201309,1,0,0:0:0:0:
281,43,201466,2,0,L|202:59,1,47.4999987316132,8|0,0:2|0:0,0:0:0:0:
353,202,201623,6,0,B|378:164|433:161|433:161|377:152|347:92,1,189.999994926453,14|0,0:2|3:2,0:0:0:0:
189,269,202094,2,0,P|257:260|307:307,1,142.49999619484,8|0,0:2|0:0,0:0:0:0:
261,365,202409,2,0,P|210:370|167:382,1,94.9999974632264,0|0,3:2|0:0,0:0:0:0:
0,248,202723,2,0,P|68:256|118:209,1,142.49999619484,8|0,0:2|0:0,0:0:0:0:
145,118,203037,5,0,3:2:0:0:
189,269,203194,1,2,0:2:0:0:
283,85,203351,1,10,0:2:0:0:
327,236,203508,1,0,0:2:0:0:
197,41,203665,5,2,3:2:0:0:
119,208,203822,1,2,0:2:0:0:
275,313,203979,1,10,0:2:0:0:
118,106,204136,6,0,B|55:52|-11:99|-11:99|16:167,1,189.999994926453,6|0,3:2|3:2,0:0:0:0:
173,340,204608,2,0,P|190:271|216:204,1,142.49999619484,8|0,0:2|0:0,0:0:0:0:
279,155,204922,2,0,P|297:108|263:59,1,94.9999974632264,0|0,3:2|0:0,0:0:0:0:
494,182,205236,2,0,P|439:173|386:259,1,142.49999619484,8|0,0:2|0:0,0:0:0:0:
360,310,205550,5,8,0:2:0:0:
329,340,205628,1,8,0:2:0:0:
287,341,205707,1,0,3:2:0:0:
252,317,205786,1,0,3:2:0:0:
238,283,205864,1,8,0:2:0:0:
216,265,205943,1,8,0:2:0:0:
193,263,206021,1,0,3:2:0:0:
178,269,206100,1,0,3:2:0:0:
172,277,206178,5,10,0:2:0:0:
213,298,206256,1,8,0:2:0:0:
259,291,206335,1,8,0:2:0:0:
293,259,206413,1,8,0:2:0:0:
303,214,206492,1,8,0:2:0:0:
284,171,206570,1,8,0:2:0:0:
244,146,206648,6,0,B|176:131|176:131|153:85|153:85|61:64,1,189.999994926453,6|0,3:2|3:2,0:0:0:0:
0,272,207119,2,0,P|42:221|129:240,1,142.49999619484,10|0,0:2|0:0,0:0:0:0:
172,277,207433,2,0,P|159:322|150:369,1,94.9999974632264,2|0,3:2|0:0,0:0:0:0:
339,278,207747,2,0,P|319:205|304:132,1,142.49999619484,8|0,0:2|0:0,0:0:0:0:
327,64,208061,5,2,3:2:0:0:
238,221,208218,1,2,0:0:0:0:
423,273,208375,2,0,P|467:256|512:242,1,94.9999974632264,10|0,0:2|0:0,0:0:0:0:
429,8,208689,5,2,3:2:0:0:
305,139,208846,1,2,3:2:0:0:
174,15,209003,1,10,0:2:0:0:
417,102,209160,6,0,B|453:135|456:188|456:188|417:231|423:297,1,189.999994926453,6|0,3:2|3:2,0:0:0:0:
224,384,209632,2,0,P|211:313|193:245,1,142.49999619484,10|0,0:2|0:0,0:0:0:0:
138,189,209946,2,0,P|91:184|53:244,1,94.9999974632264,2|0,3:2|0:0,0:0:0:0:
296,301,210260,2,0,P|338:254|292:166,1,142.49999619484,8|0,0:2|0:0,0:0:0:0:
262,133,210574,5,2,3:2:0:0:
424,337,210731,2,0,P|431:290|442:243,1,94.9999974632264,10|10,0:2|0:2,0:0:0:0:
496,187,210967,1,8,0:2:0:0:
508,176,211045,1,8,0:2:0:0:
387,10,211202,2,0,P|379:56|368:103,1,94.9999974632264,10|10,0:2|0:2,0:0:0:0:
331,171,211438,1,8,0:2:0:0:
319,182,211516,1,10,0:2:0:0:
192,0,211666,6,0,B|176:56|176:56|192:96|192:96|171:174,1,165.000005035401,6|0,3:2|0:0,0:0:0:0:
124,216,211980,2,0,L|149:298,1,55.0000016784668,0|0,3:2|3:2,0:0:0:0:
284,361,212137,5,10,0:2:0:0:
297,364,212215,1,0,3:2:0:0:
311,366,212294,1,0,3:2:0:0:
324,369,212372,1,0,3:2:0:0:
338,372,212451,5,10,0:2:0:0:
369,346,212529,1,0,3:2:0:0:
382,307,212608,1,0,3:2:0:0:
373,268,212686,1,0,3:2:0:0:
345,239,212765,1,8,0:2:0:0:
316,210,212844,1,0,3:2:0:0:
306,170,212922,1,0,3:2:0:0:
320,132,213001,1,0,3:2:0:0:
351,106,213079,5,10,0:2:0:0:
364,104,213157,1,0,3:2:0:0:
378,102,213236,1,0,3:2:0:0:
391,99,213314,1,0,3:2:0:0:
405,97,213393,5,10,0:2:0:0:
439,117,213471,1,0,3:2:0:0:
460,153,213550,1,0,3:2:0:0:
456,194,213628,1,0,3:2:0:0:
434,228,213707,6,0,L|376:246,1,55.0000016784668,10|0,0:2|3:2,0:0:0:0:
337,358,213865,2,0,L|279:340,1,55.0000016784668,2|0,3:2|3:2,0:0:0:0:
263,181,214022,6,0,L|205:199,1,55.0000016784668,10|0,0:2|3:2,0:0:0:0:
166,311,214180,2,0,L|108:293,1,55.0000016784668,2|0,3:2|3:0,0:0:0:0:
0,133,214336,5,8,0:2:0:0:
18,96,214414,1,0,3:2:0:0:
51,72,214493,1,0,3:2:0:0:
91,66,214571,1,0,3:2:0:0:
130,80,214650,5,10,0:2:0:0:
127,93,214728,1,0,3:2:0:0:
124,106,214807,1,0,3:2:0:0:
121,120,214885,1,0,3:2:0:0:
118,133,214964,5,10,0:2:0:0:
157,147,215043,1,0,3:2:0:0:
197,141,215121,1,0,3:2:0:0:
230,117,215200,1,0,3:2:0:0:
248,80,215278,1,8,0:2:0:0:
266,43,215356,1,0,3:2:0:0:
299,19,215435,1,0,3:2:0:0:
339,13,215513,1,0,3:2:0:0:
378,27,215592,6,0,L|397:97,1,55.0000016784668,14|0,0:2|0:0,0:0:0:0:
512,207,215749,1,8,0:2:0:0:
464,182,215827,1,8,0:2:0:0:
410,187,215906,1,10,0:2:0:0:
368,221,215984,1,8,0:2:0:0:
352,273,216063,1,8,0:2:0:0:
335,324,216142,1,8,0:2:0:0:
294,359,216220,1,10,0:2:0:0:
240,364,216299,1,8,0:2:0:0:
192,339,216377,1,10,0:2:0:0:
162,294,216456,1,8,0:2:0:0:
159,240,216534,1,10,0:2:0:0:
189,194,216613,1,8,0:2:0:0:
243,168,216692,6,0,B|297:180|297:180|311:207|311:207|399:227,1,145.000004425049,6|0,3:2|0:0,0:0:0:0:
243,168,219205,6,0,B|201:170|160:151|160:151|121:184|144:232,1,160,6|0,3:2|0:0,0:0:0:0:
