osu file format v14

[General]
AudioFilename: audio.mp3
AudioLeadIn: 0
PreviewTime: 178848
Countdown: 0
SampleSet: Soft
StackLeniency: 0.5
Mode: 0
LetterboxInBreaks: 0
WidescreenStoryboard: 1

[Editor]
Bookmarks: 420,15498,35603,39608,55550,75655,93247,114294,134555,154660,175864,199110
DistanceSpacing: 0.7
BeatDivisor: 4
GridSize: 4
TimelineZoom: 2.399999

[Metadata]
Title:ADAMAS
TitleUnicode:ADAMAS
Artist:LiSA
ArtistUnicode:LiSA
Creator:IOException
Version:Insane
Source:ソードアート・オンライン アリシゼーション
Tags:regou deadcode ceo_of_osu ceo of osu japanese anime opening version full size tv ending sword art online kirito kiritosu 1080p wallpaper Alicization War Underworld
BeatmapID:3830036
BeatmapSetID:1248246

[Difficulty]
HPDrainRate:5
CircleSize:3.6
OverallDifficulty:8
ApproachRate:9
SliderMultiplier:2
SliderTickRate:1

[Events]
//Background and Video events
0,0,"3.jpg",0,0
//Break Periods
2,176064,178405
//Storyboard Layer 0 (Background)
//Storyboard Layer 1 (Fail)
//Storyboard Layer 2 (Pass)
//Storyboard Layer 3 (Foreground)
//Storyboard Layer 4 (Overlay)
//Storyboard Sound Samples

[TimingPoints]
420,314.13612565445,4,2,0,50,1,0
420,-166.666666666667,4,2,0,50,0,0
5274,314.13612565445,4,2,0,50,1,0
5431,314.13612565445,4,1,1,50,1,0
15326,-125,4,1,1,50,0,0
15483,-125,4,1,1,35,0,0
23336,-125,4,1,1,40,0,0
24122,-200,4,1,1,40,0,0
25378,-100,4,1,1,50,0,0
34488,-100,4,1,1,45,0,0
34959,-100,4,1,1,40,0,0
35588,-100,4,1,1,45,0,0
35902,-200,4,1,1,45,0,0
40614,-142.857142857143,4,1,1,45,0,0
44540,-76.9230769230769,4,1,1,45,0,0
45640,-100,4,1,1,50,0,0
50666,-125,4,1,1,50,0,0
54279,-250,4,1,1,50,0,0
55221,-100,4,1,1,50,0,0
55543,314.13612565445,4,1,1,55,1,1
55543,-83.3333333333333,4,1,1,55,0,1
55700,314.13612565445,4,2,1,55,1,1
56014,-83.3333333333333,4,2,1,55,0,1
63553,-133.333333333333,4,2,1,55,0,1
65595,-83.3333333333333,4,2,1,55,0,1
66066,-90.9090909090909,4,2,1,55,0,1
69521,-83.3333333333333,4,2,1,50,0,1
70150,-83.3333333333333,4,2,1,45,0,1
70778,-83.3333333333333,4,2,1,55,0,1
73291,-83.3333333333333,4,2,1,45,0,1
74548,-83.3333333333333,4,2,1,50,0,1
75176,-83.3333333333333,4,2,1,55,0,1
75647,-83.3333333333333,4,2,1,55,0,0
82087,-83.3333333333333,4,2,1,45,0,0
83186,-83.3333333333333,4,2,1,55,0,0
83343,314.13612565445,4,2,1,55,1,0
83657,-83.3333333333333,4,2,1,55,0,0
92767,-133.333333333333,4,2,1,55,0,0
93238,-133.333333333333,4,2,1,50,0,0
94023,-100,4,2,1,50,0,0
94808,-133.333333333333,4,2,1,50,0,0
96536,-100,4,2,1,50,0,0
97164,-133.333333333333,4,2,1,50,0,0
99049,-100,4,2,1,50,0,0
99678,-133.333333333333,4,2,1,50,0,0
100777,-100,4,2,1,50,0,0
112258,314.13612565445,4,2,1,50,1,0
114286,314.13612565445,4,2,1,55,1,1
114286,-83.3333333333333,4,2,1,55,0,1
114443,314.13612565445,4,1,1,55,1,1
114757,-83.3333333333333,4,1,1,55,0,1
123134,-83.3333333333333,4,1,1,55,0,1
123159,-83.3333333333333,4,1,1,55,0,1
123448,-83.3333333333333,4,1,1,55,0,1
123473,-83.3333333333333,4,1,1,55,0,1
123762,-83.3333333333333,4,1,1,55,0,1
123788,-83.3333333333333,4,1,1,55,0,1
124076,-83.3333333333333,4,1,1,55,0,1
124102,-83.3333333333333,4,1,1,55,0,1
124338,-90.9090909090909,4,1,1,55,0,1
128107,-83.3333333333333,4,1,1,55,0,1
128264,-83.3333333333333,4,1,1,50,0,1
128893,-83.3333333333333,4,1,1,45,0,1
129207,-83.3333333333333,4,1,1,50,0,1
129521,-83.3333333333333,4,1,1,55,0,1
133291,-100,4,1,1,55,0,1
133605,-125,4,1,1,55,0,1
134076,-133.333333333333,4,1,1,55,0,1
134390,-200,4,1,1,55,0,0
134547,-200,4,1,1,40,0,0
143343,-117.647058823529,4,1,1,40,0,0
144600,-166.666666666667,4,1,1,40,0,0
149626,-125,4,1,1,45,0,0
152139,-83.3333333333333,4,1,1,45,0,0
152296,-83.3333333333333,4,1,1,50,0,0
152453,-125,4,1,1,50,0,0
154652,-125,4,1,1,45,0,0
156537,-83.3333333333333,4,1,1,45,0,0
157322,-125,4,1,1,45,0,0
159050,-71.4285714285714,4,1,1,45,0,0
160306,-125,4,1,1,45,0,0
162191,-125,4,1,1,50,0,0
164704,-100,4,1,1,55,0,0
166589,-83.3333333333333,4,1,1,55,0,0
167374,-100,4,1,1,55,0,0
169102,-66.6666666666667,4,1,1,55,0,0
169730,-83.3333333333333,4,1,1,55,0,0
175699,-133.333333333333,4,1,1,55,0,0
179005,314.13612565445,4,1,1,55,1,1
179005,-83.3333333333333,4,1,1,55,0,1
179162,314.13612565445,4,1,1,55,1,1
179476,-83.3333333333333,4,1,1,55,0,1
187840,-83.3333333333333,4,1,1,5,0,1
187878,-83.3333333333333,4,1,1,5,0,1
188114,-83.3333333333333,4,1,1,55,0,1
188154,-83.3333333333333,4,1,1,5,0,1
188192,-83.3333333333333,4,1,1,5,0,1
188429,-83.3333333333333,4,1,1,55,0,1
188468,-83.3333333333333,4,1,1,5,0,1
188507,-83.3333333333333,4,1,1,5,0,1
188743,-83.3333333333333,4,1,1,55,0,1
188782,-83.3333333333333,4,1,1,5,0,1
188821,-83.3333333333333,4,1,1,5,0,1
189057,-90.9090909090909,4,1,1,55,0,1
192826,-83.3333333333333,4,1,1,55,0,1
199109,-83.3333333333333,4,1,1,55,0,0
203664,-100,4,1,1,55,0,0
204135,-83.3333333333333,4,1,1,55,0,0
206805,314.13612565445,4,1,1,55,1,0
207119,-83.3333333333333,4,1,1,55,0,0
211666,314.13612565445,4,1,1,55,1,0
211666,-83.3333333333333,4,1,1,55,0,0
211823,314.13612565445,4,1,1,55,1,0
212137,-83.3333333333333,4,1,1,55,0,0
213864,-111.111111111111,4,1,1,55,0,0
214179,-83.3333333333333,4,1,1,55,0,0
216220,-133.333333333333,4,1,1,55,0,0

[Colours]
Combo1 : 128,153,255
Combo2 : 255,60,60
Combo3 : 255,106,143
Combo4 : 168,220,71
Combo5 : 177,84,84
Combo6 : 249,197,77

[HitObjects]
100,326,420,6,0,B|94:263,2,59.9999999999999,0|0|2,2:0|2:0|2:0,2:0:0:0:
24,190,891,2,0,L|164:179,1,120,0|0,2:0|2:0,2:0:0:0:
230,112,1362,2,0,B|224:175,2,59.9999999999999,2|0|0,2:0|2:0|2:0,2:0:0:0:
172,257,1833,2,0,L|312:246,1,120,0|0,2:0|2:0,2:0:0:0:
393,295,2304,2,0,B|376:268|376:268|369:233,1,59.9999999999999,0|0,2:0|2:0,2:0:0:0:
474,178,2618,2,0,B|457:205|457:205|450:240,1,59.9999999999999,2|0,2:0|2:0,2:0:0:0:
512,305,2854,1,0,2:0:0:0:
512,305,2933,6,0,L|446:316,2,59.9999999999999,0|0|2,2:0|2:0|2:0,2:0:0:0:
376,276,3404,2,0,L|251:296,1,120,0|0,2:0|2:0,2:0:0:0:
205,226,3875,6,0,L|139:215,2,59.9999999999999,2|0|0,2:0|2:0|2:0,2:0:0:0:
305,170,4346,2,0,L|371:159,1,59.9999999999999,0|2,2:0|2:0,2:0:0:0:
222,135,4660,1,2,2:0:0:0:
222,135,5274,6,0,B|316:128|274:222|393:212,1,200,4|0,1:0|2:0,1:0:0:0:
259,263,5745,2,0,B|252:168|346:210|336:91,2,200,8|2|8,1:0|1:0|1:0,1:0:0:0:
393,212,6530,1,0,1:0:0:0:
393,212,6687,2,0,B|274:222|316:128|222:135,1,200,2|10,1:0|1:0,1:0:0:0:
0,206,7315,1,0,1:0:0:0:
0,206,7472,1,0,1:0:0:0:
100,119,7629,1,8,1:0:0:0:
52,16,7787,6,0,L|80:236,1,200,4|0,1:0|1:0,1:0:0:0:
36,334,8258,2,0,P|85:246|176:241,1,200,8|2,1:0|1:0,1:0:0:0:
243,330,8729,1,0,1:0:0:0:
243,330,8886,2,0,L|112:348,1,100,8|0,1:0|1:0,1:0:0:0:
143,343,9122,1,0,1:0:0:0:
143,343,9200,2,0,L|117:110,1,200,2|8,1:0|1:0,1:0:0:0:
149,18,9828,1,0,1:0:0:0:
155,31,9907,1,0,1:0:0:0:
160,43,9985,1,0,1:0:0:0:
166,55,10064,1,0,1:0:0:0:
171,67,10143,1,8,1:0:0:0:
120,144,10300,6,0,L|353:174,1,200,4|0,1:0|1:0,1:0:0:0:
335,270,10771,2,0,L|365:37,1,200,8|2,1:0|1:0,1:0:0:0:
246,0,11242,1,0,1:0:0:0:
246,0,11399,2,0,B|222:48|222:48|237:93,1,100,8|0,1:0|1:0,1:0:0:0:
207,171,11635,1,0,1:0:0:0:
207,171,11713,2,0,L|446:143,1,200,2|8,1:0|1:0,1:0:0:0:
371,363,12341,1,0,1:0:0:0:
371,363,12499,1,0,1:0:0:0:
358,239,12656,1,8,1:0:0:0:
453,286,12813,6,2,B|401:259|401:259|244:292,1,200,2|0,1:0|1:0,1:0:0:0:
192,339,13284,2,0,B|176:277|176:277|198:212|198:212|171:125,1,200,8|2,1:0|1:0,1:0:0:0:
14,215,13755,1,0,1:0:0:0:
14,215,13912,2,0,B|81:198|81:198|122:211,1,100,8|0,1:0|1:0,1:0:0:0:
111,208,14226,6,0,L|118:139,3,50,8|0|0|0,1:0|1:0|1:0|1:0,0:0:0:0:
151,71,14540,1,8,1:0:0:0:
167,92,14619,1,0,1:0:0:0:
190,106,14698,1,0,1:0:0:0:
216,110,14776,1,0,1:0:0:0:
241,105,14855,1,2,1:0:0:0:
325,34,15012,2,0,L|333:113,2,50,0|0|8,1:0|1:0|1:0,1:0:0:0:
425,148,15326,6,0,L|257:173,1,160,4|0,1:2|1:0,1:0:0:0:
266,171,15797,1,8,1:0:0:0:
207,114,16111,1,8,1:0:0:0:
125,151,16425,1,8,1:0:0:0:
56,92,16739,6,0,L|46:1,1,80,8|0,1:0|1:0,0:0:0:0:
125,151,17054,2,0,L|133:230,1,80,8|0,1:0|1:0,0:0:0:0:
207,114,17368,2,0,L|197:23,1,80,8|0,1:0|1:0,1:0:0:0:
266,171,17682,2,0,L|274:250,1,80,8|0,1:0|1:0,1:0:0:0:
355,101,17996,5,8,1:0:0:0:
355,101,18153,1,0,1:0:0:0:
355,101,18310,2,0,P|442:100|485:182,1,160,8|8,1:0|1:0,1:0:0:0:
427,254,18781,2,0,B|416:336,2,80,0|8|0,1:0|1:0|1:0,0:0:0:0:
403,171,19252,2,0,B|368:193|368:193|243:167,1,160,8|8,1:0|1:0,1:0:0:0:
163,207,19724,1,0,1:0:0:0:
200,59,19881,5,8,1:0:0:0:
251,168,20038,2,0,L|245:128,2,40,0|0|8,1:0|1:0|1:0,0:0:0:0:
265,248,20352,5,0,1:0:0:0:
265,248,20509,2,0,L|171:235,1,80,8|0,1:0|0:0,1:0:0:0:
73,325,20823,1,8,1:0:0:0:
73,325,20980,1,0,1:0:0:0:
73,325,21137,2,0,L|167:312,1,80,8|0,1:0|1:0,1:0:0:0:
288,384,21451,2,0,L|194:371,1,80,8|0,1:0|1:0,1:0:0:0:
185,237,21766,5,8,1:0:0:0:
185,237,21923,1,0,1:0:0:0:
208,373,22080,2,0,L|288:384,1,80,8|0,1:0|1:0,0:0:0:0:
152,314,22394,2,0,L|73:325,1,80,8|0,1:0|1:0,0:0:0:0:
185,237,22708,2,0,L|265:248,1,80,8|0,1:0|1:0,0:0:0:0:
232,76,23022,6,0,L|242:162,1,80,8|0,1:0|1:0,1:0:0:0:
195,316,23336,2,0,L|185:231,1,80,8|0,1:0|1:0,1:0:0:0:
185,236,23572,1,0,1:0:0:0:
185,236,23650,1,0,1:0:0:0:
346,180,23807,2,0,L|350:228,2,40,0|0|0,1:0|1:0|1:0,0:0:0:0:
309,335,24122,6,0,B|357:312|357:312|409:326,2,100,0|0|0,1:0|1:0|1:0,1:0:0:0:
309,335,25064,2,0,L|314:282,1,50,0|0,1:0|1:0,0:0:0:0:
405,380,25378,6,0,L|375:162,1,200,4|2,1:0|2:0,1:0:0:0:
275,129,25849,2,0,L|491:156,1,200,8|0,1:0|1:0,1:0:0:0:
363,57,26321,1,2,2:0:0:0:
377,181,26478,2,0,L|390:280,1,100,8|2,1:0|2:0,1:0:0:0:
311,336,26792,5,0,1:0:0:0:
144,297,26949,1,0,2:0:0:0:
236,275,27106,2,0,L|214:382,1,100,8|0,1:0|2:0,0:0:0:0:
171,207,27420,5,0,1:0:0:0:
121,42,27577,1,0,2:0:0:0:
186,111,27734,1,8,1:0:0:0:
186,111,27891,2,0,L|82:145,1,100,0|4,2:0|1:0,1:0:0:0:
95,264,28205,5,0,2:0:0:0:
95,264,28362,2,0,P|30:240|35:98,1,200,8|0,1:0|1:0,1:0:0:0:
72,45,28834,2,0,B|119:65|119:65|175:51,2,100,2|8|2,2:0|1:0|2:0,0:0:0:0:
156,187,29305,5,0,1:0:0:0:
303,93,29462,1,2,2:0:0:0:
234,192,29619,2,0,L|221:93,1,100,8|2,1:0|2:0,0:0:0:0:
316,8,29933,5,0,1:0:0:0:
463,102,30090,1,2,2:0:0:0:
394,3,30247,2,0,L|380:102,1,100,8|2,1:0|2:0,0:0:0:0:
347,278,30561,1,4,1:2:0:0:
303,137,30718,5,2,2:0:0:0:
303,137,30876,2,0,L|404:116,1,100,8|0,1:0|2:0,0:0:0:0:
261,310,31190,2,0,L|329:386,1,100,0|2,1:0|2:0,1:0:0:0:
306,228,31504,2,0,L|184:202,1,100,8|2,1:0|2:0,1:0:0:0:
126,282,31818,5,0,1:0:0:0:
126,282,31975,1,2,2:0:0:0:
261,310,32132,6,0,P|274:256|260:207,1,100,8|0,1:0|2:0,0:0:0:0:
371,183,32446,2,0,P|345:132|262:120,1,100,0|0,1:0|2:0,0:0:0:0:
298,11,32760,6,0,P|219:29|194:117,1,150,8|0,1:0|1:0,1:0:0:0:
190,86,33074,6,0,B|141:96|141:96|71:68,1,100,4|0,1:2|1:0,1:0:0:0:
74,253,33389,2,0,B|123:243|123:243|193:271,1,100,8|0,1:0|1:0,1:0:0:0:
285,255,33703,6,0,L|294:369,1,100,2|0,1:2|1:0,1:0:0:0:
177,361,34017,2,0,L|168:255,1,100,8|0,1:0|1:0,1:0:0:0:
214,99,34331,1,4,1:2:0:0:
250,175,34488,1,8,1:0:0:0:
222,187,34567,1,8,1:0:0:0:
192,186,34645,1,8,1:0:0:0:
165,173,34724,1,8,1:0:0:0:
146,150,34802,1,8,1:0:0:0:
149,25,34959,6,0,L|91:38,3,50,2|0|0|0,1:2|1:2|1:2|1:2,0:0:0:0:
22,6,35273,1,8,1:0:0:0:
18,30,35352,1,8,1:0:0:0:
13,54,35430,1,8,1:0:0:0:
10,78,35509,1,8,1:0:0:0:
7,102,35588,1,0,1:0:0:0:
86,194,35902,6,0,P|95:172|116:151,1,50,0|0,1:0|2:0,2:0:0:0:
76,202,36216,2,0,P|80:178|96:153,1,50,0|0,1:0|2:0,2:0:0:0:
67,214,36530,2,0,P|66:190|76:162,1,50,0|0,1:0|2:0,2:0:0:0:
201,71,36844,6,0,P|210:93|231:114,1,50,0|0,1:0|2:0,2:0:0:0:
191,63,37158,2,0,P|195:87|211:112,1,50,0|2,1:0|2:0,2:0:0:0:
182,51,37472,2,0,P|181:75|191:103,1,50,0|2,1:0|2:0,2:0:0:0:
175,40,37787,2,0,P|169:63|172:92,1,50,0|2,1:0|2:0,2:0:0:0:
194,189,38022,1,2,2:0:0:0:
194,189,38101,6,0,L|125:198,1,50,4|0,1:0|2:0,2:0:0:0:
163,266,38415,2,0,L|94:275,1,50,0|0,1:0|2:0,2:0:0:0:
328,242,38729,2,0,L|390:232,1,50,0|0,1:0|2:0,2:0:0:0:
277,174,39043,2,0,L|339:164,1,50,0|0,1:0|2:0,2:0:0:0:
266,384,39357,5,0,1:0:0:0:
245,254,39514,2,0,L|255:322,1,50,0|0,2:0|1:0,0:0:0:0:
339,152,39828,6,0,L|344:111,2,25,4|0|2,2:0|0:0|2:0,2:0:0:0:
328,242,40143,2,0,L|400:230,1,50,4|0,2:0|1:0,2:0:0:0:
253,132,40457,5,2,2:0:0:0:
172,117,40614,2,0,L|71:104,2,69.9999999999999,4|0|0,1:0|2:0|1:0,2:0:0:0:
235,45,41085,5,2,2:0:0:0:
255,212,41242,2,0,L|355:199,1,69.9999999999999,0|0,2:0|2:0,2:0:0:0:
257,136,41556,5,0,1:0:0:0:
226,289,41713,2,0,L|131:276,2,69.9999999999999,2|0|0,2:0|2:0|2:0,2:0:0:0:
239,214,42184,5,0,1:0:0:0:
248,364,42341,2,0,L|342:351,1,69.9999999999999,2|0,2:0|2:0,2:0:0:0:
80,305,42656,2,0,L|10:313,1,69.9999999999999,0|0,2:0|1:0,2:0:0:0:
164,372,42970,1,0,1:0:0:0:
164,372,43048,1,0,1:0:0:0:
164,372,43127,1,4,1:0:0:0:
237,293,43284,5,0,2:0:0:0:
237,293,43441,2,0,B|244:257|244:257|228:204,1,69.9999999999999,0|2,1:0|2:0,2:0:0:0:
350,145,43755,2,0,B|341:179|341:179|357:232,1,69.9999999999999,0|2,1:0|2:0,2:0:0:0:
455,321,44069,2,0,B|462:285|462:285|446:232,1,69.9999999999999,0|2,1:0|2:0,2:0:0:0:
315,330,44383,5,0,1:0:0:0:
452,253,44540,2,0,B|385:269|385:269|312:240,1,130,4|0,2:0|1:0,2:0:0:0:
180,170,44855,1,0,2:0:0:0:
232,303,45012,1,0,1:0:0:0:
267,163,45169,1,0,1:0:0:0:
269,145,45247,1,0,1:0:0:0:
272,127,45326,1,0,1:0:0:0:
274,108,45404,1,0,1:0:0:0:
277,90,45483,1,0,1:0:0:0:
279,72,45561,1,0,1:0:0:0:
282,53,45640,6,0,L|161:32,1,100,4|0,1:0|2:0,2:0:0:0:
33,20,45954,6,0,B|54:68|54:68|43:128,1,100,8|0,1:0|1:0,2:0:0:0:
27,196,46190,1,0,1:0:0:0:
27,196,46268,2,0,L|125:210,1,100,2|0,1:2|1:0,1:0:0:0:
222,382,46582,2,0,B|243:334|243:334|232:274,1,100,8|0,1:0|1:0,2:0:0:0:
216,206,46818,1,0,1:0:0:0:
216,206,46896,6,0,L|314:191,1,100,2|0,1:0|1:0,1:0:0:0:
140,312,47211,2,0,L|41:326,1,100,8|0,1:0|1:0,2:0:0:0:
158,140,47525,1,2,1:0:0:0:
234,287,47682,1,2,1:2:0:0:
77,220,47839,2,0,P|93:179|171:154,1,100,8|2,1:0|1:2,2:0:0:0:
120,67,48074,1,0,1:0:0:0:
120,67,48153,6,0,L|223:87,1,100,4|0,1:0|2:0,1:0:0:0:
342,197,48467,2,0,L|239:217,1,100,8|2,1:0|1:2,2:0:0:0:
161,229,48781,1,0,1:0:0:0:
232,92,48938,1,2,1:2:0:0:
342,197,49095,2,0,P|308:217|279:282,1,100,8|0,1:0|1:0,2:0:0:0:
328,363,49331,1,0,1:0:0:0:
328,363,49410,6,0,L|218:347,1,100,0|0,1:0|1:0,2:0:0:0:
86,177,49724,2,0,L|196:161,1,100,8|0,1:0|1:0,2:0:0:0:
171,270,50038,5,2,1:2:0:0:
171,270,50195,1,0,1:0:0:0:
141,72,50352,1,8,1:0:0:0:
307,157,50509,1,0,1:0:0:0:
307,157,50588,1,0,1:0:0:0:
307,157,50666,6,0,B|318:195|318:195|297:256,1,80,4|0,1:0|2:0,0:0:0:0:
187,263,50980,1,2,2:0:0:0:
74,194,51137,2,0,B|151:222|138:161|231:195,1,160,0|0,1:0|2:0,2:0:0:0:
0,230,51609,2,0,B|-11:192|-11:192|10:131,1,80,8|0,1:0|1:0,2:0:0:0:
0,80,51844,1,0,1:0:0:0:
0,80,51923,6,0,P|45:81|93:117,1,80,4|8,1:0|1:0,0:0:0:0:
178,173,52237,1,0,2:0:0:0:
90,256,52394,2,0,L|74:94,1,160,8|0,1:0|1:0,2:0:0:0:
37,321,52865,2,0,P|72:338|112:338,1,80,8|0,1:0|1:0,1:0:0:0:
255,262,53179,5,4,1:2:0:0:
234,265,53258,1,2,2:0:0:0:
213,268,53336,1,2,2:0:0:0:
192,271,53415,1,2,2:0:0:0:
171,274,53493,1,2,2:0:0:0:
293,332,53650,5,12,2:0:0:0:
320,312,53729,1,2,2:0:0:0:
336,283,53807,1,2,2:0:0:0:
337,249,53886,1,2,2:0:0:0:
324,219,53965,1,2,2:0:0:0:
244,157,54122,2,0,L|236:116,1,40,12|0,2:0|2:0,2:0:0:0:
195,48,54279,6,0,P|213:40|279:51,1,80,8|0,2:0|2:0,2:0:0:0:
348,54,54750,2,0,L|341:98,1,40,0|0,2:0|2:0,2:0:0:0:
245,243,55064,1,2,2:1:0:0:
245,243,55221,2,0,P|214:168|121:166,1,150,0|0,2:0|2:0,2:0:0:0:
142,144,55543,6,0,B|272:117|217:242|353:220,1,239.999992675781,6|0,1:0|2:0,2:0:0:0:
339,114,56014,2,0,B|201:127|287:234|154:242,1,240,8|2,1:0|1:0,2:0:0:0:
14,254,56485,1,0,2:0:0:0:
14,254,56642,2,0,P|45:191|106:201,1,120,8|2,1:0|2:0,2:0:0:0:
165,146,56878,1,0,2:0:0:0:
165,146,56956,6,0,L|199:424,1,240,2|8,1:0|1:0,2:0:0:0:
247,113,57427,2,0,P|214:73|129:71,1,120,4|0,2:0|2:0,2:0:0:0:
80,115,57741,1,2,2:0:0:0:
314,166,57898,2,0,P|332:113|303:49,1,120,8|0,1:0|2:0,2:0:0:0:
309,55,58134,1,2,1:2:0:0:
309,55,58213,5,4,1:0:0:0:
235,199,58370,1,2,2:0:0:0:
308,355,58527,2,0,L|433:329,1,120,8|2,1:0|2:0,0:0:0:0:
369,196,58841,5,0,1:0:0:0:
425,330,58998,2,0,B|349:312|349:312|281:356|281:356|178:335,1,240,2|0,1:0|1:0,0:0:0:0:
118,363,59391,1,0,1:0:0:0:
118,363,59469,2,0,L|132:240,1,120,2|0,1:0|1:0,1:0:0:0:
21,160,59783,6,0,B|6:218|6:218|29:281,1,120,8|0,1:0|1:0,1:0:0:0:
303,272,60097,2,0,B|317:213|317:213|297:157,1,120,2|0,1:0|1:0,1:0:0:0:
161,222,60412,2,0,L|172:349,1,120,8|0,1:0|1:0,1:0:0:0:
171,341,60647,1,0,1:0:0:0:
171,341,60726,6,0,B|218:213|109:224|180:79,2,240,6|8|2,1:0|1:0|1:0,1:0:0:0:
346,137,61668,2,0,P|315:71|265:73,1,120,8|0,1:0|1:3,1:3:0:0:
249,160,61904,1,0,1:0:0:0:
249,160,61982,6,0,L|509:192,2,240,2|8|0,1:0|1:0|1:0,2:0:0:0:
79,141,62768,2,0,P|96:113|94:77,1,60,2|2,1:2|1:2,0:0:0:0:
108,0,62925,2,0,P|72:17|43:14,1,60,8|2,1:0|1:2,0:0:0:0:
12,98,63082,6,0,P|105:104|184:232,1,240,2|2,1:0|1:0,2:0:0:0:
211,303,63474,1,0,2:0:0:0:
211,303,63553,2,0,L|150:295,3,37.5000000000001,8|8|8|8,1:0|1:0|1:0|1:0,2:0:0:0:
119,357,63867,1,8,1:0:0:0:
89,363,63946,1,8,1:0:0:0:
59,370,64024,1,8,1:0:0:0:
30,376,64103,1,8,1:0:0:0:
0,382,64181,1,8,1:0:0:0:
63,253,64338,6,0,L|55:306,1,37.5000000000001,12|0,1:2|0:0,2:0:0:0:
286,324,64652,6,0,L|278:377,1,37.5000000000001,12|0,1:2|0:0,2:0:0:0:
196,231,64967,6,0,L|188:284,1,37.5000000000001,12|0,1:2|0:0,2:0:0:0:
419,302,65281,6,0,L|411:355,1,37.5000000000001,12|0,1:2|0:0,2:0:0:0:
299,300,65595,6,0,P|261:244|97:245,1,240,4|0,1:0|2:0,2:0:0:0:
103,241,66066,2,0,P|215:251|285:168,1,220,8|2,1:0|1:0,2:0:0:0:
215,293,66537,2,0,L|206:233,2,55,0|0|8,2:0|2:0|1:0,2:0:0:0:
201,70,66851,6,0,B|229:175|111:158|133:264,1,220,2|2,2:1|2:1,2:0:0:0:
277,203,67323,2,0,B|217:114|146:211|81:117,1,220,8|0,1:0|1:0,2:0:0:0:
247,36,67794,2,0,L|233:103,2,55,2|0|4,1:2|1:0|1:2,0:0:0:0:
257,177,68108,6,0,L|374:198,1,110,2|0,2:0|2:0,2:0:0:0:
121,145,68422,2,0,L|12:123,1,110,0|8,2:0|1:0,2:0:0:0:
220,13,68736,2,0,L|198:120,1,110,2|0,2:0|1:0,2:0:0:0:
162,305,69050,2,0,L|182:197,1,110,2|8,2:0|1:0,2:0:0:0:
136,49,69364,1,2,2:0:0:0:
88,171,69521,6,0,L|72:105,3,60,8|8|8|8,1:0|1:0|1:0|1:0,0:0:0:0:
68,251,69836,1,8,1:0:0:0:
100,255,69914,1,8,1:0:0:0:
133,260,69993,1,8,1:0:0:0:
166,264,70071,1,8,1:0:0:0:
199,269,70150,2,0,L|272:248,3,60,8|8|8|8,1:0|1:0|1:0|1:0,0:0:0:0:
195,123,70464,2,0,L|173:178,1,60,8|8,1:0|1:0,0:0:0:0:
120,339,70621,1,8,1:0:0:0:
120,339,70699,1,8,1:0:0:0:
120,339,70778,6,0,L|241:359,2,120,4|0|2,1:0|2:0|2:0,2:0:0:0:
274,162,71249,6,0,B|261:135|261:135|264:105,1,60,4|0,1:0|2:0,2:0:0:0:
213,266,71406,2,0,L|358:242,1,120,0|0,2:0|2:0,2:0:0:0:
331,246,71720,6,0,B|343:276|343:276|338:303,1,60,4|0,1:2|2:0,2:0:0:0:
351,125,71878,2,0,L|498:149,1,120,2|0,2:0|2:0,2:0:0:0:
469,144,72192,6,0,B|480:116|480:116|476:86,1,60,4|0,1:0|2:0,2:0:0:0:
512,258,72349,2,0,P|451:263|412:342,1,120,2|4,2:0|2:0,2:0:0:0:
347,369,72584,1,0,2:0:0:0:
347,369,72663,6,0,L|329:210,1,120,4|2,1:0|2:0,2:0:0:0:
160,99,72977,2,0,B|124:145|124:145|141:228,1,120,4|0,1:0|2:0,2:0:0:0:
150,369,73291,5,8,1:0:0:0:
170,370,73370,1,8,1:0:0:0:
191,372,73448,1,8,1:0:0:0:
212,374,73527,1,8,1:0:0:0:
233,376,73605,1,8,1:0:0:0:
151,288,73762,5,8,1:0:0:0:
177,290,73841,1,8,1:0:0:0:
205,293,73919,2,0,L|278:304,3,60,8|0|2|0,1:0|1:0|1:2|0:0,0:0:0:0:
322,237,74234,1,8,1:0:0:0:
341,217,74312,1,0,1:0:0:0:
361,199,74391,2,0,L|330:147,3,60,8|8|8|8,1:0|1:0|1:0|1:0,0:0:0:0:
207,85,74705,2,0,L|147:89,3,60,8|8|8|8,1:0|1:0|1:0|1:0,0:0:0:0:
287,78,75019,2,0,L|317:7,1,60,8|8,1:0|1:0,0:0:0:0:
262,166,75176,5,2,1:0:0:0:
262,166,75254,1,0,1:0:0:0:
262,166,75333,1,2,1:0:0:0:
262,166,75412,1,0,1:0:0:0:
262,166,75490,2,0,L|252:247,1,60,8|0,1:0|1:0,1:0:0:0:
341,315,75647,6,0,B|307:198|194:292|151:160,1,240,6|0,1:0|2:0,2:0:0:0:
139,373,76118,2,0,L|256:327,1,120,8|0,1:0|2:0,2:0:0:0:
354,171,76432,2,0,L|242:214,1,120,0|2,1:0|2:1,2:0:0:0:
157,273,76747,2,0,L|141:146,1,120,8|0,1:0|2:0,2:0:0:0:
343,265,77061,2,0,L|357:384,1,120,4|0,1:2|2:0,2:0:0:0:
119,351,77375,2,0,B|178:359|178:359|230:328,1,120,8|0,1:0|2:0,2:0:0:0:
384,182,77689,2,0,B|325:174|325:174|272:204,1,120,0|0,1:0|2:0,2:0:0:0:
272,204,77925,1,0,1:0:0:0:
272,204,78003,1,8,1:2:0:0:
376,323,78160,6,0,B|360:191|463:235|431:86,1,240,4|0,1:0|2:0,2:0:0:0:
433,99,78631,2,0,L|416:235,1,120,8|0,1:0|2:0,2:0:0:0:
246,182,78946,2,0,L|263:318,1,120,2|0,1:2|2:0,2:0:0:0:
70,252,79260,2,0,L|53:388,1,120,8|0,1:0|2:0,2:0:0:0:
2,198,79574,2,0,B|55:167|55:167|119:176,1,120,0|0,1:0|2:0,2:0:0:0:
260,301,79888,2,0,B|207:332|207:332|143:323,1,120,8|0,1:0|2:0,2:0:0:0:
234,144,80202,2,0,P|321:131|369:207,1,180,2|0,1:0|2:0,2:0:0:0:
368,198,80516,1,8,1:0:0:0:
369,330,80673,6,0,P|413:212|533:231,1,240,4|0,1:2|2:0,2:0:0:0:
511,213,81145,2,0,B|531:161|531:161|498:61,1,120,8|0,1:0|2:0,2:0:0:0:
371,30,81459,2,0,L|520:8,1,120,0|0,1:0|2:0,2:0:0:0:
432,227,81773,2,0,L|313:244,1,120,8|0,1:0|2:0,2:0:0:0:
286,28,82087,6,0,L|301:97,3,60,8|8|8|8,1:0|1:0|1:0|1:0,0:0:0:0:
250,178,82401,2,0,L|319:163,3,60,8|8|8|8,1:0|1:0|1:0|1:0,0:0:0:0:
174,195,82715,5,8,1:0:0:0:
169,220,82794,1,8,1:0:0:0:
164,246,82872,1,2,1:2:0:0:
159,272,82951,1,0,1:0:0:0:
155,299,83029,2,0,L|87:308,1,60,0|0,1:0|2:0,2:0:0:0:
137,384,83186,6,0,L|106:103,1,239.999992675781,4|0,1:0|2:0,2:0:0:0:
31,146,83657,2,0,B|15:90|15:90|40:-1,1,120,8|0,1:2|1:2,2:0:0:0:
283,29,83971,2,0,B|299:85|299:85|282:144,1,120,2|0,1:0|1:2,2:0:0:0:
146,273,84285,2,0,L|137:153,1,120,8|0,1:2|1:2,2:0:0:0:
56,225,84521,1,0,2:0:0:0:
56,225,84599,6,0,B|72:285|72:285|58:342,1,120,2|2,1:0|1:0,2:0:0:0:
262,228,84913,2,0,B|247:288|247:288|261:345,1,120,8|2,1:2|1:2,2:0:0:0:
328,110,85227,6,0,L|201:121,1,120,4|0,1:0|1:0,2:0:0:0:
208,120,85463,1,0,2:0:0:0:
208,120,85541,1,8,1:0:0:0:
175,238,85699,6,0,L|199:0,1,240,4|0,1:0|1:0,2:0:0:0:
49,33,86170,2,0,B|33:95|33:95|56:152,1,120,8|2,1:0|1:2,2:0:0:0:
288,148,86484,2,0,B|309:96|309:96|293:34,1,120,2|2,1:0|1:2,2:0:0:0:
151,172,86798,2,0,L|167:303,1,120,8|0,1:0|1:0,2:0:0:0:
269,339,87034,1,0,1:0:0:0:
269,339,87112,6,0,B|246:282|246:282|267:197,1,120,2|0,1:0|1:0,2:0:0:0:
476,350,87426,2,0,B|499:293|499:293|478:208,1,120,8|0,1:0|1:0,2:0:0:0:
358,182,87740,1,8,1:0:0:0:
381,174,87819,1,8,1:0:0:0:
401,158,87897,1,8,1:0:0:0:
416,138,87976,1,8,1:0:0:0:
422,114,88055,2,0,L|496:126,1,60,8|0,1:0|1:0,0:0:0:0:
498,209,88212,6,0,B|406:194|406:194|363:217|363:217|251:199,1,240,4|0,1:0|1:0,2:0:0:0:
185,244,88683,2,0,L|174:124,1,120,8|2,1:0|1:0,2:0:0:0:
349,119,88997,2,0,L|338:0,1,120,0|2,1:0|1:0,2:0:0:0:
471,148,89311,2,0,B|508:202|508:202|495:288,1,120,8|0,1:0|1:0,2:0:0:0:
401,345,89547,1,0,1:0:0:0:
401,345,89625,6,0,L|421:218,1,120,2|0,1:0|1:0,2:0:0:0:
229,174,89939,2,0,L|249:47,1,120,8|0,1:0|1:0,2:0:0:0:
391,111,90253,5,0,1:0:0:0:
212,254,90411,2,0,L|282:243,1,60,0|0,1:0|2:0,2:0:0:0:
219,114,90568,2,0,L|230:181,1,60,8|0,1:0|2:0,2:0:0:0:
133,268,90725,6,0,B|252:289|232:171|365:198,1,240,4|0,1:0|1:0,2:0:0:0:
440,161,91117,1,0,1:0:0:0:
440,161,91196,2,0,L|423:284,1,120,8|0,1:0|1:0,0:0:0:0:
163,58,91510,2,0,L|180:181,1,120,8|0,1:0|1:0,2:0:0:0:
250,246,91746,1,0,1:0:0:0:
250,246,91824,2,0,L|114:273,1,120,8|0,1:0|1:0,2:0:0:0:
0,251,92138,5,8,1:0:0:0:
30,244,92217,1,0,1:0:0:0:
58,229,92295,1,0,1:0:0:0:
80,207,92374,1,0,1:0:0:0:
93,178,92452,2,0,L|86:113,3,60,8|0|0|0,1:0|1:0|1:0|1:0,0:0:0:0:
80,39,92767,6,0,L|38:29,1,37.5000000000001,8|0,1:0|1:0,1:0:0:0:
216,80,92924,2,0,L|252:88,1,37.5000000000001,0|0,1:0|1:0,1:0:0:0:
86,118,93081,1,8,1:0:0:0:
183,0,93238,6,0,L|147:313,1,300.000000000001,4|0,1:0|2:0,2:0:0:0:
173,285,94023,2,0,P|312:327|402:214,1,300,4|0,1:0|2:0,2:0:0:0:
494,348,94651,5,4,1:0:0:0:
494,348,94808,2,0,L|335:330,1,150,2|0,2:0|2:0,2:0:0:0:
344,331,95201,1,0,2:0:0:0:
344,331,95280,1,4,1:0:0:0:
289,209,95437,2,0,L|331:197,2,37.5000000000001,0|0|0,2:0|2:0|2:0,2:0:0:0:
233,336,95751,6,0,P|309:306|315:100,1,300.000000000001,4|0,1:0|2:0,2:0:0:0:
330,97,96536,2,0,P|272:56|100:159,1,300,4|0,1:0|2:0,2:0:0:0:
22,237,97164,6,0,B|134:228|105:328|227:317,1,225.000000000001,4|0,1:0|2:0,2:0:0:0:
221,317,97714,1,0,2:0:0:0:
221,317,97793,1,8,1:0:0:0:
357,114,98107,1,2,2:0:0:0:
357,114,98264,6,0,B|372:213|372:213|303:290|303:290|319:390,1,300.000000000001,4|0,1:0|2:0,2:0:0:0:
477,270,99049,2,0,B|377:286|377:286|301:218|301:218|204:233,1,300,4|0,1:0|2:0,2:0:0:0:
44,181,99678,6,0,P|124:263|83:382,1,225.000000000001,4|0,1:0|2:0,2:0:0:0:
104,362,100306,2,0,P|153:321|246:337,1,150,4|0,1:0|2:0,2:0:0:0:
365,362,100777,6,0,P|329:245|390:177,1,200,4|0,2:0|1:0,2:0:0:0:
362,113,101170,1,0,1:0:0:0:
362,113,101248,2,0,L|347:53,3,50,8|0|0|0,1:0|0:0|1:0|1:0,0:0:0:0:
440,78,101562,5,8,1:0:0:0:
463,103,101641,1,0,1:0:0:0:
475,135,101719,1,0,1:0:0:0:
473,170,101798,1,0,1:0:0:0:
459,201,101877,2,0,L|404:217,1,50,8|0,1:0|2:0,1:0:0:0:
412,294,102034,1,8,1:0:0:0:
412,294,103290,6,0,B|442:187|367:206|396:95,1,200,4|0,1:0|2:0,2:0:0:0:
432,8,103761,2,0,L|304:32,1,100,8|2,1:0|2:0,2:0:0:0:
308,213,104075,2,0,P|378:210|367:80,1,200,2|8,1:0|1:0,2:0:0:0:
317,107,104547,1,2,2:0:0:0:
196,192,104704,6,0,P|212:253|220:318,1,100,0|2,1:0|2:0,0:0:0:0:
214,89,105018,2,0,P|153:105|88:113,1,100,8|2,1:0|2:0,0:0:0:0:
317,107,105332,2,0,P|301:46|293:-19,1,100,0|2,1:0|2:0,0:0:0:0:
196,192,105646,1,8,1:0:0:0:
376,270,105803,6,0,B|365:223|365:223|387:151,1,100,2|4,2:0|1:0,2:0:0:0:
472,89,106117,2,0,L|242:67,1,200,2|2,2:0|2:0,2:0:0:0:
181,155,106589,2,0,L|392:174,1,200,2|8,1:0|1:0,2:0:0:0:
272,69,107060,1,2,2:0:0:0:
180,153,107217,6,0,B|162:204|162:204|173:250,1,100,4|2,1:0|2:0,0:0:0:0:
371,268,107531,2,0,B|388:217|388:217|379:172,1,100,8|2,1:0|2:0,0:0:0:0:
271,146,107845,2,0,L|283:345,1,200,2|4,1:0|1:2,2:0:0:0:
283,345,108473,5,4,1:0:0:0:
238,262,108630,2,0,L|129:255,1,100,2|8,2:1|1:0,0:0:0:0:
199,343,108945,1,2,2:1:0:0:
363,350,109102,2,0,L|472:357,1,100,0|2,1:0|2:1,0:0:0:0:
359,188,109416,2,0,L|250:181,1,100,8|2,1:0|2:1,0:0:0:0:
56,234,109730,5,4,1:0:0:0:
77,336,109887,1,2,2:0:0:0:
182,312,110044,1,8,1:0:0:0:
161,209,110201,1,2,2:0:0:0:
161,209,110280,1,0,0:0:0:0:
161,209,110358,2,0,L|277:220,1,100,0|0,1:0|2:0,0:0:0:0:
426,89,110672,2,0,B|446:54|446:54|340:88,1,150,8|0,1:0|1:0,0:0:0:0:
341,87,110986,6,0,L|354:186,1,100,4|0,1:2|2:0,2:0:0:0:
435,182,111301,2,0,L|448:281,1,100,8|0,1:2|2:0,2:0:0:0:
354,376,111615,6,0,L|367:276,1,100,2|0,1:2|2:0,2:0:0:0:
448,281,111850,1,0,1:0:0:0:
448,281,111929,2,0,L|461:181,1,100,8|0,1:2|2:0,2:0:0:0:
496,87,112258,5,8,1:0:0:0:
469,84,112336,1,0,1:0:0:0:
447,70,112414,1,0,1:0:0:0:
432,49,112493,1,0,1:0:0:0:
427,23,112571,2,0,L|354:17,3,50,8|0|0|0,1:0|1:0|1:0|1:0,2:0:0:0:
314,71,112885,5,10,1:0:0:0:
270,67,112964,1,0,1:0:0:0:
234,90,113042,1,0,1:0:0:0:
219,131,113121,1,0,1:0:0:0:
232,172,113199,1,10,1:0:0:0:
325,221,113356,2,0,L|310:290,1,50,0|0,1:0|1:0,2:0:0:0:
314,269,113514,6,0,B|268:265|268:265|237:280|237:280|157:271,2,133.333333333333,8|8|8,1:0|1:0|1:0,2:0:0:0:
165,296,114286,6,0,P|107:306|34:152,1,239.999992675781,6|0,1:0|1:0,0:0:0:0:
52,0,114757,2,0,P|149:80|103:184,1,240,8|2,1:0|1:0,1:0:0:0:
24,172,115228,1,0,2:0:0:0:
234,106,115385,2,0,B|363:126,1,120,8|0,1:0|1:0,1:0:0:0:
332,246,115621,1,0,1:0:0:0:
332,246,115699,6,0,B|241:231|241:231|213:188|213:188|102:170,1,240,2|8,1:0|1:0,1:0:0:0:
33,233,116170,2,0,B|17:178|17:178|37:101,1,120,2|0,2:0|1:0,1:0:0:0:
151,37,116484,1,0,1:0:0:0:
40,4,116641,1,8,1:0:0:0:
117,173,116799,6,0,L|108:113,2,60,2|0|0,1:2|1:0|1:0,1:0:0:0:
213,139,117113,1,2,2:0:0:0:
244,231,117270,1,8,1:0:0:0:
148,265,117427,1,2,1:0:0:0:
148,265,117505,1,0,0:0:0:0:
148,265,117584,5,0,1:0:0:0:
45,219,117741,2,0,L|291:260,1,240,2|0,1:0|1:0,1:0:0:0:
373,275,118134,1,0,1:0:0:0:
373,275,118212,6,0,B|355:220|355:220|396:115|396:115|374:47,2,240,2|8|2,1:0|1:0|1:0,1:0:0:0:
251,223,118997,1,8,1:0:0:0:
253,194,119076,1,8,1:0:0:0:
257,166,119155,1,8,1:0:0:0:
260,139,119233,1,8,1:0:0:0:
264,110,119312,2,0,L|197:117,1,60,8|8,1:0|1:0,0:0:0:0:
131,237,119469,6,0,L|257:221,1,120,6|0,1:0|1:0,1:0:0:0:
270,29,119783,2,0,L|150:43,1,120,8|0,1:0|1:0,1:0:0:0:
46,119,120097,2,0,P|31:43|-25:15,1,120,2|0,1:0|1:0,1:0:0:0:
223,150,120411,2,0,P|264:84|326:78,1,120,8|0,1:0|1:0,1:0:0:0:
150,42,120647,1,0,1:0:0:0:
150,42,120725,6,0,L|99:294,2,240,2|8|0,1:0|1:0|1:0,1:0:0:0:
309,18,121511,1,2,1:0:0:0:
330,14,121589,1,0,1:0:0:0:
352,9,121668,1,8,1:0:0:0:
373,5,121746,1,0,1:0:0:0:
395,0,121825,2,0,B|422:36|422:36|399:246,1,240,4|4,1:2|1:2,1:0:0:0:
419,314,122217,1,0,0:0:0:0:
419,314,122296,2,0,L|341:300,1,60,8|0,1:0|0:0,1:0:0:0:
320,235,122453,6,0,L|253:256,3,60,0|0|0|0,1:0|1:0|1:0|1:0,0:0:0:0:
176,300,122767,1,0,1:0:0:0:
177,279,122846,1,0,1:0:0:0:
179,258,122924,1,0,1:0:0:0:
181,237,123003,1,0,1:0:0:0:
183,215,123081,6,0,L|115:196,1,60,4|0,1:2|0:0,1:0:0:0:
179,24,123395,6,0,L|111:5,1,60,8|0,1:0|0:0,1:0:0:0:
86,290,123710,6,0,L|18:271,1,60,4|0,1:2|0:0,1:0:0:0:
82,99,124024,6,0,L|14:80,1,60,8|0,1:0|0:0,1:0:0:0:
199,299,124338,6,0,B|175:182|175:182|267:89,1,220,2|0,1:0|1:0,1:0:0:0:
366,254,124809,2,0,B|343:138|343:138|233:106,1,220,8|0,1:0|1:0,1:0:0:0:
288,289,125280,2,0,L|298:342,2,55,0|0|8,1:0|1:0|1:0,1:0:0:0:
199,297,125594,6,0,P|230:218|363:230,1,220,0|0,1:0|1:0,1:0:0:0:
492,211,126066,2,0,P|439:190|424:136,1,110,8|0,1:0|1:0,1:0:0:0:
423,142,126301,1,0,1:0:0:0:
423,142,126380,1,2,1:0:0:0:
328,84,126537,5,0,1:0:0:0:
306,86,126615,1,0,1:0:0:0:
287,89,126694,1,8,1:0:0:0:
268,92,126772,1,0,1:0:0:0:
248,93,126851,2,0,P|197:93|148:49,1,110,2|0,1:0|1:0,1:0:0:0:
153,57,127165,2,0,L|174:170,1,110,2|8,1:0|1:0,1:0:0:0:
196,294,127479,2,0,L|80:315,1,110,0|0,1:0|1:0,1:0:0:0:
65,185,127793,2,0,L|178:163,1,110,0|0,1:0|1:0,1:0:0:0:
314,289,128107,6,0,P|350:221|226:131,1,240,0|8,1:0|1:0,0:0:0:0:
177,81,128500,1,8,1:0:0:0:
177,81,128579,2,0,L|169:-4,3,60,8|8|8|8,1:0|1:0|1:0|1:0,0:0:0:0:
129,199,128893,1,8,1:0:0:0:
168,204,128971,1,8,1:0:0:0:
206,192,129050,1,8,1:0:0:0:
234,164,129128,1,8,1:0:0:0:
247,126,129207,2,0,L|322:138,1,60,8|8,1:0|1:0,0:0:0:0:
396,47,129364,2,0,L|336:56,1,60,8|8,1:0|1:0,1:0:0:0:
236,12,129521,6,0,B|260:64|260:64|245:131,1,120,4|0,1:0|2:0,1:0:0:0:
162,70,129835,1,0,2:0:0:0:
383,126,129992,6,0,L|451:114,1,60,4|0,1:0|1:0,1:0:0:0:
311,207,130149,2,0,L|331:345,1,120,0|2,1:0|2:0,1:0:0:0:
328,325,130463,6,0,L|237:310,1,60,8|0,1:0|1:0,1:0:0:0:
197,224,130621,2,0,L|216:105,1,120,2|0,2:0|1:0,1:0:0:0:
216,105,130935,6,0,L|156:113,1,60,8|0,1:0|1:0,1:0:0:0:
52,137,131092,2,0,L|73:286,1,120,0|0,1:0|1:0,1:0:0:0:
25,329,131327,1,0,1:0:0:0:
25,329,131406,6,0,B|85:344|85:344|145:308,1,120,8|0,1:0|1:0,1:0:0:0:
267,159,131720,2,0,B|217:129|217:129|157:144,1,120,8|0,1:0|1:0,1:0:0:0:
187,343,132034,6,0,L|342:364,1,120,4|0,1:0|1:0,1:0:0:0:
306,360,132348,6,0,B|298:327|298:327|305:298,1,60,8|0,1:0|1:0,1:0:0:0:
156,248,132505,2,0,L|6:271,1,120,4|0,1:0|1:0,1:0:0:0:
37,266,132819,6,0,B|29:242|29:242|40:193,1,60,0|0,1:0|1:0,1:0:0:0:
101,69,132977,2,0,L|111:148,2,80,8|8|8,1:0|1:0|1:0,1:0:0:0:
211,126,133291,6,0,L|183:202,2,66.6666666666667,4|0|0,1:0|1:0|1:0,1:0:0:0:
276,237,133605,6,0,L|206:282,2,53.3333333333333,0|0|0,1:0|1:0|1:0,0:0:0:0:
152,265,133919,5,4,1:2:0:0:
255,353,134076,2,0,L|200:343,2,37.5000000000001,0|0|2,2:0|1:0|2:1,2:0:0:0:
422,243,134390,6,0,B|322:258|261:117|261:117|235:271|125:288,1,450,4|2,1:0|2:1,2:0:0:0:
54,304,136432,1,2,2:1:0:0:
331,311,136746,5,0,1:0:0:0:
331,311,136903,2,0,B|446:209|373:11|186:118|249:297,1,450,0|0,1:0|2:1,1:0:0:0:
247,291,138631,6,0,P|265:235|306:217,1,100,0|2,1:0|2:1,1:0:0:0:
390,379,139259,1,8,2:0:0:0:
390,379,139416,1,0,1:0:0:0:
390,379,139573,6,2,P|181:302|-2:348,2,400,4|2|2,2:1|2:1|2:1,2:0:0:0:
390,379,143343,6,0,L|376:307,2,56.6666666666669,8|8|8,1:0|1:0|1:0,1:0:0:0:
300,311,143657,2,0,L|286:239,2,56.6666666666669,0|8|0,1:0|1:0|1:0,1:0:0:0:
223,368,143971,2,0,L|209:296,2,56.6666666666669,8|0|0,1:0|1:0|1:0,0:0:0:0:
133,300,144285,2,0,L|119:228,2,56.6666666666669,8|0|0,1:0|1:0|1:0,0:0:0:0:
238,236,144600,6,0,P|116:222|-26:208,1,240,4|0,1:0|1:0,2:0:0:0:
311,283,145542,5,0,1:0:0:0:
311,283,145699,1,0,2:0:0:0:
404,219,145856,2,0,B|428:152|380:89|303:100|303:100|316:167,1,240,8|0,1:0|1:0,2:0:0:0:
404,219,146799,5,0,1:0:0:0:
224,261,147113,2,0,B|348:225|332:330|452:296,1,240,4|0,1:0|1:0,2:0:0:0:
451,296,148055,5,0,1:0:0:0:
451,296,148212,1,0,2:0:0:0:
411,119,148369,2,0,P|366:221|376:373,1,240,8|2,1:0|2:1,2:0:0:0:
229,154,149312,6,0,P|230:102|222:80,1,59.9999999999999,0|0,1:0|1:0,1:0:0:0:
227,94,149547,1,0,1:0:0:0:
227,94,149626,6,0,L|111:108,1,80,0|0,3:0|1:0,1:0:0:0:
303,165,149940,2,0,L|382:155,1,80,0|0,3:0|1:0,1:0:0:0:
226,248,150254,2,0,L|110:262,1,80,0|0,3:0|1:0,1:0:0:0:
309,338,150568,2,0,L|425:324,1,80,0|0,3:0|1:0,1:0:0:0:
388,328,150882,6,0,B|383:288|383:288|400:235,1,80,0|0,3:0|1:0,1:0:0:0:
315,180,151196,2,0,B|320:220|320:220|303:273,1,80,0|0,3:0|1:0,1:0:0:0:
478,177,151511,2,0,B|438:182|438:182|385:165,1,80,0|0,3:0|1:0,1:0:0:0:
230,250,151825,2,0,B|270:245|270:245|323:262,1,80,0|0,3:0|1:0,1:0:0:0:
477,284,152139,2,0,P|411:306|390:361,1,120,8|8,1:0|1:0,0:0:0:0:
312,384,152374,1,8,1:0:0:0:
312,384,152453,6,0,L|308:332,3,40,8|0|8|8,1:0|1:0|1:0|1:0,0:0:0:0:
201,320,152767,2,0,L|249:303,3,40,8|8|8|8,1:0|1:0|1:0|1:0,0:0:0:0:
255,201,153081,2,0,L|289:243,3,40,8|8|8|8,1:0|1:0|1:0|1:0,0:0:0:0:
357,253,153395,5,10,1:0:0:0:
379,239,153474,1,8,1:0:0:0:
398,220,153552,1,10,1:0:0:0:
415,199,153631,1,8,1:0:0:0:
427,176,153710,2,0,L|500:185,3,40,10|8|10|8,1:0|1:0|1:0|1:0,0:0:0:0:
512,103,154024,1,4,1:2:0:0:
490,71,154102,1,0,1:0:0:0:
464,43,154181,1,0,1:0:0:0:
433,21,154259,1,0,1:0:0:0:
399,4,154338,2,0,L|406:66,1,40,0|0,1:0|1:0,1:0:0:0:
329,95,154495,2,0,L|336:157,1,40,0|0,1:0|2:0,1:0:0:0:
410,124,154652,5,4,3:2:0:0:
321,18,154809,2,0,L|207:26,2,80,0|2|0,1:0|2:0|1:0,0:0:0:0:
268,181,155280,1,4,1:0:0:0:
226,105,155437,6,0,P|307:107|356:173,1,160,0|0,2:0|2:0,2:0:0:0:
158,142,155830,1,0,1:0:0:0:
158,142,155908,2,0,B|147:100|147:100|173:31,1,80,4|2,1:0|2:0,1:0:0:0:
355,88,156223,2,0,B|366:130|366:130|340:199,1,80,0|0,1:0|2:0,1:0:0:0:
251,279,156537,6,0,B|242:200|242:200|248:185|248:185|237:83,2,180,4|0|0,1:0|2:0|2:0,0:0:0:0:
260,361,157165,5,4,1:0:0:0:
338,305,157322,2,0,L|322:189,2,80,0|0|0,1:0|2:0|1:0,1:0:0:0:
165,232,157793,1,4,1:0:0:0:
251,279,157950,5,2,2:0:0:0:
158,335,158107,2,0,L|61:310,1,80,0|0,1:0|2:0,1:0:0:0:
252,177,158422,5,4,1:0:0:0:
158,335,158579,1,2,2:0:0:0:
318,367,158736,2,0,L|401:384,1,80,0|0,1:0|1:0,0:0:0:0:
252,177,159050,6,0,B|241:268|241:268|248:285|248:285|235:404,2,210,8|8|8,1:0|1:0|1:0,1:0:0:0:
252,177,159600,1,0,0:0:0:0:
252,177,159678,1,4,1:0:0:0:
345,325,159835,5,0,1:0:0:0:
345,325,159992,1,2,2:0:0:0:
345,325,160149,1,0,1:0:0:0:
415,245,160306,6,0,L|321:231,1,80,4|2,1:0|2:0,0:0:0:0:
184,64,160621,2,0,L|278:78,1,80,0|0,1:0|2:0,0:0:0:0:
218,192,160935,5,4,1:0:0:0:
336,151,161092,1,2,2:0:0:0:
316,308,161249,2,0,P|267:269|265:226,1,80,0|0,1:0|2:0,1:0:0:0:
335,233,161563,1,4,1:0:0:0:
229,345,161720,6,0,B|253:266|312:318|341:214,1,160,0|0,1:0|2:0,1:0:0:0:
419,205,162191,6,2,L|401:96,1,80,4|0,1:0|1:0,1:0:0:0:
206,127,162505,2,0,L|224:18,1,80,8|0,1:0|1:0,1:0:0:0:
309,136,162819,5,2,1:2:0:0:
334,232,162977,1,0,1:0:0:0:
359,329,163134,1,8,1:0:0:0:
253,312,163291,2,0,L|195:299,1,40,0|0,1:0|1:0,1:0:0:0:
148,355,163448,1,8,1:0:0:0:
138,320,163526,1,0,1:0:0:0:
115,293,163605,1,8,1:0:0:0:
82,278,163683,1,0,1:0:0:0:
47,278,163762,2,0,L|35:210,3,40,8|0|8|0,1:0|1:0|1:0|1:0,0:0:0:0:
20,156,164076,6,0,L|125:176,1,80,8|8,1:0|1:0,1:0:0:0:
178,186,164312,1,8,1:0:0:0:
178,186,164390,2,0,L|282:205,1,80,8|2,1:0|1:0,1:0:0:0:
342,307,164704,6,0,B|324:263|324:263|334:207,1,100,4|2,1:0|1:2,1:0:0:0:
122,242,165018,2,0,B|140:286|140:286|129:341,1,100,8|2,1:0|1:2,1:0:0:0:
247,365,165333,1,0,1:0:0:0:
232,234,165490,1,2,1:2:0:0:
217,103,165647,2,0,B|106:116,1,100,8|2,1:0|1:2,1:0:0:0:
36,124,165882,1,0,1:0:0:0:
36,124,165961,2,0,B|59:169|59:169|49:235,1,100,4|0,1:0|1:0,0:0:0:0:
60,372,166275,2,0,B|176:360|176:360|202:318,1,150,8|0,1:0|0:0,0:0:0:0:
251,279,166589,6,0,B|242:200|242:200|248:185|248:185|237:83,2,180,2|8|8,1:0|1:0|1:0,1:0:0:0:
260,384,167217,1,4,1:0:0:0:
385,239,167374,6,0,L|327:246,2,50,0|0|8,1:0|1:0|1:0,1:0:0:0:
330,325,167689,1,0,1:0:0:0:
412,158,167846,5,2,1:0:0:0:
412,158,168003,1,0,1:0:0:0:
486,324,168160,2,0,L|470:213,1,100,12|0,1:2|1:0,1:0:0:0:
333,221,168474,5,0,1:0:0:0:
333,221,168631,1,0,1:0:0:0:
426,59,168788,2,0,L|410:170,1,100,12|0,1:2|1:0,1:0:0:0:
512,231,169102,6,0,B|339:203|413:366|228:324,1,300,0|8,1:0|1:0,1:0:0:0:
154,384,169573,1,0,1:0:0:0:
154,384,169652,1,0,1:0:0:0:
154,384,169730,6,0,P|119:295|137:251,1,120,4|0,1:0|1:0,1:0:0:0:
195,132,170045,2,0,P|229:220|211:264,1,120,8|0,1:0|1:3,1:0:0:0:
125,275,170280,1,0,1:0:0:0:
125,275,170359,2,0,L|-30:254,1,120,2|0,1:0|1:0,1:0:0:0:
195,132,170673,2,0,L|313:148,1,120,8|0,1:0|1:0,1:0:0:0:
394,96,170908,1,0,1:0:0:0:
394,96,170987,6,0,B|404:157|404:157|379:226,1,120,6|0,1:0|1:0,1:0:0:0:
119,181,171301,2,0,B|109:120|109:120|134:51,1,120,8|0,1:0|1:3,1:0:0:0:
268,60,171615,5,2,1:0:0:0:
268,60,171772,1,0,1:0:0:0:
246,242,171929,1,8,1:0:0:0:
227,147,172086,2,0,L|300:153,1,60,0|0,1:0|1:0,1:0:0:0:
398,250,172244,6,0,L|338:245,3,60,4|0|0|0,1:2|1:0|1:0|1:0,0:0:0:0:
360,337,172558,2,0,L|300:332,3,60,12|0|0|0,1:2|1:0|1:0|1:0,0:0:0:0:
199,329,172872,5,12,1:2:0:0:
196,305,172950,1,0,1:0:0:0:
193,281,173029,1,0,1:0:0:0:
189,257,173107,1,0,1:0:0:0:
186,234,173186,2,0,L|261:243,3,60,12|0|0|0,1:2|1:0|1:0|1:0,0:0:0:0:
360,337,173500,5,8,1:0:0:0:
345,308,173579,1,8,1:0:0:0:
341,277,173657,1,8,1:0:0:0:
350,247,173736,1,8,1:0:0:0:
367,222,173814,2,0,L|442:231,3,60,8|8|8|8,1:0|1:0|1:0|1:0,0:0:0:0:
321,152,174128,5,8,1:0:0:0:
170,92,174285,5,8,1:0:0:0:
167,248,174442,5,8,1:0:0:0:
0,200,174600,5,8,1:0:0:0:
256,192,174757,12,0,175542,2:0:0:0:
0,200,175699,6,0,L|10:255,2,37.5000000000001,8|8|8,1:0|1:0|1:0,1:0:0:0:
0,200,179005,6,0,L|248:227,1,239.999992675781,0|0,1:0|1:0,1:0:0:0:
292,342,179476,2,0,L|254:84,1,240,8|2,1:0|1:0,1:0:0:0:
182,138,179947,1,0,1:0:0:0:
91,316,180104,2,0,B|152:328|152:328|212:298,1,120,8|0,1:0|1:0,1:0:0:0:
280,116,180418,6,0,P|145:156|153:274,1,240,2|8,1:0|1:0,1:0:0:0:
346,321,180889,2,0,L|277:310,2,60,0|0|0,1:0|1:0|1:0,1:0:0:0:
203,302,181203,1,0,1:0:0:0:
311,193,181360,1,8,1:0:0:0:
445,259,181518,6,0,L|457:386,1,120,0|4,1:0|1:0,1:0:0:0:
227,224,181832,2,0,L|215:104,1,120,0|8,1:0|1:0,1:0:0:0:
341,272,182146,1,2,1:0:0:0:
343,297,182224,1,2,1:2:0:0:
346,321,182303,1,0,1:0:0:0:
168,278,182460,2,0,B|291:293|235:167|378:185,1,240,2|0,1:0|1:0,1:0:0:0:
321,85,182853,1,0,1:0:0:0:
321,85,182931,6,0,L|462:108,1,120,4|0,1:0|1:0,1:0:0:0:
459,291,183245,2,0,L|318:268,1,120,8|0,1:0|1:0,1:0:0:0:
154,159,183559,2,0,L|295:182,1,120,4|8,1:0|1:0,1:0:0:0:
268,198,183795,1,8,1:0:0:0:
265,219,183874,1,8,1:0:0:0:
262,240,183952,1,8,1:0:0:0:
258,260,184031,1,8,1:0:0:0:
255,281,184109,1,8,1:0:0:0:
252,302,184188,6,0,B|229:249|229:249|246:162,1,120,6|0,1:0|1:0,1:0:0:0:
454,163,184502,2,0,B|477:216|477:216|460:303,1,120,8|0,1:0|1:0,1:0:0:0:
371,356,184737,1,0,1:0:0:0:
371,356,184816,2,0,L|334:66,2,240,0|0|0,1:0|1:0|1:0,0:0:0:0:
180,166,185758,6,0,P|192:123|294:110,1,120,0|0,1:0|1:0,0:0:0:0:
341,119,186072,1,0,1:0:0:0:
234,237,186230,1,0,1:0:0:0:
198,255,186308,1,0,1:0:0:0:
158,256,186387,1,8,1:0:0:0:
122,238,186465,1,0,1:0:0:0:
99,205,186544,6,0,P|56:158|-11:149,1,120,4|0,1:0|1:0,1:0:0:0:
58,302,186858,1,0,1:0:0:0:
180,166,187015,1,8,1:0:0:0:
260,322,187172,2,0,L|334:333,1,60,8|8,1:0|1:0,0:0:0:0:
325,254,187329,2,0,L|399:265,1,60,8|8,1:0|1:0,0:0:0:0:
414,340,187486,1,8,1:0:0:0:
429,342,187565,1,8,1:0:0:0:
445,345,187643,1,8,1:0:0:0:
459,346,187722,1,8,1:0:0:0:
474,349,187800,6,0,L|492:269,1,60,4|0,1:2|0:0,1:0:0:0:
423,98,188114,6,0,L|343:80,1,60,6|0,1:2|0:0,1:0:0:0:
38,349,188429,6,0,L|20:269,1,60,12|0,1:2|0:0,1:0:0:0:
89,98,188743,6,0,L|169:80,1,60,6|0,1:2|0:0,1:0:0:0:
447,341,189057,6,0,B|344:342|377:229|279:217,1,220,4|0,1:0|2:0,1:0:0:0:
261,295,189528,2,0,B|354:327|376:211|474:263,1,220,8|2,1:0|1:0,1:0:0:0:
369,127,189999,2,0,L|380:187,2,55,0|0|8,1:0|1:0|1:0,1:0:0:0:
447,325,190313,6,0,B|436:268|436:268|458:182|458:182|447:97,1,220,2|2,2:0|2:0,1:0:0:0:
366,340,190785,2,0,B|354:282|354:282|300:209|300:209|283:125,1,220,8|0,1:0|1:0,1:0:0:0:
407,24,191256,5,0,1:0:0:0:
403,47,191334,1,0,1:0:0:0:
401,71,191413,1,8,1:0:0:0:
398,94,191491,1,0,1:0:0:0:
394,118,191570,2,0,L|269:141,1,110,2|0,1:0|1:0,1:0:0:0:
200,70,191884,2,0,L|307:48,1,110,2|0,1:0|1:0,1:0:0:0:
257,230,192198,2,0,B|213:199|213:199|74:228,1,165,2|0,1:0|1:0,1:0:0:0:
103,222,192512,2,0,L|125:335,1,110,2|8,1:0|1:0,1:0:0:0:
242,384,192826,6,0,L|227:307,2,60,2|0|0,1:0|1:0|1:0,1:0:0:0:
202,165,193141,1,8,1:0:0:0:
233,176,193219,1,8,1:0:0:0:
267,178,193298,1,8,1:0:0:0:
297,166,193376,1,8,1:0:0:0:
322,142,193455,1,8,1:0:0:0:
336,112,193533,1,8,1:0:0:0:
336,79,193612,2,0,L|402:88,3,60,8|8|8|8,1:0|1:0|1:0|1:0,0:0:0:0:
412,167,193926,2,0,L|478:176,3,60,8|8|8|8,1:0|1:0|1:0|1:0,0:0:0:0:
399,257,194240,6,0,B|344:243|344:243|275:271,2,120,4|2|0,1:0|2:0|2:0,1:0:0:0:
235,177,194711,6,0,B|252:149|252:149|247:196,1,60,4|0,1:0|1:0,1:0:0:0:
273,352,194868,2,0,L|102:327,1,120,0|0,1:0|2:0,1:0:0:0:
154,334,195182,6,0,B|157:364|157:364|140:336,1,60,4|0,1:0|1:0,1:0:0:0:
155,183,195340,2,0,L|-16:208,1,120,2|0,2:0|1:0,1:0:0:0:
36,200,195654,6,0,B|39:169|39:169|22:197,1,60,4|0,1:0|1:0,1:0:0:0:
2,383,195811,2,0,P|64:370|93:270,1,120,0|2,2:0|1:0,1:0:0:0:
126,252,196046,1,0,1:0:0:0:
126,252,196125,6,0,L|273:275,1,120,8|0,1:0|1:0,1:0:0:0:
403,126,196439,2,0,B|345:138|345:138|267:102,1,120,10|0,1:0|1:0,1:0:0:0:
166,98,196753,5,0,1:0:0:0:
147,121,196832,1,8,1:0:0:0:
139,149,196910,1,0,1:0:0:0:
143,179,196989,1,0,1:0:0:0:
159,204,197067,2,0,B|233:185|233:185|289:206,1,120,8|0,1:0|1:0,0:0:0:0:
322,303,197381,2,0,L|386:283,3,60,0|0|8|0,1:0|1:0|1:0|1:0,0:0:0:0:
233,348,197696,2,0,L|240:279,1,60,0|8,1:0|1:0,1:0:0:0:
157,288,197853,5,0,1:0:0:0:
117,301,197931,1,0,1:0:0:0:
77,287,198010,1,8,1:0:0:0:
55,251,198088,1,0,1:0:0:0:
61,209,198167,2,0,L|56:135,3,60,0|8|0|0,1:0|1:0|1:0|1:0,0:0:0:0:
156,173,198481,2,0,L|151:97,1,60,8|0,1:0|1:0,0:0:0:0:
248,158,198638,1,8,1:0:0:0:
250,189,198716,1,8,1:0:0:0:
252,220,198795,1,8,1:0:0:0:
254,252,198874,1,8,1:0:0:0:
256,283,198952,2,0,L|259:342,1,60,10|8,1:0|1:0,1:0:0:0:
117,370,199109,6,0,B|172:353|172:353|365:387,1,240,4|0,1:0|1:0,1:0:0:0:
454,318,199580,2,0,L|321:295,1,120,8|0,1:0|1:0,1:0:0:0:
207,304,199894,2,0,B|217:227|217:227|248:178,1,120,0|0,1:0|1:0,1:0:0:0:
199,39,200209,2,0,B|189:116|189:116|158:165,1,120,8|0,1:0|1:0,1:0:0:0:
25,211,200523,2,0,L|149:227,1,120,0|0,1:0|1:0,1:0:0:0:
311,264,200837,6,0,P|287:164|163:153,1,240,8|0,1:0|1:0,1:0:0:0:
144,226,201308,1,8,1:0:0:0:
139,252,201387,1,8,1:0:0:0:
135,278,201465,1,8,1:0:0:0:
122,384,201622,6,0,B|143:340|143:340|113:136,1,240,0|0,1:0|1:0,1:0:0:0:
267,96,202093,2,0,B|252:153|252:153|273:210,1,120,8|0,1:0|1:0,1:0:0:0:
24,199,202408,2,0,B|39:142|39:142|18:85,1,120,0|0,1:0|1:0,1:0:0:0:
17,84,202722,6,0,L|144:72,1,120,8|0,1:0|1:0,1:0:0:0:
119,276,203036,2,0,L|0:287,1,120,4|0,1:0|1:0,0:0:0:0:
138,150,203350,2,0,B|217:209|217:209|331:184,1,180,8|0,1:0|0:0,0:0:0:0:
297,191,203664,6,0,L|285:122,1,50,0|0,1:0|1:0,0:0:0:0:
350,58,203821,2,0,L|358:107,1,50,2|0,1:0|1:0,0:0:0:0:
448,162,203978,2,0,L|435:92,1,50,8|0,1:0|1:0,0:0:0:0:
470,31,204135,6,0,B|347:3|380:123|247:97,1,240,4|0,1:0|1:0,1:0:0:0:
252,98,204607,2,0,L|380:83,1,120,0|0,1:0|1:0,1:0:0:0:
479,270,204921,2,0,P|389:243|390:155,1,180,8|0,1:0|1:0,1:0:0:0:
382,168,205235,2,0,L|262:181,1,120,8|0,1:0|2:0,1:0:0:0:
196,264,205549,5,8,1:0:0:0:
159,281,205627,1,8,1:0:0:0:
119,275,205706,1,8,1:0:0:0:
92,245,205785,1,8,1:0:0:0:
79,207,205863,2,0,L|15:185,3,60,8|8|8|8,1:0|1:0|1:0|1:0,0:0:0:0:
129,134,206177,5,8,1:0:0:0:
157,118,206256,1,8,1:0:0:0:
189,121,206334,1,8,1:0:0:0:
213,144,206413,1,8,1:0:0:0:
227,175,206491,1,8,1:0:0:0:
227,175,206570,1,8,1:0:0:0:
227,175,206648,6,0,L|-1:92,1,239.999992675781,6|0,1:0|1:0,1:0:0:0:
96,261,207119,2,0,L|212:231,1,120,8|2,1:0|1:0,1:0:0:0:
416,123,207433,2,0,L|299:152,1,120,4|2,1:2|1:2,1:0:0:0:
420,267,207747,2,0,L|303:237,1,120,8|2,1:0|1:0,1:0:0:0:
303,237,207983,1,0,1:0:0:0:
303,237,208061,6,0,L|327:387,1,120,4|2,1:0|1:0,1:0:0:0:
154,309,208375,2,0,L|269:401,1,120,8|0,1:0|1:0,1:0:0:0:
205,232,208689,5,6,1:0:0:0:
56,325,208846,1,0,1:0:0:0:
123,153,209003,1,8,1:0:0:0:
27,241,209161,6,0,B|146:250|107:131|238:147,1,240,4|0,1:0|1:0,1:0:0:0:
233,146,209632,2,0,L|211:-6,1,120,8|2,1:0|1:0,1:0:0:0:
145,224,209946,2,0,L|-7:245,1,120,4|2,1:0|1:0,1:0:0:0:
253,266,210260,2,0,L|274:418,1,120,8|2,1:0|1:0,1:0:0:0:
323,202,210574,5,4,1:0:0:0:
428,106,210731,1,8,1:0:0:0:
423,228,210888,1,8,1:0:0:0:
418,209,210967,1,8,1:0:0:0:
415,191,211045,1,8,1:0:0:0:
364,0,211202,6,0,L|341:125,1,120,8|0,1:0|1:0,0:0:0:0:
342,118,211438,1,0,1:0:0:0:
342,118,211517,1,8,1:0:0:0:
381,252,211666,6,0,P|266:259|200:164,1,239.999992675781,4|0,1:0|1:0,1:0:0:0:
195,76,212058,1,0,1:0:0:0:
195,76,212137,6,0,L|102:88,3,60,8|0|0|0,1:0|1:0|1:0|1:0,1:0:0:0:
115,159,212451,2,0,L|22:147,3,60,10|0|0|0,1:2|1:0|1:0|1:0,1:0:0:0:
255,187,212765,1,8,1:2:0:0:
258,172,212843,1,0,1:0:0:0:
261,157,212922,1,0,1:0:0:0:
265,143,213001,1,0,1:0:0:0:
268,128,213079,6,0,L|361:116,3,60,14|0|2|0,1:2|1:0|1:2|1:0,0:0:0:0:
354,46,213393,2,0,L|447:58,3,60,12|0|2|0,1:2|1:0|1:2|1:0,0:0:0:0:
255,37,213707,5,8,1:0:0:0:
413,128,213864,2,0,L|405:197,1,45,2|0,1:2|1:0,1:0:0:0:
335,197,214021,2,0,L|341:256,1,45,8|0,1:0|1:0,1:0:0:0:
391,354,214179,6,0,L|398:289,3,60,4|0|0|0,1:2|1:0|1:0|1:0,1:0:0:0:
296,319,214493,1,0,1:0:0:0:
296,319,214571,1,0,1:0:0:0:
296,319,214650,6,0,L|226:307,3,60,10|0|0|0,1:0|1:0|1:0|1:0,0:0:0:0:
206,232,214964,2,0,L|136:244,3,60,12|0|2|0,1:2|1:0|1:2|1:0,0:0:0:0:
101,307,215278,5,12,1:2:0:0:
73,314,215357,1,0,1:0:0:0:
44,310,215435,1,2,1:2:0:0:
19,294,215514,1,0,1:0:0:0:
1,271,215592,2,0,L|17:212,1,60,8|0,1:0|0:0,0:0:0:0:
93,174,215749,2,0,L|76:115,1,60,0|0,1:0|1:0,0:0:0:0:
54,15,215906,5,8,1:0:0:0:
47,42,215985,1,8,1:0:0:0:
40,69,216063,1,8,1:0:0:0:
33,97,216142,1,8,1:0:0:0:
26,125,216220,2,0,L|98:112,1,37.5000000000001,0|0,1:0|1:0,1:0:0:0:
136,181,216377,2,0,L|99:187,1,37.5000000000001,8|8,1:0|1:0,1:0:0:0:
1,271,216535,2,0,L|73:258,1,37.5000000000001,8|8,1:0|1:0,1:0:0:0:
173,279,216692,1,8,1:0:0:0:
173,279,219205,6,0,B|72:300,1,75.0000000000002,4|0,1:0|2:0,1:0:0:0:
