osu file format v14

[General]
AudioFilename: audio.mp3
AudioLeadIn: 0
PreviewTime: 114285
Countdown: 1
SampleSet: Soft
StackLeniency: 0.7
Mode: 0
LetterboxInBreaks: 0
WidescreenStoryboard: 0

[Editor]
DistanceSpacing: 0.7
BeatDivisor: 4
GridSize: 4
TimelineZoom: 1.8

[Metadata]
Title:ADAMAS
TitleUnicode:ADAMAS
Artist:LiSA
ArtistUnicode:LiSA
Creator:Feruver
Version:Blue Rose
Source:ソードアート・オンライン アリシゼーション
Tags:Sword Art Online III LiSA Eugeo Alice Kirito
BeatmapID:1819688
BeatmapSetID:870847

[Difficulty]
HPDrainRate:5.5
CircleSize:3.6
OverallDifficulty:8
ApproachRate:9.4
SliderMultiplier:1.8
SliderTickRate:1

[Events]
//Background and Video events
0,0,"sao3.png",0,0
//Break Periods
2,134746,142802
//Storyboard Layer 0 (Background)
//Storyboard Layer 1 (Fail)
//Storyboard Layer 2 (Pass)
//Storyboard Layer 3 (Foreground)
//Storyboard Sound Samples

[TimingPoints]
411,314.13612565445,4,2,1,35,1,0
5280,314.13612565445,4,2,1,50,1,0
5280,-83.3333333333333,4,2,1,50,0,0
5751,314.13612565445,4,2,1,50,1,0
12819,-83.3333333333333,4,2,1,50,0,0
13133,-100,4,2,1,50,0,0
15567,-100,4,2,1,5,0,0
15646,-100,4,2,1,50,0,0
35593,-117.647058823529,4,2,1,50,0,0
55227,-100,4,2,1,50,0,0
55463,-117.647058823529,4,2,1,5,0,0
55541,-100,4,2,1,75,0,1
55698,314.13612565445,4,2,1,75,1,1
59232,-100,4,2,1,5,0,1
59311,-100,4,2,1,75,0,1
64337,-83.3333333333333,4,2,1,75,0,1
64572,-83.3333333333333,4,2,1,5,0,1
64651,-83.3333333333333,4,2,1,75,0,1
64887,-83.3333333333333,4,2,1,5,0,1
64965,-83.3333333333333,4,2,1,75,0,1
65201,-83.3333333333333,4,2,1,5,0,1
65279,-83.3333333333333,4,2,1,75,0,1
65515,-83.3333333333333,4,2,1,5,0,1
65593,-83.3333333333333,4,2,1,75,0,1
66065,-90.9090909090909,4,2,1,75,0,1
83107,-83.3333333333333,4,2,1,5,0,1
83184,-83.3333333333333,4,2,1,75,0,0
93237,-133.333333333333,4,2,1,50,0,0
100777,-111.111111111111,4,2,1,50,0,0
103290,-100,4,2,1,50,0,0
106038,-100,4,2,1,5,0,0
106117,-100,4,2,1,50,0,0
108394,-100,4,2,1,5,0,0
108473,-100,4,2,1,50,0,0
110908,-100,4,2,1,5,0,0
110986,-100,4,2,1,50,0,0
114206,-100,4,2,1,5,0,0
114284,-90.9090909090909,4,2,1,75,0,1
123080,-83.3333333333333,4,2,1,75,0,1
123316,-83.3333333333333,4,2,1,5,0,1
123394,-83.3333333333333,4,2,1,75,0,1
123630,-83.3333333333333,4,2,1,5,0,1
123709,-83.3333333333333,4,2,1,75,0,1
123944,-83.3333333333333,4,2,1,5,0,1
124023,-83.3333333333333,4,2,1,75,0,1
124258,-83.3333333333333,4,2,1,5,0,1
124337,-83.3333333333333,4,2,1,75,0,1
133604,-100,4,2,1,60,0,1
134546,-166.666666666667,4,2,1,50,0,0
143342,-166.666666666667,4,2,1,50,0,0
149625,-125,4,2,1,50,0,0
154023,-125,4,2,1,50,0,0
154572,-125,4,2,1,5,0,0
154651,-125,4,2,1,50,0,0
158028,-125,4,2,1,5,0,0
158107,-125,4,2,1,50,0,0
159206,-125,4,2,1,5,0,0
159285,-125,4,2,1,50,0,0
159442,-125,4,2,1,5,0,0
159520,-125,4,2,1,50,0,0
159599,-125,4,2,1,5,0,0
159677,-125,4,2,1,50,0,0
162190,-100,4,2,1,50,0,0
164703,-90.9090909090909,4,2,1,65,0,0
174599,-181.818181818182,4,2,1,50,0,0
178996,-90.9090909090909,4,2,1,75,0,1
187792,-83.3333333333333,4,2,1,75,0,1
188028,-83.3333333333333,4,2,1,5,0,1
188107,-83.3333333333333,4,2,1,75,0,1
188342,-83.3333333333333,4,2,1,5,0,1
188421,-83.3333333333333,4,2,1,75,0,1
188656,-83.3333333333333,4,2,1,5,0,1
188735,-83.3333333333333,4,2,1,75,0,1
188970,-83.3333333333333,4,2,1,5,0,1
189049,-83.3333333333333,4,2,1,75,0,1
199101,-83.3333333333333,4,2,1,75,0,0
216693,-33.3333333333333,4,2,1,50,0,0
216771,-33.3333333333333,4,2,1,5,0,0
219206,-33.3333333333333,4,2,1,50,0,0
219285,-33.3333333333333,4,2,1,5,0,0

[HitObjects]
92,114,411,5,0,0:0:0:0:
172,45,568,1,0,0:0:0:0:
246,123,725,1,0,0:0:0:0:
253,258,882,2,0,L|253:362,2,90
349,165,1353,5,0,0:0:0:0:
256,83,1510,1,0,0:0:0:0:
253,203,1667,1,0,0:0:0:0:
147,152,1824,1,0,0:0:0:0:
148,38,1981,2,0,L|55:39,1,90
205,137,2295,6,0,L|307:138,1,90
449,229,2610,2,0,L|332:229,1,90
251,259,2924,1,0,0:0:0:0:
158,228,3081,1,0,0:0:0:0:
104,146,3238,1,0,0:0:0:0:
119,59,3395,1,0,0:0:0:0:
26,134,3552,6,0,L|131:155,1,90
233,171,3866,1,0,0:0:0:0:
334,122,4023,1,0,0:0:0:0:
370,30,4180,1,0,0:0:0:0:
233,75,4337,5,0,0:0:0:0:
260,211,4494,1,0,0:0:0:0:
115,211,4651,1,0,0:0:0:0:
427,146,5280,6,0,L|185:168,1,215.999993408203,6|0,0:0|0:0,0:0:0:0:
87,97,5751,2,0,B|63:142|56:164|53:217,1,90,10|0,0:0|0:0,0:0:0:0:
133,327,6065,2,0,P|151:270|150:224,1,90,2|0,0:0|0:0,0:0:0:0:
181,80,6379,6,0,L|279:111,1,90,10|0,0:0|0:0,0:0:0:0:
397,275,6693,2,0,P|327:276|267:258,1,90,2|0,0:0|0:0,0:0:0:0:
182,156,7007,2,0,P|249:164|293:184,1,90,10|0,0:0|0:0,0:0:0:0:
326,336,7321,1,2,0:0:0:0:
401,216,7478,1,2,0:0:0:0:
274,164,7635,1,10,0:0:0:0:
195,265,7792,6,0,P|142:255|113:120,1,180,6|0,0:0|0:0,0:0:0:0:
193,34,8264,2,0,L|294:81,1,90,10|0,0:0|0:0,0:0:0:0:
362,238,8578,2,0,L|248:179,1,90,2|0,0:0|0:0,0:0:0:0:
157,105,8892,1,10,0:0:0:0:
62,217,9049,1,0,0:0:0:0:
228,196,9206,6,0,L|276:84,1,90,2|0,0:0|0:0,0:0:0:0:
314,253,9520,2,0,L|274:362,1,90,10|0,0:0|0:0,0:0:0:0:
64,296,9834,5,10,0:0:0:0:
69,263,9913,1,8,0:0:0:0:
76,230,9991,1,10,0:0:0:0:
83,201,10070,1,8,0:0:0:0:
90,172,10148,1,10,0:0:0:0:
97,140,10227,1,8,0:0:0:0:
104,107,10305,2,0,P|161:64|288:83,1,180,6|0,0:0|0:0,0:0:0:0:
288,222,10777,6,0,P|230:190|192:148,1,90,10|0,0:0|0:0,0:0:0:0:
363,162,11091,2,0,P|397:192|441:255,1,90,2|0,0:0|0:0,0:0:0:0:
301,349,11405,1,10,0:0:0:0:
349,224,11562,1,0,0:0:0:0:
310,53,11719,6,0,P|296:107|288:174,1,90,2|0,0:0|0:0,0:0:0:0:
356,290,12033,2,0,P|362:225|360:171,1,90,10|0,0:0|0:0,0:0:0:0:
228,161,12347,1,2,0:0:0:0:
91,220,12504,1,2,0:0:0:0:
252,150,12661,1,10,0:0:0:0:
121,284,12819,2,0,P|70:288|75:150,1,215.999993408203,6|0,0:0|0:0,0:0:0:0:
200,104,13290,6,0,L|288:135,1,90,10|0,0:0|0:0,0:0:0:0:
399,261,13604,2,0,L|290:222,1,90,2|0,0:0|0:0,0:0:0:0:
145,215,13918,1,10,0:0:0:0:
241,117,14075,1,0,0:0:0:0:
406,187,14232,5,10,0:0:0:0:
406,187,14311,1,8,0:0:0:0:
406,187,14389,2,0,L|384:258,1,45,8|0,0:0|0:0,0:0:0:0:
317,323,14546,5,10,0:0:0:0:
317,323,14625,1,8,0:0:0:0:
317,323,14703,2,0,L|278:286,1,45,8|0,0:0|0:0,0:0:0:0:
212,200,14860,5,10,0:0:0:0:
124,282,15018,1,10,0:0:0:0:
314,220,15175,1,10,0:0:0:0:
206,116,15332,2,0,P|148:105|56:154,1,135,6|0,0:0|0:0,0:0:0:0:
65,173,15646,6,0,L|124:240,1,90,2|8,0:0|0:0,0:0:0:0:
235,194,15960,1,2,0:0:0:0:
332,260,16117,2,0,L|426:261,1,90,10|0,0:0|0:0,0:0:0:0:
308,345,16431,2,0,L|190:345,1,90,10|0,0:0|0:0,0:0:0:0:
162,242,16745,5,10,0:0:0:0:
42,226,16902,1,2,0:0:0:0:
101,311,17059,1,10,0:0:0:0:
107,210,17216,1,2,0:0:0:0:
229,243,17374,1,10,0:0:0:0:
184,139,17531,1,2,0:0:0:0:
136,272,17688,1,10,0:0:0:0:
255,198,17845,2,0,P|284:147|288:96,1,90,2|8,0:0|0:0,0:0:0:0:
187,78,18159,5,2,0:0:0:0:
96,176,18316,2,0,L|-4:204,1,90,10|0,0:0|0:0,0:0:0:0:
163,255,18630,1,10,0:0:0:0:
229,160,18787,1,2,0:0:0:0:
102,159,18944,1,10,0:0:0:0:
203,216,19101,1,2,0:0:0:0:
178,105,19258,6,0,P|218:78|292:76,1,90,10|0,0:0|0:0,0:0:0:0:
335,178,19572,1,10,0:0:0:0:
222,172,19730,1,2,0:0:0:0:
293,87,19887,1,10,0:0:0:0:
372,174,20044,1,2,0:0:0:0:
372,174,20122,1,0,0:0:0:0:
372,174,20201,1,10,0:0:0:0:
242,227,20358,1,2,0:0:0:0:
280,104,20515,6,0,P|238:73|177:69,1,90,8|0,0:0|0:0,0:0:0:0:
90,96,20829,1,10,0:0:0:0:
169,193,20986,1,2,0:0:0:0:
258,105,21143,2,0,P|321:101|376:107,1,90,10|2,0:0|0:0,0:0:0:0:
423,198,21457,2,0,P|376:197|321:191,1,90,10|2,0:0|0:0,0:0:0:0:
198,182,21771,5,10,0:0:0:0:
291,109,21929,1,2,0:0:0:0:
182,97,22086,1,10,0:0:0:0:
116,178,22243,1,2,0:0:0:0:
190,265,22400,1,10,0:0:0:0:
236,167,22557,1,2,0:0:0:0:
295,271,22714,1,10,0:0:0:0:
220,339,22871,6,0,B|262:354|262:354|327:354,1,90,2|8,0:0|0:0,0:0:0:0:
395,275,23185,1,0,0:0:0:0:
358,160,23342,2,0,L|325:72,1,90,10|8,0:0|0:0,0:0:0:0:
219,32,23578,5,0,0:0:0:0:
219,32,23656,2,8,L|236:156,1,90,10|2,0:0|0:0,0:0:0:0:
235,247,23970,1,8,0:0:0:0:
86,205,24127,1,10,0:0:0:0:
171,85,25384,6,0,P|256:63|336:127,1,180,4|2,0:0|0:0,0:0:0:0:
320,244,25855,2,0,P|291:287|253:317,1,90,10|0,0:0|0:0,0:0:0:0:
184,259,26169,5,2,0:0:0:0:
70,259,26326,1,2,0:0:0:0:
165,218,26483,1,10,0:0:0:0:
54,217,26641,1,2,0:0:0:0:
155,162,26798,5,2,0:0:0:0:
274,160,26955,1,2,0:0:0:0:
174,117,27112,1,10,0:0:0:0:
301,114,27269,1,2,0:0:0:0:
257,227,27426,5,2,0:0:0:0:
150,325,27583,1,2,0:0:0:0:
133,167,27740,1,10,0:0:0:0:
296,93,27897,2,0,P|338:131|318:263,1,180,2|2,0:0|0:0,0:0:0:0:
190,262,28368,6,0,B|133:256|133:256|82:206,1,90,10|0,0:0|0:0,0:0:0:0:
165,91,28682,1,2,0:0:0:0:
211,178,28840,1,2,0:0:0:0:
118,217,28997,1,10,0:0:0:0:
173,142,29154,1,2,0:0:0:0:
284,87,29311,5,2,0:0:0:0:
369,173,29468,1,2,0:0:0:0:
250,147,29625,1,10,0:0:0:0:
326,224,29782,1,2,0:0:0:0:
165,245,29939,5,2,0:0:0:0:
274,170,30096,1,2,0:0:0:0:
206,294,30253,1,10,0:0:0:0:
318,213,30410,2,0,P|352:159|250:98,1,180,2|2,0:0|0:0,0:0:0:0:
109,93,30881,5,10,0:0:0:0:
219,159,31038,1,2,0:0:0:0:
134,172,31196,1,2,0:0:0:0:
242,237,31353,1,2,0:0:0:0:
158,249,31510,1,10,0:0:0:0:
264,315,31667,1,2,0:0:0:0:
318,193,31824,5,2,0:0:0:0:
194,168,31981,1,2,0:0:0:0:
256,250,32138,1,10,0:0:0:0:
125,219,32295,1,2,0:0:0:0:
160,81,32452,5,2,0:0:0:0:
267,169,32609,1,2,0:0:0:0:
159,276,32766,2,0,P|90:272|48:242,1,90,10|0,0:0|0:0,0:0:0:0:
116,109,33080,6,0,P|145:48|170:23,1,90,2|0,0:0|0:0,0:0:0:0:
316,124,33394,2,0,P|305:168|274:216,1,90,10|0,0:0|0:0,0:0:0:0:
47,269,33709,6,0,P|76:208|101:183,1,90,2|0,0:0|0:0,0:0:0:0:
257,290,34023,2,0,P|236:328|195:367,1,90,10|0,0:0|0:0,0:0:0:0:
91,133,34337,6,0,P|136:115|197:114,1,90,2|0,0:0|0:0,0:0:0:0:
368,220,34651,2,0,P|310:236|255:235,1,90,10|0,0:0|0:0,0:0:0:0:
18,93,34965,6,0,P|74:70|130:70,1,90,2|0,0:0|0:0,0:0:0:0:
447,264,35279,2,0,P|374:283|323:285,1,90,10|0,0:0|0:0,0:0:0:0:
73,188,35593,6,0,B|133:160|133:160|138:47,1,153.000002918243,6|0,0:0|0:0,0:0:0:0:
219,203,36222,2,0,L|218:380,1,153.000002918243,2|0,0:0|0:0,0:0:0:0:
337,209,36850,2,0,L|336:45,1,153.000002918243,2|0,0:0|0:0,0:0:0:0:
243,213,37478,6,0,P|195:234|97:207,1,153.000002918243,2|2,0:0|0:0,0:0:0:0:
134,89,37949,1,8,0:0:0:0:
134,89,38028,1,8,0:0:0:0:
134,89,38107,2,0,B|176:112|176:112|250:101|288:74,1,153.000002918243,10|0,0:0|0:0,0:0:0:0:
381,155,38578,1,0,0:0:0:0:
297,235,38735,2,0,P|246:230|208:216,1,76.5000014591217
123,142,39049,2,0,P|117:96|127:49,1,76.5000014591217
168,217,39363,2,0,P|162:266|140:310,1,76.5000014591217
249,175,39677,2,0,P|257:121|274:77,1,76.5000014591217,0|8,0:0|0:0,0:0:0:0:
369,211,39991,5,2,0:0:0:0:
267,293,40148,1,10,0:0:0:0:
192,198,40305,1,2,0:0:0:0:
359,141,40463,6,0,P|354:91|250:43,1,153.000002918243,6|0,0:0|0:0,0:0:0:0:
152,137,40934,1,2,0:0:0:0:
152,137,41091,2,0,P|160:189|245:230,1,153.000002918243,2|0,0:0|0:0,0:0:0:0:
354,223,41562,1,2,0:0:0:0:
361,309,41719,2,0,L|183:310,1,153.000002918243,2|0,0:0|0:0,0:0:0:0:
113,216,42190,1,2,0:0:0:0:
164,354,42347,2,0,P|227:349|295:252,1,153.000002918243,2|0,0:0|0:0,0:0:0:0:
220,155,42819,1,8,0:0:0:0:
390,205,42976,5,8,0:0:0:0:
390,205,43054,1,8,0:0:0:0:
390,205,43133,2,0,P|432:190|433:69,2,153.000002918243,8|0|0,0:0|0:0|0:0,0:0:0:0:
307,121,43918,1,0,0:0:0:0:
245,216,44075,2,0,L|145:216,1,76.5000014591217,0|2,0:0|0:0,0:0:0:0:
83,120,44389,1,2,0:0:0:0:
59,244,44546,5,8,0:0:0:0:
59,244,44625,2,0,B|126:276|126:276|193:274,1,114.750002188683,10|0,0:0|0:0,0:0:0:0:
267,192,45018,1,2,0:0:0:0:
327,310,45175,1,0,0:0:0:0:
417,213,45332,5,10,0:0:0:0:
417,213,45410,1,8,0:0:0:0:
417,213,45489,1,8,0:0:0:0:
417,213,45567,1,8,0:0:0:0:
417,213,45646,2,0,P|448:176|449:72,1,153.000002918243,12|8,0:0|0:0,0:0:0:0:
327,153,46117,5,0,0:0:0:0:
255,249,46274,2,0,P|206:248|154:225,1,76.5000014591217,2|0,0:0|0:0,0:0:0:0:
121,71,46588,2,0,L|86:175,1,76.5000014591217,8|10,0:0|0:0,0:0:0:0:
120,223,46824,5,8,0:0:0:0:
120,223,46902,2,0,P|110:289|86:318,1,76.5000014591217,10|0,0:0|0:0,0:0:0:0:
71,131,47216,2,0,P|91:82|125:56,1,76.5000014591217,10|0,0:0|0:0,0:0:0:0:
331,96,47531,6,0,P|280:111|234:110,1,76.5000014591217,2|0,0:0|0:0,0:0:0:0:
103,222,47845,2,0,P|174:210|203:215,1,76.5000014591217,10|8,0:0|0:0,0:0:0:0:
229,239,48080,1,8,0:0:0:0:
229,239,48159,2,0,P|284:252|325:247,1,76.5000014591217,8|0,0:0|0:0,0:0:0:0:
427,192,48473,5,8,0:0:0:0:
327,139,48630,1,0,0:0:0:0:
284,251,48787,1,0,0:0:0:0:
201,155,48944,1,0,0:0:0:0:
102,70,49101,6,0,P|86:133|84:172,1,76.5000014591217,10|8,0:0|0:0,0:0:0:0:
105,179,49337,1,8,0:0:0:0:
105,179,49415,2,0,P|98:224|80:258,1,76.5000014591217,10|0,0:0|0:0,0:0:0:0:
214,117,49730,6,0,P|255:97|312:95,1,76.5000014591217,10|0,0:0|0:0,0:0:0:0:
430,150,50044,2,0,P|384:169|337:171,1,76.5000014591217,10|0,0:0|0:0,0:0:0:0:
95,177,50358,2,0,P|136:187|176:210,1,76.5000014591217,10|0,0:0|0:0,0:0:0:0:
188,314,50672,5,10,0:0:0:0:
326,216,50829,1,0,0:0:0:0:
170,142,50986,1,0,0:0:0:0:
84,269,51143,5,10,0:0:0:0:
88,124,51300,1,2,0:0:0:0:
191,212,51457,1,0,0:0:0:0:
244,105,51614,5,10,0:0:0:0:
355,197,51771,1,0,0:0:0:0:
227,218,51929,5,10,0:0:0:0:
284,32,52086,1,0,0:0:0:0:
328,130,52243,1,2,0:0:0:0:
158,152,52400,5,8,0:0:0:0:
318,234,52557,1,2,0:0:0:0:
178,300,52714,1,0,0:0:0:0:
90,194,52871,5,10,0:0:0:0:
217,112,53028,1,0,0:0:0:0:
262,267,53185,6,0,L|294:307,5,38.2500007295609,8|0|0|0|0|0,0:0|0:0|0:0|0:0|0:0|0:0,0:0:0:0:
317,160,53656,2,0,L|266:107,5,38.2500007295609,8|0|0|0|0|0,0:0|0:0|0:0|0:0|0:0|0:0,0:0:0:0:
202,28,54127,2,0,L|203:72,1,38.2500007295609,8|0,0:0|0:0,0:0:0:0:
206,238,54285,1,8,0:0:0:0:
361,224,54599,5,0,0:0:0:0:
438,172,54756,1,0,0:0:0:0:
360,132,54913,1,0,0:0:0:0:
434,86,55070,1,0,0:0:0:0:
356,44,55227,2,0,P|316:41|210:77,1,135
192,87,55541,6,0,L|222:270,1,180,6|0,0:0|0:0,0:0:0:0:
325,152,56012,2,0,P|340:89|342:40,1,90,10|0,0:0|0:0,0:0:0:0:
204,153,56326,2,0,P|189:211|185:263,1,90,2|0,0:0|0:0,0:0:0:0:
303,331,56641,6,0,P|347:326|399:306,1,90,10|0,0:0|0:0,0:0:0:0:
506,154,56955,2,0,P|467:179|417:186,1,90,2|0,0:0|0:0,0:0:0:0:
294,127,57269,1,10,0:0:0:0:
162,167,57426,2,0,P|147:222|269:263,1,180,2|0,0:0|0:0,0:0:0:0:
347,195,57897,6,0,P|362:126|365:75,1,90,8|2,0:0|0:0,0:0:0:0:
283,18,58211,1,2,0:0:0:0:
190,113,58368,1,2,0:0:0:0:
313,153,58525,1,10,0:0:0:0:
208,42,58682,1,2,0:0:0:0:
153,207,58840,1,2,0:0:0:0:
274,106,58997,2,0,P|332:79|389:84,1,90,2|8,0:0|0:0,0:0:0:0:
423,164,59311,5,2,0:0:0:0:
369,272,59468,2,0,P|331:324|305:342,1,90,2|0,0:0|0:0,0:0:0:0:
322,149,59782,2,0,P|352:112|398:82,1,90,10|0,0:0|0:0,0:0:0:0:
200,300,60096,2,0,P|151:299|104:282,1,90,2|0,0:0|0:0,0:0:0:0:
37,128,60410,6,8,L|88:117,1,45,10|8,0:0|0:0,0:0:0:0:
186,140,60567,2,8,L|231:149,1,45
332,93,60724,2,0,P|413:96|450:116,1,90,14|0,0:0|0:0,0:0:0:0:
345,236,61038,2,0,P|301:245|244:241,1,90,10|0,0:0|0:0,0:0:0:0:
133,107,61353,6,0,P|142:56|166:19,1,90,2|0,0:0|0:0,0:0:0:0:
256,153,61667,2,0,P|242:214|213:258,1,90,10|0,0:0|0:0,0:0:0:0:
57,103,61981,2,0,P|94:64|230:89,1,180,2|8,0:0|0:0,0:0:0:0:
199,181,62452,1,0,0:0:0:0:
348,55,62609,5,2,0:0:0:0:
327,316,62766,1,2,0:0:0:0:
370,160,62923,1,10,0:0:0:0:
214,273,63080,2,0,B|163:304|89:330|89:330|45:297,1,180,6|2,0:0|0:0,0:0:0:0:
53,181,63552,5,8,0:0:0:0:
81,150,63630,1,8,0:0:0:0:
120,132,63709,1,10,0:0:0:0:
161,137,63787,1,8,0:0:0:0:
193,169,63866,5,8,0:0:0:0:
228,205,63944,1,8,0:0:0:0:
275,227,64023,1,10,0:0:0:0:
321,219,64101,1,8,0:0:0:0:
364,204,64180,5,8,0:0:0:0:
398,170,64258,1,8,0:0:0:0:
422,124,64337,6,0,P|383:94|234:123,1,161.999995056153,6|0,0:0|0:0,0:0:0:0:
201,175,64651,2,0,P|153:150|105:46,1,161.999995056153,6|0,0:0|0:0,0:0:0:0:
225,13,64965,2,0,P|221:92|142:184,1,161.999995056153,6|0,0:0|0:0,0:0:0:0:
135,79,65279,2,0,P|189:75|332:134,1,161.999995056153,6|0,0:0|0:0,0:0:0:0:
327,133,65593,6,0,L|288:348,1,215.999993408203,6|0,0:0|0:0,0:0:0:0:
152,243,66065,2,0,P|132:186|206:63,1,198.000006042481,0|2,0:0|0:0,0:0:0:0:
266,150,66536,1,0,0:0:0:0:
334,50,66693,1,2,0:0:0:0:
384,160,66850,2,0,P|375:218|343:267,1,99.0000030212403,2|0,0:0|0:0,0:0:0:0:
213,346,67164,2,0,P|231:275|317:148,1,198.000006042481,2|0,0:0|0:0,0:0:0:0:
443,235,67635,5,2,0:0:0:0:
407,80,67792,1,2,0:0:0:0:
230,139,67949,1,10,0:0:0:0:
322,327,68107,2,0,P|370:276|365:136,1,198.000006042481,10|2,0:0|0:0,0:0:0:0:
243,198,68578,1,0,0:0:0:0:
277,55,68735,2,0,L|171:76,1,99.0000030212403,2|0,0:0|0:0,0:0:0:0:
34,200,69049,2,0,L|156:176,1,99.0000030212403,2|0,0:0|0:0,0:0:0:0:
266,259,69363,1,2,0:0:0:0:
345,106,69520,5,8,0:0:0:0:
311,78,69599,1,8,0:0:0:0:
277,63,69677,1,10,0:0:0:0:
232,66,69756,1,8,0:0:0:0:
193,82,69834,2,8,L|133:100,3,49.5000015106202,10|8|10|8,0:0|0:0|0:0|0:0,0:0:0:0:
249,174,70148,2,8,L|294:201,3,49.5000015106202,10|8|8|8,0:0|0:0|0:0|0:0,0:0:0:0:
161,261,70463,2,8,L|112:286,3,49.5000015106202,10|8|8|8,0:0|0:0|0:0|0:0,0:0:0:0:
220,267,70777,5,12,0:0:0:0:
182,76,70934,1,0,0:0:0:0:
83,181,71091,1,2,0:0:0:0:
292,186,71248,5,8,0:0:0:0:
150,127,71405,1,2,0:0:0:0:
123,287,71562,1,0,0:0:0:0:
273,134,71719,5,10,0:0:0:0:
102,206,71876,1,2,0:0:0:0:
255,296,72033,1,0,0:0:0:0:
213,74,72190,5,10,0:0:0:0:
317,197,72347,1,2,0:0:0:0:
148,224,72504,1,2,0:0:0:0:
380,90,72661,6,0,P|325:107|276:105,1,99.0000030212403,10|0,0:0|0:0,0:0:0:0:
89,228,72976,2,0,P|183:210|212:212,1,99.0000030212403,10|0,0:0|0:0,0:0:0:0:
352,249,73290,5,8,0:0:0:0:
195,283,73447,1,0,0:0:0:0:
219,133,73604,2,0,L|166:95,3,49.5000015106202,10|0|0|0,0:0|0:0|0:0|0:0,0:0:0:0:
72,196,73918,2,0,L|120:150,3,49.5000015106202,2|0|8|0,0:0|0:0|0:0|0:0,0:0:0:0:
203,218,74232,2,0,L|243:248,1,49.5000015106202,2|0,0:0|0:0,0:0:0:0:
407,265,74389,2,0,L|350:227,3,49.5000015106202,10|0|0|0,0:0|0:0|0:0|0:0,0:0:0:0:
267,115,74703,2,0,L|318:151,3,49.5000015106202,10|0|0|0,0:0|0:0|0:0|0:0,0:0:0:0:
435,201,75018,2,0,L|389:242,1,49.5000015106202,2|0,0:0|0:0,0:0:0:0:
215,287,75175,6,0,L|270:290,1,49.5000015106202,10|0,0:0|0:0,0:0:0:0:
368,202,75332,2,0,L|314:205,1,49.5000015106202,10|0,0:0|0:0,0:0:0:0:
189,129,75489,2,0,L|246:133,1,49.5000015106202,10|0,0:0|0:0,0:0:0:0:
362,65,75646,2,0,P|313:28|172:90,1,198.000006042481,14|0,0:0|0:0,0:0:0:0:
64,177,76117,6,0,P|140:194|172:195,1,99.0000030212403,8|0,0:0|0:0,0:0:0:0:
292,132,76431,2,0,P|313:81|313:30,1,99.0000030212403
180,183,76745,2,0,P|167:249|165:302,1,99.0000030212403,8|0,0:0|0:0,0:0:0:0:
354,291,77059,5,0,0:0:0:0:
429,148,77216,1,0,0:0:0:0:
271,155,77374,1,8,0:0:0:0:
354,300,77531,1,0,0:0:0:0:
436,143,77688,1,2,0:0:0:0:
262,150,77845,1,0,0:0:0:0:
405,234,78002,1,8,0:0:0:0:
344,91,78159,6,0,P|269:71|172:176,1,198.000006042481,6|0,0:0|0:0,0:0:0:0:
30,267,78630,2,0,P|126:270|170:256,1,99.0000030212403,8|0,0:0|0:0,0:0:0:0:
360,212,78944,2,0,P|304:211|239:219,1,99.0000030212403
39,152,79258,2,0,P|113:150|151:157,1,99.0000030212403,8|0,0:0|0:0,0:0:0:0:
364,275,79572,5,0,0:0:0:0:
238,157,79730,1,0,0:0:0:0:
388,249,79887,1,8,0:0:0:0:
196,245,80044,5,0,0:0:0:0:
379,196,80201,1,2,0:0:0:0:
202,208,80358,1,0,0:0:0:0:
323,314,80515,1,8,0:0:0:0:
299,105,80672,2,0,P|240:64|124:130,1,198.000006042481,6|0,0:0|0:0,0:0:0:0:
43,247,81143,6,0,P|98:265|147:261,1,99.0000030212403,8|0,0:0|0:0,0:0:0:0:
271,150,81457,2,0,P|333:142|390:163,1,99.0000030212403
176,72,81771,2,0,P|119:65|69:78,1,99.0000030212403,8|0,0:0|0:0,0:0:0:0:
88,217,82086,5,8,0:0:0:0:
120,239,82164,1,8,0:0:0:0:
159,255,82243,1,8,0:0:0:0:
204,256,82321,1,8,0:0:0:0:
247,248,82400,2,8,L|294:228,3,49.5000015106202
337,207,82713,5,8,0:0:0:0:
213,69,82871,2,0,P|157:100|129:201,1,148.50000453186,8|0,0:0|0:0,0:0:0:0:
126,218,83185,6,0,P|191:226|343:281,1,215.999993408203,4|0,0:0|0:0,0:0:0:0:
408,162,83656,6,0,P|391:100|386:36,1,107.999996704102,10|0,0:0|0:0,0:0:0:0:
301,189,83970,2,0,P|284:249|258:298,1,107.999996704102,10|0,0:0|0:0,0:0:0:0:
166,126,84285,6,0,P|160:79|171:8,1,107.999996704102,10|0,0:0|0:0,0:0:0:0:
110,214,84599,2,0,P|94:255|46:317,1,107.999996704102,10|0,0:0|0:0,0:0:0:0:
232,131,84913,2,0,P|292:131|360:144,1,107.999996704102,10|0,0:0|0:0,0:0:0:0:
407,273,85227,5,10,0:0:0:0:
262,201,85384,1,2,0:0:0:0:
435,173,85541,1,10,0:0:0:0:
293,108,85698,2,0,P|244:77|110:164,1,215.999993408203,6|0,0:0|0:0,0:0:0:0:
195,317,86169,6,0,P|191:260|180:195,1,107.999996704102,10|0,0:0|0:0,0:0:0:0:
65,46,86483,2,0,P|68:118|78:168,1,107.999996704102,10|0,0:0|0:0,0:0:0:0:
82,304,86798,5,10,0:0:0:0:
234,185,86955,1,0,0:0:0:0:
103,144,87112,2,0,P|51:114|19:66,1,107.999996704102,10|0,0:0|0:0,0:0:0:0:
204,99,87426,2,0,P|271:129|313:169,1,107.999996704102,10|0,0:0|0:0,0:0:0:0:
364,228,87740,5,10,0:0:0:0:
338,245,87818,1,8,0:0:0:0:
318,261,87897,1,10,0:0:0:0:
294,278,87975,1,8,0:0:0:0:
270,293,88054,1,10,0:0:0:0:
244,308,88133,1,8,0:0:0:0:
217,329,88211,2,0,P|160:346|114:211,1,215.999993408203,14|0,0:0|0:0,0:0:0:0:
206,150,88682,6,0,P|191:82|166:25,1,107.999996704102,10|0,0:0|0:0,0:0:0:0:
123,203,88997,2,0,P|136:281|162:346,1,107.999996704102,10|0,0:0|0:0,0:0:0:0:
362,238,89311,1,10,0:0:0:0:
207,278,89468,1,0,0:0:0:0:
324,133,89625,2,0,P|383:102|459:98,1,107.999996704102,10|0,0:0|0:0,0:0:0:0:
307,262,89939,2,0,P|240:284|172:283,1,107.999996704102,10|0,0:0|0:0,0:0:0:0:
159,53,90253,5,10,0:0:0:0:
96,229,90410,1,2,0:0:0:0:
204,189,90567,1,10,0:0:0:0:
123,107,90724,2,0,P|63:159|123:288,1,215.999993408203,6|0,0:0|0:0,0:0:0:0:
140,298,91117,5,0,0:0:0:0:
140,298,91196,2,0,L|192:316,3,53.9999983520508,10|0|0|0,0:0|0:0|0:0|0:0,0:0:0:0:
264,232,91510,2,0,L|323:222,3,53.9999983520508,10|0|0|0,0:0|0:0|0:0|0:0,0:0:0:0:
398,315,91824,2,0,L|460:331,3,53.9999983520508,10|0|0|0,0:0|0:0|0:0|0:0,0:0:0:0:
465,220,92138,5,10,0:0:0:0:
465,220,92216,2,0,P|424:174|316:186,1,161.999995056153,8|10,0:0|0:0,0:0:0:0:
363,313,92609,1,0,0:0:0:0:
266,133,92766,5,10,0:0:0:0:
151,264,92923,1,10,0:0:0:0:
316,299,93080,1,10,0:0:0:0:
215,199,93237,6,0,P|177:186|295:95,1,337.500012874604,14|8,0:0|0:0,0:0:0:0:
285,237,94650,6,0,P|326:271|411:167,1,202.500007724762,4|8,0:0|0:0,0:0:0:0:
416,158,95201,1,8,0:0:0:0:
416,158,95279,1,8,0:0:0:0:
248,43,95750,6,0,P|205:82|366:136,1,337.500012874604,12|8,0:0|0:0,0:0:0:0:
188,102,97164,6,0,P|140:90|117:211,1,202.500007724762,4|8,0:0|0:0,0:0:0:0:
133,228,97714,1,8,0:0:0:0:
133,228,97792,1,8,0:0:0:0:
234,147,98107,5,0,0:0:0:0:
290,254,98264,2,0,P|336:282|343:112,1,337.500012874604,12|8,0:0|0:0,0:0:0:0:
213,245,99677,6,0,B|159:255|159:255|86:257|86:257|60:237|103:208|103:208|92:170,1,202.500007724762,12|8,0:0|0:0,0:0:0:0:
86,168,100227,1,8,0:0:0:0:
86,168,100305,1,8,0:0:0:0:
232,82,100777,6,0,P|292:100|323:189,1,161.999995056153,4|0,0:0|0:0,0:0:0:0:
308,225,101169,1,0,0:0:0:0:
308,225,101248,2,0,L|277:276,3,40.4999987640381,10|0|0|0,0:0|0:0|0:0|0:0,0:0:0:0:
185,264,101562,2,0,L|132:261,3,40.4999987640381,10|0|2|0,0:0|0:0|0:0|0:0,0:0:0:0:
77,196,101876,2,8,L|71:152,1,40.4999987640381
69,27,102033,1,10,0:0:0:0:
396,159,103290,6,0,P|360:127|209:134,1,180,4|2,0:0|0:0,0:0:0:0:
172,229,103761,1,10,0:0:0:0:
71,127,103918,1,2,0:0:0:0:
185,133,104075,5,2,0:0:0:0:
306,169,104232,1,2,0:0:0:0:
113,193,104389,1,10,0:0:0:0:
252,227,104546,1,2,0:0:0:0:
130,208,104703,5,2,0:0:0:0:
220,100,104860,1,2,0:0:0:0:
167,257,105018,1,10,0:0:0:0:
255,156,105175,1,2,0:0:0:0:
108,213,105332,5,2,0:0:0:0:
276,245,105489,1,2,0:0:0:0:
213,114,105646,1,10,0:0:0:0:
172,267,105803,2,0,P|180:318|282:328,1,135,6|0,0:0|0:0,0:0:0:0:
299,347,106117,6,0,P|313:304|291:163,1,180,2|2,0:0|0:0,0:0:0:0:
176,38,106588,2,0,P|174:92|195:161,1,90,2|0,0:0|0:0,0:0:0:0:
272,287,106902,2,0,P|277:225|266:168,1,90,10|0,0:0|0:0,0:0:0:0:
150,174,107216,5,2,0:0:0:0:
278,95,107374,1,2,0:0:0:0:
93,157,107531,1,10,0:0:0:0:
215,74,107688,1,2,0:0:0:0:
217,211,107845,6,0,P|212:268|190:320,1,90,2|0,0:0|0:0,0:0:0:0:
113,152,108159,2,0,P|114:102|202:44,1,135,10|0,0:0|0:0,0:0:0:0:
200,70,108473,6,0,B|257:80|257:80|299:82|319:81,1,90,4|2,0:0|0:0,0:0:0:0:
278,181,108787,1,10,0:0:0:0:
363,99,108944,1,2,0:0:0:0:
402,208,109101,5,2,0:0:0:0:
300,156,109258,1,2,0:0:0:0:
344,234,109415,1,10,0:0:0:0:
241,185,109572,1,2,0:0:0:0:
273,302,109730,5,2,0:0:0:0:
236,149,109887,2,0,P|213:105|144:67,1,90,2|8,0:0|0:0,0:0:0:0:
99,189,110201,5,2,0:0:0:0:
212,144,110358,1,2,0:0:0:0:
87,113,110515,1,2,0:0:0:0:
114,251,110672,2,0,P|193:271|251:217,1,135,8|0,0:0|0:0,0:0:0:0:
282,223,110986,6,0,P|278:161|261:97,1,90,10|0,0:0|0:0,0:0:0:0:
122,41,111300,2,0,P|132:91|150:142,1,90,10|0,0:0|0:0,0:0:0:0:
380,211,111614,2,0,P|349:156|313:103,1,90,10|0,0:0|0:0,0:0:0:0:
104,271,111929,2,0,P|165:304|220:319,1,90,10|0,0:0|0:0,0:0:0:0:
350,279,112243,6,0,L|410:270,3,45,10|0|0|0,0:0|0:0|0:0|0:0,0:0:0:0:
310,184,112557,2,0,L|256:162,3,45,10|0|0|0,0:0|0:0|0:0|0:0,0:0:0:0:
376,96,112871,2,0,L|423:83,3,45,10|0|0|0,0:0|0:0|0:0|0:0,0:0:0:0:
312,234,113185,2,0,L|292:289,3,45,10|0|0|0,0:0|0:0|0:0|0:0,0:0:0:0:
290,182,113499,5,8,0:0:0:0:
290,182,113578,1,8,0:0:0:0:
188,103,113735,5,8,0:0:0:0:
188,103,113813,1,8,0:0:0:0:
123,216,113970,5,8,0:0:0:0:
123,216,114049,2,0,P|161:256|229:271,1,90,8|0,0:0|0:0,0:0:0:0:
231,286,114285,6,0,P|255:202|240:84,1,198.000006042481,6|0,0:0|0:0,0:0:0:0:
89,35,114756,2,0,P|108:97|131:137,1,99.0000030212403,10|0,0:0|0:0,0:0:0:0:
257,300,115070,2,0,P|239:254|203:202,1,99.0000030212403,2|0,0:0|0:0,0:0:0:0:
50,110,115384,6,0,P|100:80|148:70,1,99.0000030212403,10|0,0:0|0:0,0:0:0:0:
320,110,115698,2,0,P|340:157|352:232,1,99.0000030212403,2|0,0:0|0:0,0:0:0:0:
225,315,116012,1,10,0:0:0:0:
225,315,116169,2,0,P|194:268|200:122,1,198.000006042481,2|0,0:0|0:0,0:0:0:0:
278,35,116641,5,8,0:0:0:0:
284,182,116798,2,0,P|223:198|164:198,1,99.0000030212403,2|0,0:0|0:0,0:0:0:0:
65,109,117112,1,2,0:0:0:0:
181,190,117269,1,10,0:0:0:0:
233,64,117426,1,2,0:0:0:0:
352,162,117583,1,2,0:0:0:0:
262,298,117740,6,0,P|233:243|246:179,1,99.0000030212403,2|8,0:0|0:0,0:0:0:0:
274,64,118054,1,2,0:0:0:0:
440,57,118211,2,0,P|414:102|376:131,1,99.0000030212403,2|0,0:0|0:0,0:0:0:0:
187,288,118525,2,0,P|155:243|137:190,1,99.0000030212403,10|0,0:0|0:0,0:0:0:0:
213,38,118840,1,10,0:0:0:0:
321,146,118997,1,8,0:0:0:0:
195,239,119154,1,10,0:0:0:0:
109,118,119311,5,8,0:0:0:0:
109,118,119389,1,8,0:0:0:0:
109,118,119468,2,0,P|157:100|222:94,1,99.0000030212403,14|0,0:0|0:0,0:0:0:0:
368,173,119782,2,0,P|313:188|248:186,1,99.0000030212403,10|0,0:0|0:0,0:0:0:0:
30,157,120096,2,0,P|106:147|162:152,1,99.0000030212403,2|0,0:0|0:0,0:0:0:0:
408,235,120410,2,0,P|356:240|306:231,1,99.0000030212403,10|0,0:0|0:0,0:0:0:0:
111,136,120724,6,0,P|122:92|267:129,1,198.000006042481,2|8,0:0|0:0,0:0:0:0:
255,211,121196,1,0,0:0:0:0:
148,145,121353,1,2,0:0:0:0:
148,145,121510,1,2,0:0:0:0:
193,299,121667,1,10,0:0:0:0:
312,122,121824,6,0,P|364:165|386:226,1,99.0000030212403,10|0,0:0|0:0,0:0:0:0:
321,309,122138,1,10,0:0:0:0:
167,210,122295,1,8,0:0:0:0:
167,210,122374,1,8,0:0:0:0:
167,210,122452,2,8,L|128:152,3,49.5000015106202,10|8|8|8,0:0|0:0|0:0|0:0,0:0:0:0:
285,79,122766,2,8,L|224:74,3,49.5000015106202,10|8|8|8,0:0|0:0|0:0|0:0,0:0:0:0:
323,102,123080,6,0,P|332:167|279:261,1,161.999995056153,14|0,0:0|0:0,0:0:0:0:
194,302,123394,2,0,P|170:243|194:120,1,161.999995056153,6|0,0:0|0:0,0:0:0:0:
187,60,123709,2,0,B|245:93|245:93|298:91|353:60,1,161.999995056153,6|0,0:0|0:0,0:0:0:0:
414,9,124023,2,0,B|468:13|468:13|493:49|493:64|444:152,1,161.999995056153,6|0,0:0|0:0,0:0:0:0:
418,212,124337,2,0,B|350:206|350:206|305:141|201:162,1,215.999993408203,6|0,0:0|0:0,0:0:0:0:
54,114,124808,6,0,P|99:83|263:69,1,215.999993408203,0|2,0:0|0:0,0:0:0:0:
300,160,125279,1,2,0:0:0:0:
204,220,125436,1,2,0:0:0:0:
145,121,125593,2,0,P|137:54|148:-5,1,107.999996704102,2|0,0:0|0:0,0:0:0:0:
258,102,125908,2,0,P|278:162|194:302,1,215.999993408203,2|8,0:0|0:0,0:0:0:0:
177,302,126300,1,8,0:0:0:0:
177,302,126379,1,10,0:0:0:0:
131,181,126536,1,10,0:0:0:0:
263,139,126693,1,10,0:0:0:0:
366,239,126850,6,0,P|363:300|332:353,1,107.999996704102,10|0,0:0|0:0,0:0:0:0:
275,163,127164,2,0,P|268:98|278:27,1,107.999996704102,2|0,0:0|0:0,0:0:0:0:
186,228,127478,2,0,P|167:298|128:350,1,107.999996704102,2|0,0:0|0:0,0:0:0:0:
35,108,127792,2,0,P|116:75|161:74,1,107.999996704102,2|0,0:0|0:0,0:0:0:0:
215,162,128107,1,2,0:0:0:0:
245,286,128264,5,8,0:0:0:0:
283,309,128342,1,8,0:0:0:0:
324,315,128421,1,10,0:0:0:0:
368,298,128499,1,8,0:0:0:0:
403,268,128578,5,10,0:0:0:0:
415,222,128656,1,8,0:0:0:0:
412,179,128735,1,10,0:0:0:0:
397,138,128813,1,8,0:0:0:0:
375,103,128892,6,8,L|341:58,3,53.9999983520508,10|8|8|8,0:0|0:0|0:0|0:0,0:0:0:0:
241,159,129206,2,8,L|186:170,3,53.9999983520508,10|8|8|8,0:0|0:0|0:0|0:0,0:0:0:0:
279,187,129520,5,12,0:0:0:0:
429,276,129677,1,0,0:0:0:0:
275,257,129834,1,2,0:0:0:0:
325,117,129991,5,8,0:0:0:0:
191,266,130148,1,2,0:0:0:0:
342,176,130305,1,0,0:0:0:0:
151,166,130463,5,10,0:0:0:0:
319,206,130620,1,2,0:0:0:0:
201,126,130777,1,0,0:0:0:0:
219,307,130934,5,10,0:0:0:0:
148,123,131091,1,0,0:0:0:0:
153,285,131248,1,2,0:0:0:0:
291,124,131405,5,10,0:0:0:0:
110,198,131562,1,2,0:0:0:0:
308,264,131719,5,10,0:0:0:0:
214,101,131876,1,0,0:0:0:0:
192,274,132033,5,8,0:0:0:0:
291,124,132190,1,0,0:0:0:0:
140,207,132347,1,2,0:0:0:0:
311,193,132504,5,8,0:0:0:0:
147,138,132661,1,2,0:0:0:0:
272,252,132819,1,0,0:0:0:0:
260,94,132976,5,10,0:0:0:0:
249,118,133054,1,8,0:0:0:0:
228,146,133133,1,10,0:0:0:0:
202,168,133211,1,8,0:0:0:0:
171,182,133290,1,8,0:0:0:0:
83,97,133447,1,2,0:0:0:0:
74,219,133604,1,0,0:0:0:0:
215,164,133761,1,2,0:0:0:0:
195,57,133918,6,8,P|238:37|337:64,2,120,10|10|10,0:0|0:0|0:0,0:0:0:0:
168,90,134546,1,10,0:0:0:0:
225,137,143342,6,8,L|167:111,2,35.9999989013672
226,232,143761,2,8,L|284:258,2,35.9999989013672
112,276,144180,2,8,L|156:228,1,35.9999989013672
264,133,144599,6,0,P|262:93|122:104,1,215.999993408203,4|0,0:0|0:0,0:0:0:0:
123,198,145541,2,8,L|185:218,1,53.9999983520508
328,249,145855,2,0,P|331:208|186:128,1,215.999993408203,8|0,0:0|0:0,0:0:0:0:
188,251,146798,1,8,0:0:0:0:
325,320,147112,2,0,P|360:268|259:160,1,215.999993408203,8|0,0:0|0:0,0:0:0:0:
120,252,148054,6,8,L|130:185,1,53.9999983520508
154,86,148368,2,0,P|196:69|300:189,1,215.999993408203,8|0,0:0|0:0,0:0:0:0:
170,240,149311,1,8,0:0:0:0:
248,129,149625,6,0,L|278:41,1,72,8|0,0:0|0:0,0:0:0:0:
352,164,149939,2,0,L|379:76,1,72,8|0,0:0|0:0,0:0:0:0:
286,261,150253,2,0,L|206:233,1,72,8|0,0:0|0:0,0:0:0:0:
379,237,150567,2,0,L|465:263,1,72,8|0,0:0|0:0,0:0:0:0:
330,122,150881,5,8,0:0:0:0:
309,150,151038,1,0,0:0:0:0:
222,86,151195,1,8,0:0:0:0:
209,116,151352,1,0,0:0:0:0:
179,238,151510,5,8,0:0:0:0:
153,229,151667,1,0,0:0:0:0:
102,113,151824,1,8,0:0:0:0:
116,88,151981,1,0,0:0:0:0:
283,85,152138,5,8,0:0:0:0:
224,193,152295,1,8,0:0:0:0:
224,193,152374,1,8,0:0:0:0:
224,193,152452,2,0,L|200:255,1,36,8|0,0:0|0:0,0:0:0:0:
132,344,152609,1,8,0:0:0:0:
132,344,152688,1,8,0:0:0:0:
132,344,152766,2,0,L|114:290,1,36,8|0,0:0|0:0,0:0:0:0:
65,182,152923,5,8,0:0:0:0:
53,147,153002,1,8,0:0:0:0:
59,105,153080,1,8,0:0:0:0:
79,67,153159,1,8,0:0:0:0:
107,42,153237,5,8,0:0:0:0:
147,34,153316,1,8,0:0:0:0:
191,45,153394,1,8,0:0:0:0:
230,67,153473,1,8,0:0:0:0:
264,95,153552,5,8,0:0:0:0:
308,99,153630,1,8,0:0:0:0:
350,96,153709,1,8,0:0:0:0:
388,74,153787,1,8,0:0:0:0:
419,56,153866,6,8,L|450:22,3,36
437,105,154180,2,0,P|446:139|356:261,1,180,8|0,0:0|0:0,0:0:0:0:
340,255,154651,6,0,P|293:256|238:235,1,72,4|2,0:0|0:0,0:0:0:0:
147,220,154965,1,2,0:0:0:0:
139,60,155122,1,2,0:0:0:0:
34,170,155279,2,0,P|38:219|141:253,1,144,10|0,0:0|0:0,0:0:0:0:
189,185,155750,1,2,0:0:0:0:
305,258,155908,5,10,0:0:0:0:
195,291,156065,1,2,0:0:0:0:
183,152,156222,2,0,P|197:113|219:77,1,72,2|2,0:0|0:0,0:0:0:0:
321,28,156536,6,0,P|331:92|296:166,2,144,10|2|10,0:0|0:0|0:0,0:0:0:0:
231,89,157321,1,2,0:0:0:0:
129,50,157478,1,2,0:0:0:0:
53,124,157635,1,2,0:0:0:0:
116,231,157792,2,0,P|167:235|219:212,1,108,10|0,0:0|0:0,0:0:0:0:
220,180,158107,2,0,P|262:168|324:173,1,72,2|0,0:0|0:0,0:0:0:0:
438,179,158421,5,10,0:0:0:0:
342,72,158578,1,2,0:0:0:0:
213,142,158735,2,0,P|228:192|258:232,1,72,2|0,0:0|0:0,0:0:0:0:
404,179,159049,6,0,P|384:144|332:115,1,72,8|0,0:0|0:0,0:0:0:0:
320,159,159285,2,0,P|274:148|228:117,1,72,10|0,0:0|0:0,0:0:0:0:
214,91,159520,2,0,P|180:125|172:145,1,36,10|0,0:0|0:0,0:0:0:0:
156,154,159677,6,0,P|183:192|228:207,1,72,14|2,0:0|0:0,0:0:0:0:
323,217,159991,1,2,0:0:0:0:
263,97,160148,1,2,0:0:0:0:
238,199,160305,5,10,0:0:0:0:
124,122,160463,1,2,0:0:0:0:
180,232,160620,1,2,0:0:0:0:
75,162,160777,1,2,0:0:0:0:
108,282,160934,5,10,0:0:0:0:
190,158,161091,1,2,0:0:0:0:
232,289,161248,2,0,P|270:311|326:300,1,72,2|0,0:0|0:0,0:0:0:0:
453,220,161562,6,0,P|426:186|376:151,1,72,10|0,0:0|0:0,0:0:0:0:
224,163,161876,2,0,P|259:197|292:217,1,72,2|0,0:0|0:0,0:0:0:0:
444,313,162190,6,0,P|451:262|433:192,1,90,12|2,0:0|0:0,0:0:0:0:
354,67,162504,1,10,0:0:0:0:
285,203,162661,1,10,0:0:0:0:
436,167,162819,1,10,0:0:0:0:
293,86,162976,1,10,0:0:0:0:
203,236,163133,1,10,0:0:0:0:
352,188,163290,5,10,0:0:0:0:
352,188,163368,1,8,0:0:0:0:
352,188,163447,2,0,L|375:242,3,45,10|0|2|0,0:0|0:0|0:0|0:0,0:0:0:0:
233,294,163761,2,0,L|183:325,3,45,2|0|0|0,0:0|0:0|0:0|0:0,0:0:0:0:
173,191,164075,2,0,L|132:155,3,45,2|0|0|0,0:0|0:0|0:0|0:0,0:0:0:0:
149,314,164389,2,0,L|203:318,1,45,2|0,0:0|0:0,0:0:0:0:
333,295,164546,2,0,L|338:250,1,45,2|0,0:0|0:0,0:0:0:0:
356,92,164703,6,0,P|309:79|222:95,1,99.0000030212403,12|2,0:0|0:0,0:0:0:0:
133,177,165018,1,10,0:0:0:0:
240,293,165175,1,2,0:0:0:0:
270,145,165332,2,8,P|244:104|97:81,1,198.000006042481,10|8,0:0|0:0,0:0:0:0:
95,242,165803,5,2,0:0:0:0:
276,194,165960,1,10,0:0:0:0:
180,90,166117,1,2,0:0:0:0:
176,298,166274,1,10,0:0:0:0:
320,237,166431,5,2,0:0:0:0:
194,161,166588,2,8,P|153:111|166:2,2,148.50000453186,10|10|10,0:0|0:0|0:0,0:0:0:0:
345,117,167216,1,10,0:0:0:0:
310,264,167374,5,2,0:0:0:0:
187,200,167531,1,10,0:0:0:0:
248,89,167688,1,2,0:0:0:0:
363,175,167845,5,10,0:0:0:0:
163,232,168002,1,2,0:0:0:0:
379,223,168159,2,0,P|426:266|454:307,1,99.0000030212403,10|0,0:0|0:0,0:0:0:0:
267,304,168473,5,10,0:0:0:0:
60,321,168630,1,2,0:0:0:0:
230,258,168787,2,0,P|284:214|304:164,1,99.0000030212403,10|0,0:0|0:0,0:0:0:0:
165,51,169101,6,8,P|208:92|248:110,1,99.0000030212403,10|0,0:0|0:0,0:0:0:0:
397,109,169415,1,8,0:0:0:0:
279,230,169572,1,0,0:0:0:0:
61,161,169730,6,0,P|112:158|165:142,1,99.0000030212403,10|0,0:0|0:0,0:0:0:0:
368,61,170044,2,0,P|302:62|250:75,1,99.0000030212403,8|0,0:0|0:0,0:0:0:0:
201,278,170358,6,0,P|187:222|187:167,1,99.0000030212403,10|0,0:0|0:0,0:0:0:0:
315,31,170672,2,0,P|322:82|315:148,1,99.0000030212403,10|0,0:0|0:0,0:0:0:0:
293,169,170908,1,8,0:0:0:0:
293,169,170986,2,0,P|271:226|263:276,1,99.0000030212403,10|0,0:0|0:0,0:0:0:0:
419,351,171300,6,0,P|398:300|372:256,1,99.0000030212403,10|0,0:0|0:0,0:0:0:0:
345,250,171536,1,0,0:0:0:0:
345,250,171614,2,0,P|317:196|309:136,1,99.0000030212403,10|0,0:0|0:0,0:0:0:0:
208,18,171929,2,0,P|206:86|217:131,1,99.0000030212403,10|0,0:0|0:0,0:0:0:0:
221,149,172164,1,8,0:0:0:0:
221,149,172243,6,0,L|255:202,3,49.5000015106202,10|0|0|0,0:0|0:0|0:0|0:0,0:0:0:0:
145,263,172557,2,0,L|125:309,3,49.5000015106202
103,143,172871,2,0,L|72:82,3,49.5000015106202
200,212,173185,2,0,L|263:212,3,49.5000015106202
152,96,173499,6,0,L|100:97,3,49.5000015106202,10|0|0|0,0:0|0:0|0:0|0:0,0:0:0:0:
266,36,173813,2,0,L|320:36,3,49.5000015106202
223,75,174127,1,10,0:0:0:0:
60,206,174285,1,8,0:0:0:0:
274,295,174442,1,8,0:0:0:0:
152,155,174599,6,0,B|128:116|177:61|177:61|236:109|236:109|303:92|350:102|388:175,1,346.500010574341,0|8,0:0|0:0,0:0:0:0:
375,193,175777,1,8,0:0:0:0:
375,193,175855,1,14,0:0:0:0:
341,78,178997,6,0,L|285:276,1,198.000006042481,6|0,0:0|0:0,0:0:0:0:
179,340,179468,2,0,P|156:275|159:202,1,99.0000030212403,10|0,0:0|0:0,0:0:0:0:
206,33,179782,2,0,P|218:85|221:145,1,99.0000030212403,2|0,0:0|0:0,0:0:0:0:
31,257,180096,2,0,P|86:257|140:251,1,99.0000030212403,10|0,0:0|0:0,0:0:0:0:
376,209,180410,2,0,P|341:170|273:145,1,99.0000030212403,2|0,0:0|0:0,0:0:0:0:
88,178,180724,5,10,0:0:0:0:
88,178,180881,2,0,P|156:203|203:202,1,99.0000030212403,2|0,0:0|0:0,0:0:0:0:
369,189,181196,1,0,0:0:0:0:
209,81,181353,1,8,0:0:0:0:
164,270,181510,6,0,P|242:302|297:303,1,99.0000030212403,2|2,0:0|0:0,0:0:0:0:
427,291,181824,1,2,0:0:0:0:
312,157,181981,1,10,0:0:0:0:
217,306,182138,1,2,0:0:0:0:
130,180,182295,1,2,0:0:0:0:
248,29,182452,2,0,P|312:67|340:119,1,99.0000030212403,2|8,0:0|0:0,0:0:0:0:
324,266,182766,5,2,0:0:0:0:
218,192,182923,2,0,P|187:138|170:79,1,99.0000030212403,2|0,0:0|0:0,0:0:0:0:
320,16,183237,2,0,P|322:72|307:133,1,99.0000030212403,10|0,0:0|0:0,0:0:0:0:
266,275,183552,5,10,0:0:0:0:
226,265,183630,1,8,0:0:0:0:
188,239,183709,1,8,0:0:0:0:
170,205,183787,1,8,0:0:0:0:
160,167,183866,5,10,0:0:0:0:
158,125,183944,1,8,0:0:0:0:
139,90,184023,1,8,0:0:0:0:
100,78,184101,1,8,0:0:0:0:
57,82,184180,6,0,P|32:124|34:213,1,99.0000030212403,14|0,0:0|0:0,0:0:0:0:
181,342,184494,2,0,P|162:285|126:231,1,99.0000030212403,10|0,0:0|0:0,0:0:0:0:
182,61,184808,2,0,P|207:133|240:165,1,99.0000030212403,2|0,0:0|0:0,0:0:0:0:
433,228,185122,2,0,P|373:231|317:226,1,99.0000030212403,10|0,0:0|0:0,0:0:0:0:
166,226,185436,2,0,P|112:178|184:80,1,198.000006042481,2|8,0:0|0:0,0:0:0:0:
247,164,185908,5,0,0:0:0:0:
224,322,186065,2,0,P|161:311|121:286,1,99.0000030212403,10|10,0:0|0:0,0:0:0:0:
108,252,186300,1,8,0:0:0:0:
108,252,186379,2,0,P|114:185|96:122,1,99.0000030212403,10|10,0:0|0:0,0:0:0:0:
188,50,186693,1,0,0:0:0:0:
225,177,186850,2,0,P|288:185|337:176,1,99.0000030212403,10|8,0:0|0:0,0:0:0:0:
366,179,187086,5,8,0:0:0:0:
366,179,187164,2,8,L|424:185,3,49.5000015106202,10|8|8|8,0:0|0:0|0:0|0:0,0:0:0:0:
314,265,187478,2,8,L|244:285,3,49.5000015106202,10|8|8|8,0:0|0:0|0:0|0:0,0:0:0:0:
370,263,187792,6,0,P|356:208|248:116,1,161.999995056153,6|0,0:0|0:0,0:0:0:0:
216,184,188107,2,0,P|180:141|215:37,1,161.999995056153,6|0,0:0|0:0,0:0:0:0:
293,107,188421,2,0,P|228:134|113:119,1,161.999995056153,6|0,0:0|0:0,0:0:0:0:
52,161,188735,2,0,P|58:218|132:296,1,161.999995056153,6|0,0:0|0:0,0:0:0:0:
247,309,189049,6,0,L|174:80,1,215.999993408203,6|0,0:0|0:0,0:0:0:0:
84,56,189520,1,0,0:0:0:0:
94,189,189677,1,0,0:0:0:0:
240,187,189834,2,0,P|297:150|330:92,1,107.999996704102,2|0,0:0|0:0,0:0:0:0:
227,38,190148,5,2,0:0:0:0:
166,158,190305,2,0,P|165:217|182:269,1,107.999996704102,2|0,0:0|0:0,0:0:0:0:
323,346,190620,2,0,P|337:292|232:174,1,215.999993408203,2|0,0:0|0:0,0:0:0:0:
208,286,191091,5,2,0:0:0:0:
114,209,191248,1,2,0:0:0:0:
193,108,191405,1,10,0:0:0:0:
359,109,191562,2,0,P|376:166|343:245,1,107.999996704102,10|0,0:0|0:0,0:0:0:0:
300,347,191876,2,0,P|244:315|211:268,1,107.999996704102,2|0,0:0|0:0,0:0:0:0:
93,134,192190,2,0,P|158:112|217:113,1,107.999996704102,2|0,0:0|0:0,0:0:0:0:
441,108,192504,6,0,L|437:238,1,107.999996704102,2|0,0:0|0:0,0:0:0:0:
294,164,192819,1,2,0:0:0:0:
204,301,192976,5,10,0:0:0:0:
160,321,193054,1,8,0:0:0:0:
119,322,193133,1,10,0:0:0:0:
81,309,193211,1,8,0:0:0:0:
61,278,193290,5,10,0:0:0:0:
52,233,193368,1,8,0:0:0:0:
70,201,193447,1,10,0:0:0:0:
105,171,193525,1,8,0:0:0:0:
134,150,193604,5,10,0:0:0:0:
160,109,193682,1,8,0:0:0:0:
177,63,193761,6,8,L|149:17,5,53.9999983520508,8|8|10|8|8|8,0:0|0:0|0:0|0:0|0:0|0:0,0:0:0:0:
162,165,194232,5,12,0:0:0:0:
340,219,194389,1,0,0:0:0:0:
284,36,194546,1,2,0:0:0:0:
234,194,194703,5,8,0:0:0:0:
372,296,194860,1,2,0:0:0:0:
435,140,195018,1,0,0:0:0:0:
273,106,195175,5,10,0:0:0:0:
130,199,195332,1,2,0:0:0:0:
281,293,195489,1,0,0:0:0:0:
345,150,195646,5,10,0:0:0:0:
178,94,195803,1,0,0:0:0:0:
323,194,195960,1,2,0:0:0:0:
124,234,196117,5,10,0:0:0:0:
297,154,196274,1,2,0:0:0:0:
93,142,196431,5,10,0:0:0:0:
249,179,196588,1,0,0:0:0:0:
156,300,196745,5,8,0:0:0:0:
193,329,196824,1,0,0:0:0:0:
241,340,196902,1,0,0:0:0:0:
290,329,196981,1,0,0:0:0:0:
331,300,197059,2,0,L|340:241,1,53.9999983520508,2|0,0:0|0:0,0:0:0:0:
333,95,197217,5,8,0:0:0:0:
286,71,197295,1,0,0:0:0:0:
241,59,197374,1,2,0:0:0:0:
196,66,197452,1,0,0:0:0:0:
158,88,197531,2,0,L|126:135,1,53.9999983520508
122,275,197688,5,10,0:0:0:0:
164,288,197766,1,0,0:0:0:0:
201,297,197845,2,0,L|265:268,1,53.9999983520508,2|0,0:0|0:0,0:0:0:0:
362,124,198002,2,0,L|302:161,1,53.9999983520508,8|0,0:0|0:0,0:0:0:0:
253,309,198159,2,0,L|303:260,1,53.9999983520508,10|0,0:0|0:0,0:0:0:0:
344,91,198316,2,0,L|301:146,1,53.9999983520508,8|0,0:0|0:0,0:0:0:0:
240,254,198473,5,10,0:0:0:0:
267,296,198552,1,0,0:0:0:0:
305,320,198630,1,10,0:0:0:0:
358,328,198709,1,8,0:0:0:0:
408,325,198787,5,10,0:0:0:0:
459,297,198866,1,8,0:0:0:0:
490,248,198944,1,10,0:0:0:0:
497,195,199023,1,8,0:0:0:0:
493,145,199101,6,0,P|474:90|323:60,1,215.999993408203,6|0,0:0|0:0,0:0:0:0:
342,206,199572,2,0,L|227:206,1,107.999996704102,8|0,0:0|0:0,0:0:0:0:
36,128,199887,2,0,L|151:129,1,107.999996704102
371,175,200201,2,0,P|388:228|358:293,1,107.999996704102,8|0,0:0|0:0,0:0:0:0:
164,357,200515,2,0,P|139:291|148:248,1,107.999996704102
308,64,200829,2,0,P|326:131|313:188,1,107.999996704102,8|0,0:0|0:0,0:0:0:0:
109,175,201143,5,2,0:0:0:0:
249,116,201300,1,0,0:0:0:0:
38,125,201457,1,8,0:0:0:0:
204,241,201614,2,0,P|269:256|315:115,1,215.999993408203,6|0,0:0|0:0,0:0:0:0:
244,48,202086,6,0,L|152:158,1,107.999996704102,8|0,0:0|0:0,0:0:0:0:
144,304,202400,2,0,L|242:181,1,107.999996704102
314,64,202714,2,0,P|370:102|391:145,1,107.999996704102,8|0,0:0|0:0,0:0:0:0:
372,342,203028,2,0,P|324:301|307:239,1,107.999996704102,0|2,0:0|0:0,0:0:0:0:
253,82,203342,2,0,P|198:56|131:63,1,107.999996704102,10|0,0:0|0:0,0:0:0:0:
129,190,203656,5,2,0:0:0:0:
213,71,203813,1,2,0:0:0:0:
46,155,203970,1,10,0:0:0:0:
146,298,204127,2,0,P|201:338|310:243,1,215.999993408203,6|0,0:0|0:0,0:0:0:0:
407,110,204599,6,0,L|302:157,1,107.999996704102,8|0,0:0|0:0,0:0:0:0:
224,278,204913,2,0,L|129:193,1,107.999996704102
131,19,205227,2,0,L|222:94,1,107.999996704102,8|0,0:0|0:0,0:0:0:0:
227,223,205541,5,8,0:0:0:0:
227,223,205620,1,8,0:0:0:0:
227,223,205698,2,0,L|290:228,1,53.9999983520508,8|0,0:0|0:0,0:0:0:0:
447,153,205855,5,8,0:0:0:0:
447,153,205934,1,8,0:0:0:0:
447,153,206012,2,0,L|385:161,1,53.9999983520508,8|0,0:0|0:0,0:0:0:0:
259,218,206169,5,10,0:0:0:0:
210,222,206248,1,8,0:0:0:0:
172,209,206326,1,8,0:0:0:0:
146,177,206405,1,8,0:0:0:0:
126,145,206483,1,8,0:0:0:0:
128,108,206562,1,8,0:0:0:0:
140,76,206641,6,0,P|197:66|346:146,1,215.999993408203,6|0,0:0|0:0,0:0:0:0:
325,317,207112,2,0,P|298:254|296:190,1,107.999996704102,10|0,0:0|0:0,0:0:0:0:
368,51,207426,2,0,P|388:117|380:185,1,107.999996704102,10|0,0:0|0:0,0:0:0:0:
153,270,207740,2,0,P|230:269|298:249,1,107.999996704102,10|0,0:0|0:0,0:0:0:0:
406,138,208054,2,0,P|337:131|269:144,1,107.999996704102,10|0,0:0|0:0,0:0:0:0:
202,302,208368,2,0,P|167:244|158:183,1,107.999996704102,10|0,0:0|0:0,0:0:0:0:
248,39,208682,5,10,0:0:0:0:
112,127,208840,1,2,0:0:0:0:
344,95,208997,1,10,0:0:0:0:
227,212,209154,2,0,P|162:220|167:95,1,215.999993408203,6|0,0:0|0:0,0:0:0:0:
374,35,209625,6,0,P|394:94|387:161,1,107.999996704102,10|0,0:0|0:0,0:0:0:0:
334,352,209939,2,0,P|317:280|323:228,1,107.999996704102,10|0,0:0|0:0,0:0:0:0:
321,55,210253,1,10,0:0:0:0:
125,139,210410,1,0,0:0:0:0:
270,289,210567,2,0,P|310:223|316:164,1,107.999996704102,10|8,0:0|0:0,0:0:0:0:
215,71,210881,5,10,0:0:0:0:
215,71,210960,1,8,0:0:0:0:
215,71,211038,1,8,0:0:0:0:
141,226,211196,1,10,0:0:0:0:
328,159,211353,1,10,0:0:0:0:
328,159,211431,1,8,0:0:0:0:
328,159,211510,1,10,0:0:0:0:
281,318,211667,6,0,P|230:259|245:111,1,215.999993408203,6|0,0:0|0:0,0:0:0:0:
266,89,212059,1,0,0:0:0:0:
266,89,212138,2,0,L|350:90,3,53.9999983520508,10|0|0|0,0:0|0:0|0:0|0:0,0:0:0:0:
214,185,212452,2,0,L|144:185,3,53.9999983520508,10|0|0|0,0:0|0:0|0:0|0:0,0:0:0:0:
269,275,212766,2,0,L|353:276,3,53.9999983520508,10|0|0|0,0:0|0:0|0:0|0:0,0:0:0:0:
142,230,213080,6,0,L|79:176,3,53.9999983520508,10|0|0|0,0:0|0:0|0:0|0:0,0:0:0:0:
248,176,213394,2,0,L|306:220,3,53.9999983520508,10|0|0|0,0:0|0:0|0:0|0:0,0:0:0:0:
169,65,213708,2,0,L|233:65,1,53.9999983520508,8|0,0:0|0:0,0:0:0:0:
393,63,213866,2,0,L|324:65,1,53.9999983520508,2|0,0:0|0:0,0:0:0:0:
169,65,214023,6,0,L|226:82,1,53.9999983520508,10|0,0:0|0:0,0:0:0:0:
368,130,214180,2,0,L|430:145,5,53.9999983520508,6|0|8|0|0|0,0:0|0:0|0:0|0:0|0:0|0:0,0:0:0:0:
276,201,214651,2,0,L|213:210,3,53.9999983520508,10|0|0|0,0:0|0:0|0:0|0:0,0:0:0:0:
366,295,214965,2,0,L|413:326,3,53.9999983520508,10|0|0|0,0:0|0:0|0:0|0:0,0:0:0:0:
289,182,215279,6,0,L|236:144,3,53.9999983520508,10|0|0|0,0:0|0:0|0:0|0:0,0:0:0:0:
154,78,215593,1,10,0:0:0:0:
122,241,215750,1,8,0:0:0:0:
143,272,215829,1,8,0:0:0:0:
172,296,215908,1,10,0:0:0:0:
207,307,215986,1,8,0:0:0:0:
244,312,216065,5,8,0:0:0:0:
281,307,216143,1,8,0:0:0:0:
315,291,216222,1,10,0:0:0:0:
344,267,216300,1,8,0:0:0:0:
367,236,216379,5,10,0:0:0:0:
382,201,216457,1,8,0:0:0:0:
389,163,216536,1,10,0:0:0:0:
389,125,216614,1,8,0:0:0:0:
376,80,216693,6,0,L|265:188,1,135.000005149842,14|0,0:0|0:0,0:0:0:0:
241,240,219206,6,0,L|242:74,1,135.000005149842,12|0,0:0|0:0,0:0:0:0:
