osu file format v14

[General]
AudioFilename: audio.mp3
AudioLeadIn: 0
PreviewTime: 56679
Countdown: 0
SampleSet: Soft
StackLeniency: 0.4
Mode: 0
LetterboxInBreaks: 0
WidescreenStoryboard: 1

[Editor]
Bookmarks: 75203,80224
DistanceSpacing: 0.6
BeatDivisor: 4
GridSize: 8
TimelineZoom: 2.3

[Metadata]
Title:ADAMAS [Trailer Size]
TitleUnicode:ADAMAS [Trailer Size]
Artist:LiSA
ArtistUnicode:LiSA
Creator:Ohwow
Version:Monstrata's KIRITOOOOOOOOOOOOOOOOOOO
Source:
Tags:sword art online 3 alicization trailer monstrata
BeatmapID:1782083
BeatmapSetID:848539

[Difficulty]
HPDrainRate:5
CircleSize:4
OverallDifficulty:9.4
ApproachRate:9.4
SliderMultiplier:3.59999990463257
SliderTickRate:1

[Events]
//Background and Video events
0,0,"bg.jpg",0,0
//Break Periods
//Storyboard Layer 0 (Background)
//Storyboard Layer 1 (Fail)
//Storyboard Layer 2 (Pass)
//Storyboard Layer 3 (Foreground)
//Storyboard Sound Samples

[TimingPoints]
46470,314.13612565445,4,2,1,50,1,0
47569,-76.9230769230769,4,2,1,50,0,1
49886,-25,4,2,1,50,0,1
51594,-76.9230769230769,4,2,1,50,0,1
56679,-25,4,2,1,50,0,1
57189,-25,4,2,1,50,0,1
58760,-100,4,2,1,50,0,1
62805,-76.9230769230769,4,2,1,50,0,0
67674,-76.9230769230769,4,2,1,50,0,1
79140,-166.666666666667,4,2,1,50,0,1
79768,-100,4,2,1,50,0,1
79925,-166.666666666667,4,2,1,50,0,1
80239,-76.9230769230769,4,2,1,50,0,0

[Colours]
Combo1 : 255,203,21
Combo2 : 65,62,102
Combo3 : 231,141,99
Combo4 : 71,196,243

[HitObjects]
107,82,47569,6,0,B|368:119|368:119|469:209|400:306|278:235,1,467.999966178896
148,343,48040,2,0,P|259:314|365:358,1,233.999983089448
423,122,48354,2,0,L|142:272,1,233.999983089448
187,384,48668,2,0,L|393:273,1,233.999983089448
287,84,48983,6,0,P|53:204|154:351,1,467.999966178896
207,196,49454,1,0,0:0:0:0:
71,311,49886,6,0,B|110:276|110:276|156:326|165:326|165:326|190:276|190:276|210:287|210:287|246:265|246:265|230:114|230:114|312:208|312:208|339:245|339:245|455:189|455:189|392:126|392:126|363:127|339:120|339:120|309:81|292:71|258:113|258:113|239:58|239:58|165:69|69:65|193:138|193:138|142:241|142:241|301:333|301:333|349:356|483:295|483:295|523:153|523:153|494:77|494:77|480:36|480:36|427:75|427:75|445:6|445:6|361:56|361:56|350:-113|350:-113|311:-30|311:-30|175:-40|175:-40|63:23|63:23|57:99|57:99|459:167|459:167|239:379|239:379|459:209|459:209|278:120|278:120|239:161|239:161|348:211|348:211|361:123|361:123|273:147|273:147|243:280|243:280|426:306|426:306|470:165|470:165|226:130|226:130|226:245|226:245|464:365|464:365|418:184|418:184|321:328|321:328|169:175|169:175|479:287|479:287|442:58|442:58|0:239|0:239|355:335|355:335|120:109|120:109|64:296,1,7919.99979019165
9,238,51600,1,0,0:0:0:0:
76,172,51705,1,0,0:0:0:0:
38,207,51810,1,0,0:0:0:0:
110,153,51915,1,0,0:0:0:0:
437,279,52124,1,0,0:0:0:0:
458,207,52261,6,0,B|270:243|269:243|136:381,1,311.999977452597
131,135,52615,2,0,B|159:21|159:21|29:80,1,233.999983089448
70,143,52870,2,0,B|42:257|42:257|172:198,1,233.999983089448
195,153,53066,1,0,0:0:0:0:
332,223,53302,6,0,B|360:149|360:149|476:199,1,175.499987317086
454,220,53479,2,0,B|426:294|426:294|359:267,1,116.999991544724
390,279,53655,1,0,0:0:0:0:
86,100,54048,6,0,B|153:102|153:102|100:184|100:184|197:185,1,233.999983089448
240,166,54244,1,0,0:0:0:0:
184,287,54382,2,0,P|311:272|317:270,1,116.999991544724
414,266,54559,1,0,0:0:0:0:
414,266,54637,2,0,P|356:276|308:279,1,58.4999957723619
371,168,54716,6,0,L|402:83,1,58.4999957723619
491,53,54833,2,0,L|470:107,1,58.4999957723619
317,164,55265,5,0,0:0:0:0:
260,131,55383,1,0,0:0:0:0:
207,142,55501,1,0,0:0:0:0:
177,206,55658,2,0,L|2:146,1,175.499987317086
177,206,55854,2,0,P|183:296|168:331,1,116.999991544724
128,290,55972,1,0,0:0:0:0:
128,290,56011,1,0,0:0:0:0:
329,304,56208,5,0,0:0:0:0:
357,292,56287,1,0,0:0:0:0:
383,296,56365,1,0,0:0:0:0:
445,287,56483,2,0,P|460:175|444:142,1,116.999991544724
78,36,56738,6,0,B|107:97|107:97|118:143|118:143|98:188|98:188|123:283|123:283|105:363|105:363|141:174|141:174|226:147|226:147|276:91|276:91|206:139|206:139|186:167|186:167|161:200|161:200|192:235|192:235|256:273|256:273|387:402,1,1079.99997138977
370,281,56993,6,0,B|372:168|372:168|380:123|380:123|363:122|363:122|374:68|374:68|417:66|417:66|468:82|468:82|524:67|524:78|522:120|522:120|509:151|509:151|451:162|451:162|416:164|416:164|395:157|395:157|455:202|455:202|494:249|494:249|525:296,1,719.999980926514
107,100,57170,6,0,B|165:110|192:111|192:111|243:110|243:110|266:122|266:122|289:106|289:106|324:99|324:99|232:141|232:141|245:198|245:198|212:264|212:264|234:324|234:324|625:313|625:313|538:-39|538:-39|104:-33|104:-33|-15:173|-15:173|30:334|30:334|490:361|490:361|477:175|477:175|423:235|423:235|377:320|377:320|459:242|459:242|566:340|566:340|419:81|419:81|322:234|322:234|615:153|615:153|367:378|367:378|356:311|356:311|462:244|462:244|529:374|529:374|623:46|623:46|495:320|495:320|475:66|475:66|441:84|441:84|404:290|404:290|366:131|366:131|529:182|529:182|517:64|532:142|532:142|411:294|411:294|244:348|244:348,1,6479.99982833862
385,39,58760,6,0,L|309:49,1,44.9999988079071
303,52,58839,2,0,L|227:62,1,44.9999988079071
151,238,58956,6,0,L|227:248,1,44.9999988079071
233,251,59035,2,0,L|309:261,1,44.9999988079071
512,143,59192,6,0,L|436:153,1,44.9999988079071
430,156,59271,2,0,L|354:166,1,44.9999988079071
355,168,59349,2,0,L|279:178,1,44.9999988079071
54,154,59585,5,0,0:0:0:0:
54,154,59663,2,0,B|129:135|129:135|96:161,1,89.9999976158142
100,223,59820,2,0,B|90:230|90:230|165:211,1,89.9999976158142
336,284,60134,5,0,0:0:0:0:
383,273,60213,2,0,P|445:274|487:285,1,89.9999976158142
370,159,60370,2,0,L|366:379,1,179.999995231628
507,348,60566,2,0,L|510:168,1,179.999995231628
281,78,60763,1,0,0:0:0:0:
266,97,60841,1,0,0:0:0:0:
263,151,60880,6,0,L|74:161,1,179.999995231628
76,250,61234,2,0,L|142:266,1,44.9999988079071
76,250,61312,2,0,L|142:266,1,44.9999988079071
76,250,61391,2,0,L|142:266,1,44.9999988079071
76,250,61470,2,0,L|142:266,1,44.9999988079071
224,284,61548,6,0,P|317:236|408:277,1,179.999995231628
230,156,61862,1,0,0:0:0:0:
230,156,61882,1,0,0:0:0:0:
230,156,61901,1,0,0:0:0:0:
230,156,61941,1,0,0:0:0:0:
230,156,61960,1,0,0:0:0:0:
230,156,61961,1,0,0:0:0:0:
230,156,61980,1,0,0:0:0:0:
230,156,61999,1,0,0:0:0:0:
230,156,62000,1,0,0:0:0:0:
230,156,62019,1,0,0:0:0:0:
230,156,62039,1,0,0:0:0:0:
230,156,62058,1,0,0:0:0:0:
230,156,62059,1,0,0:0:0:0:
230,156,62078,1,0,0:0:0:0:
230,156,62098,1,0,0:0:0:0:
230,156,62117,1,0,0:0:0:0:
230,156,62118,1,0,0:0:0:0:
230,156,62137,1,0,0:0:0:0:
230,156,62176,1,0,0:0:0:0:
230,156,62196,1,0,0:0:0:0:
230,156,62215,1,0,0:0:0:0:
230,156,62294,6,0,P|329:129|371:204,1,179.999995231628
369,180,62490,2,0,P|468:153|510:228,1,179.999995231628
508,204,62726,1,0,0:0:0:0:
508,204,62805,1,0,0:0:0:0:
153,131,63040,5,0,0:0:0:0:
153,131,63119,2,0,P|54:186|-56:185,1,175.499987317086
161,298,63354,1,0,0:0:0:0:
221,249,63433,1,0,0:0:0:0:
301,258,63511,2,0,P|393:273|440:309,1,116.999991544724
298,128,63747,2,0,L|219:148,2,58.4999957723619
69,114,64415,6,0,B|138:86|138:86|194:75|185:197|112:226|112:226|137:315,1,350.999974634172
240,306,65553,5,0,0:0:0:0:
297,255,65632,1,0,0:0:0:0:
367,287,65750,1,0,0:0:0:0:
393,205,65867,2,0,L|540:212,1,116.999991544724
455,32,66103,2,0,L|382:48,1,58.4999957723619
207,138,66731,6,0,B|150:139|150:139|74:97|74:97|220:97,1,233.999983089448
239,68,66967,1,0,0:0:0:0:
118,215,67085,2,0,L|282:209,1,116.999991544724
351,206,67202,2,0,L|234:210,1,116.999991544724
207,317,67674,2,0,B|170:75|170:75|139:237|139:237|126:283|125:282|275:107|278:106|77:117|77:117|270:234|271:240|245:74|242:67|130:197|132:201|205:158|205:158|152:222|152:222|246:196|246:196|207:237|207:237|244:217|244:217|206:134|206:134|221:243|221:243|206:134,1,1637.99988162613
207,317,68773,5,0,0:0:0:0:
273,292,68891,1,0,0:0:0:0:
348,266,69009,1,0,0:0:0:0:
455,115,69166,2,0,L|357:168,1,58.4999957723619
319,181,69716,6,0,P|224:104|204:326,1,467.999966178896
203,228,70187,1,0,0:0:0:0:
203,228,70344,2,0,B|342:205|342:205|430:285|430:285|474:307|474:307|548:132,3,467.999966178896
309,156,71600,2,0,B|170:179|170:179|81:98|81:98|38:77|38:77|-36:252,3,467.999966178896
427,71,72857,5,0,0:0:0:0:
256,192,72935,12,0,77569,0:0:0:0:
285,167,77628,6,0,L|295:200,77,29.249997886181
192,126,79297,5,0,0:0:0:0:
165,119,79336,1,0,0:0:0:0:
138,120,79375,1,0,0:0:0:0:
112,127,79414,1,0,0:0:0:0:
89,140,79454,1,0,0:0:0:0:
70,159,79493,1,0,0:0:0:0:
55,182,79532,1,0,0:0:0:0:
55,182,79572,5,0,0:0:0:0:
70,159,79611,1,0,0:0:0:0:
89,140,79650,1,0,0:0:0:0:
112,127,79690,1,0,0:0:0:0:
138,120,79729,1,0,0:0:0:0:
165,119,79768,1,0,0:0:0:0:
192,126,79807,1,0,0:0:0:0:
55,182,79846,5,0,0:0:0:0:
70,159,79885,1,0,0:0:0:0:
185,169,79925,6,0,L|380:197,1,188.999989225388
32,0,80239,6,0,L|63:-364,1,350.999974634172
