osu file format v14

[General]
AudioFilename: audio.mp3
AudioLeadIn: 0
PreviewTime: 56679
Countdown: 0
SampleSet: Soft
StackLeniency: 0.4
Mode: 0
LetterboxInBreaks: 0
WidescreenStoryboard: 0

[Editor]
Bookmarks: 75203,80224
DistanceSpacing: 0.3
BeatDivisor: 4
GridSize: 32
TimelineZoom: 1

[Metadata]
Title:ADAMAS [Trailer Size]
TitleUnicode:ADAMAS [Trailer Size]
Artist:LiSA
ArtistUnicode:LiSA
Creator:Ohwow
Version:It's a trailer LOL
Source:
Tags:sword art online 3 alicization trailer monstrata
BeatmapID:1774391
BeatmapSetID:848539

[Difficulty]
HPDrainRate:5
CircleSize:4
OverallDifficulty:9.4
ApproachRate:9.4
SliderMultiplier:2
SliderTickRate:1

[Events]
//Background and Video events
0,0,"bg.jpg",0,0
//Break Periods
//Storyboard Layer 0 (Background)
//Storyboard Layer 1 (Fail)
//Storyboard Layer 2 (Pass)
//Storyboard Layer 3 (Foreground)
//Storyboard Sound Samples

[TimingPoints]
46470,314.13612565445,4,2,1,50,1,0
47569,-76.9230769230769,4,2,1,50,0,1
56679,-100,4,2,1,50,0,1
56915,-100,4,2,1,5,0,1
56993,-71.4285714285714,4,2,1,50,0,1
57229,-71.4285714285714,4,2,1,5,0,1
57307,-55.5555555555556,4,2,1,50,0,1
57543,-55.5555555555556,4,2,1,5,0,1
57621,-76.9230769230769,4,2,1,50,0,1
62805,-76.9230769230769,4,2,1,50,0,0
67674,-76.9230769230769,4,2,1,50,0,1
79140,-166.666666666667,4,2,1,50,0,1
79768,-100,4,2,1,50,0,1
79925,-166.666666666667,4,2,1,50,0,1
80239,-76.9230769230769,4,2,1,50,0,0

[Colours]
Combo1 : 255,203,21
Combo2 : 65,62,102
Combo3 : 231,141,99
Combo4 : 71,196,243

[HitObjects]
355,137,47569,6,0,B|406:106|406:106|439:262,1,194.999991073609,6|0,3:2|0:0,0:0:0:0:
452,321,47883,1,0,3:0:0:0:
272,104,48040,1,10,0:0:0:0:
498,177,48197,1,2,0:0:0:0:
309,355,48354,2,0,P|317:290|340:230,1,129.999994049073,2|0,3:2|3:0,0:0:0:0:
159,17,48668,2,0,P|182:77|190:141,1,129.999994049073,8|0,0:0|0:0,0:0:0:0:
388,384,48983,5,2,3:2:0:0:
187,308,49140,1,0,3:0:0:0:
382,130,49297,1,10,0:0:0:0:
314,296,49454,2,0,P|220:267|124:257,1,194.999991073609,2|0,3:2|0:0,0:0:0:0:
42,280,49768,1,0,3:0:0:0:
259,369,49925,1,8,0:0:0:0:
206,135,50082,1,0,3:0:0:0:
202,121,50161,1,0,3:0:0:0:
199,108,50239,5,2,3:2:0:0:
125,257,50396,1,2,3:2:0:0:
313,182,50553,1,10,0:2:0:0:
103,93,50710,1,2,0:2:0:0:
326,1,50867,1,2,3:2:0:0:
235,211,51024,1,2,3:2:0:0:
81,0,51182,2,0,P|11:62|27:154,1,194.999991073609,8|0,0:0|0:0,0:0:0:0:
151,193,51496,6,0,L|23:173,1,129.999994049073,2|0,3:2|3:0,0:0:0:0:
205,384,51810,2,0,L|333:363,1,129.999994049073,10|0,0:2|0:0,0:0:0:0:
439,240,52124,1,2,3:2:0:0:
151,193,52281,1,0,3:0:0:0:
415,51,52438,2,0,P|407:115|385:176,1,129.999994049073,10|0,0:0|0:0,0:0:0:0:
370,288,52674,1,8,0:0:0:0:
363,269,52752,6,0,P|315:228|251:218,1,129.999994049073,2|0,3:2|3:0,0:0:0:0:
29,384,53066,2,0,P|92:374|141:332,1,129.999994049073,10|0,0:0|0:0,0:0:0:0:
78,137,53380,1,2,3:2:0:0:
278,314,53538,1,0,3:0:0:0:
54,286,53695,1,10,0:0:0:0:
327,183,53852,1,2,0:0:0:0:
44,22,54009,6,0,P|108:51|199:144,1,194.999991073609,2|0,3:2|0:0,0:0:0:0:
230,219,54323,2,0,P|248:134|274:79,1,129.999994049073,8|0,0:0|0:0,0:0:0:0:
452,67,54637,1,2,3:2:0:0:
327,183,54794,1,2,3:2:0:0:
209,11,54951,1,8,0:0:0:0:
16,308,55108,6,0,B|41:277|41:277|142:260|142:260|176:299,1,194.999991073609,4|0,3:2|0:0,0:0:0:0:
179,384,55422,2,0,P|210:377|236:359,3,64.9999970245363,0|0|0|0,3:0|3:0|3:0|3:0,3:0:0:0:
256,268,55737,5,8,0:0:0:0:
293,250,55815,1,8,0:0:0:0:
333,249,55894,1,8,0:0:0:0:
371,264,55972,1,8,0:0:0:0:
399,293,56051,5,0,3:0:0:0:
392,220,56129,1,0,3:0:0:0:
409,149,56208,1,8,0:0:0:0:
446,86,56286,1,8,0:0:0:0:
501,39,56365,5,0,3:0:0:0:
501,38,56679,6,0,P|433:67|359:62,1,150,2|0,3:2|0:0,0:0:0:0:
320,312,56993,6,0,P|331:209|433:160,1,209.999993591309,2|0,3:2|0:0,0:0:0:0:
119,51,57307,6,0,P|240:32|271:151,1,269.999991760254,10|0,0:0|0:0,0:0:0:0:
223,235,57621,6,0,B|56:217|56:217|144:191,1,259.999988098145,6|0,3:2|3:0,0:0:0:0:
315,233,58093,2,0,P|348:288|362:351,1,129.999994049073,8|0,0:0|0:0,0:0:0:0:
70,128,58407,1,2,3:2:0:0:
263,325,58564,1,0,3:0:0:0:
216,153,58721,1,10,0:0:0:0:
134,350,58878,1,2,3:2:0:0:
128,361,58956,1,0,3:0:0:0:
123,373,59035,5,0,3:0:0:0:
240,239,59192,1,2,3:2:0:0:
377,364,59349,2,0,L|503:333,1,129.999994049073,8|0,0:0|0:0,0:0:0:0:
429,121,59663,1,2,3:2:0:0:
334,269,59820,1,2,3:2:0:0:
512,155,59977,1,10,0:0:0:0:
226,34,60134,6,0,P|255:92|274:154,1,129.999994049073,2|0,0:0|3:0,0:0:0:0:
397,341,60449,1,2,3:2:0:0:
169,317,60606,1,8,0:0:0:0:
454,257,60763,2,0,P|489:296|484:392,1,129.999994049073,2|0,0:2|3:0,0:0:0:0:
217,238,61077,2,0,P|182:199|187:103,1,129.999994049073,2|8,0:2|0:0,0:0:0:0:
360,141,61391,1,2,0:0:0:0:
284,319,61548,5,0,3:0:0:0:
262,330,61626,1,0,3:0:0:0:
238,336,61705,1,0,3:0:0:0:
214,337,61783,1,0,3:0:0:0:
190,334,61862,1,0,3:0:0:0:
168,325,61940,1,0,3:0:0:0:
147,311,62019,1,0,3:0:0:0:
131,293,62097,1,0,3:0:0:0:
118,272,62176,5,0,3:0:0:0:
153,287,62254,1,0,3:0:0:0:
191,291,62333,1,0,3:0:0:0:
229,283,62411,1,0,3:0:0:0:
262,263,62490,1,0,3:0:0:0:
301,238,62570,1,0,3:0:0:0:
351,226,62648,1,0,3:0:0:0:
418,236,62727,1,0,3:0:0:0:
483,277,62805,5,2,3:2:0:0:
397,46,62962,1,0,3:0:0:0:
512,158,63119,1,0,3:0:0:0:
185,184,63276,5,10,0:0:0:0:
347,118,63433,1,0,0:0:0:0:
303,341,63590,1,0,0:0:0:0:
54,113,63747,5,10,0:0:0:0:
281,239,63904,1,0,3:0:0:0:
75,358,64061,1,0,3:0:0:0:
152,93,64218,5,10,0:0:0:0:
222,309,64375,1,0,3:0:0:0:
380,117,64532,1,0,3:0:0:0:
123,176,64689,5,10,0:0:0:0:
451,229,64846,1,0,3:0:0:0:
137,280,65004,5,10,0:0:0:0:
469,140,65161,1,0,0:0:0:0:
151,384,65318,5,2,3:2:0:0:
217,156,65475,1,0,3:0:0:0:
51,245,65632,1,0,3:0:0:0:
362,230,65789,5,10,0:0:0:0:
139,119,65946,1,0,3:0:0:0:
128,113,66024,1,0,3:0:0:0:
117,107,66103,1,0,3:0:0:0:
219,282,66260,1,8,0:0:0:0:
287,67,66417,5,2,3:2:0:0:
305,51,66495,1,0,3:0:0:0:
326,39,66574,1,8,0:0:0:0:
350,32,66652,1,8,0:0:0:0:
374,30,66732,5,2,3:2:0:0:
327,55,66810,1,0,3:0:0:0:
311,106,66889,1,8,0:3:0:0:
333,154,66967,1,8,0:3:0:0:
382,173,67046,1,0,3:0:0:0:
432,155,67124,1,0,3:0:0:0:
455,107,67202,6,0,P|481:88|512:78,1,64.9999970245363,2|0,3:2|3:0,0:0:0:0:
417,256,67360,2,0,P|446:269|470:290,1,64.9999970245363,2|0,3:2|3:0,0:0:0:0:
268,297,67517,2,0,P|271:329|264:360,1,64.9999970245363,10|0,0:0|3:0,0:0:0:0:
10,15,67674,6,0,B|56:65|56:65|22:140|22:140|38:180,1,194.999991073609,4|0,3:2|0:0,0:0:0:0:
76,257,67988,1,0,3:0:0:0:
266,94,68145,2,0,L|137:75,1,129.999994049073,8|0,0:0|0:0,0:0:0:0:
45,339,68459,1,0,3:0:0:0:
192,163,68616,1,0,3:0:0:0:
338,321,68773,2,0,L|467:302,1,129.999994049073,8|0,0:0|0:0,0:0:0:0:
320,26,69087,6,0,P|297:116|367:176,1,194.999991073609,0|0,3:0|0:0,0:0:0:0:
447,149,69401,2,0,P|469:86|443:25,1,129.999994049073,8|0,0:0|0:0,0:0:0:0:
287,242,69716,1,0,3:0:0:0:
512,208,69873,1,0,3:0:0:0:
380,90,70030,1,8,0:0:0:0:
488,336,70187,1,8,0:0:0:0:
185,306,70344,6,0,B|137:266|137:266|268:246,1,194.999991073609,0|0,3:0|0:0,0:0:0:0:
358,192,70658,2,0,B|338:320,1,129.999994049073,8|0,0:0|0:0,0:0:0:0:
188,173,70972,1,0,3:0:0:0:
72,318,71129,1,0,3:0:0:0:
0,58,71286,2,0,P|64:66|123:92,1,129.999994049073,8|0,0:0|0:0,0:0:0:0:
330,309,71600,6,0,P|277:384|187:364,1,194.999991073609,0|0,3:0|0:0,0:0:0:0:
155,284,71915,2,0,L|183:140,1,129.999994049073,8|0,0:0|0:0,0:0:0:0:
450,267,72229,1,0,3:0:0:0:
245,291,72386,1,0,3:0:0:0:
457,82,72543,1,8,0:0:0:0:
378,384,72700,6,0,P|355:289|342:192,1,194.999991073609,4|0,3:2|0:0,0:0:0:0:
349,107,73014,1,0,3:0:0:0:
121,251,73171,2,0,P|184:266|244:290,1,129.999994049073,8|0,0:0|0:0,0:0:0:0:
472,68,73485,2,0,P|412:91|349:107,1,129.999994049073,0|0,3:0|0:0,0:0:0:0:
33,34,73799,2,0,P|103:32|127:163,1,194.999991073609,8|0,0:0|0:0,0:0:0:0:
121,251,74113,5,8,0:0:0:0:
155,216,74191,1,8,0:0:0:0:
199,198,74270,1,0,3:0:0:0:
248,198,74348,1,0,3:0:0:0:
292,217,74428,5,0,3:3:0:0:
305,233,74506,1,0,3:3:0:0:
323,246,74585,1,0,3:3:0:0:
342,255,74663,1,0,3:3:0:0:
363,260,74742,1,0,3:0:0:0:
385,260,74820,1,0,3:0:0:0:
406,254,74899,2,0,B|438:210|438:210|480:368,1,194.999991073609,8|0,0:0|0:0,0:0:0:0:
377,355,75213,6,0,P|282:329|185:325,1,194.999991073609,4|0,3:2|0:0,0:0:0:0:
103,345,75527,1,0,0:0:0:0:
111,28,75684,5,10,0:2:0:0:
306,244,75841,1,2,0:2:0:0:
23,175,75998,5,2,3:2:0:0:
393,96,76155,1,2,0:2:0:0:
202,153,76312,5,8,0:0:0:0:
214,118,76469,1,0,0:0:0:0:
496,186,76627,5,2,3:2:0:0:
126,265,76784,1,2,0:2:0:0:
409,334,76941,5,10,0:2:0:0:
214,118,77098,1,2,0:2:0:0:
124,355,77255,6,0,P|155:349|183:333,1,64.9999970245363,2|0,3:2|0:0,0:0:0:0:
49,219,77412,2,0,P|37:249|37:281,1,64.9999970245363,2|0,0:0|0:0,0:0:0:0:
204,221,77569,2,0,P|183:196|155:179,1,64.9999970245363,10|0,0:0|0:0,0:0:0:0:
0,101,77726,5,0,3:0:0:0:
29,114,77804,1,0,3:0:0:0:
61,118,77883,1,0,3:0:0:0:
93,113,77961,1,0,3:0:0:0:
123,100,78040,1,0,3:0:0:0:
147,79,78118,1,0,3:0:0:0:
170,56,78197,1,8,3:2:0:0:
201,47,78275,1,0,3:0:0:0:
232,54,78354,1,0,3:0:0:0:
256,75,78432,1,0,3:0:0:0:
264,106,78511,5,8,3:2:0:0:
267,169,78589,1,0,3:0:0:0:
307,219,78668,1,0,3:0:0:0:
369,234,78746,1,0,3:0:0:0:
428,207,78825,1,8,3:2:0:0:
458,150,78903,1,0,3:0:0:0:
449,89,78982,1,0,3:0:0:0:
403,44,79060,1,0,3:0:0:0:
339,37,79140,6,0,L|362:148,1,89.9999972534181,8|0,1:2|0:0,0:0:0:0:
453,173,79454,1,0,3:0:0:0:
448,195,79532,1,0,3:0:0:0:
443,217,79611,1,0,3:0:0:0:
439,239,79689,1,0,3:0:0:0:
434,261,79768,2,0,L|351:243,1,50,2|0,0:0|0:0,0:0:0:0:
262,348,79925,6,0,L|349:328,1,89.9999972534181,2|0,0:0|0:0,0:0:0:0:
183,199,80239,5,4,3:2:0:0:
