osu file format v14

[General]
AudioFilename: audio.mp3
AudioLeadIn: 0
PreviewTime: 97241
Countdown: 0
SampleSet: Normal
StackLeniency: 0.7
Mode: 1
LetterboxInBreaks: 0
EpilepsyWarning: 1
WidescreenStoryboard: 1

[Editor]
Bookmarks: 4692,29790,54888,79986,100378,112535,112927,125084,125476,137633,138025,149005,150574,175547
DistanceSpacing: 1
BeatDivisor: 4
GridSize: 32
TimelineZoom: 2.2

[Metadata]
Title:Jue
TitleUnicode:觉
Artist:LiLA'c Records
ArtistUnicode:LiLA'c Records
Creator:eiri-
Version:Muzukashii
Source:東方心綺楼 ~ Hopeless Masquerade.
Tags:東方Project Ayyri MaridiuS Yales Hollow Wings HW val0108 0108 Seto Kousuke Garven Yugu Ami Lazer Boushitsu no Emotion The Lost Emotion 亡失のエモーション Hata no Kokoro 秦心 Touhou Consciousness Heart Fabric Tower Team Shanghai Alice ZUN Twilight Frontier Comiket 86 C86 TOHO SPEED 02 LLAC-0019 Irus Elegant Shinkirou Tasfro HM TH13.5 TH 13.5
BeatmapID:1677432
BeatmapSetID:798842

[Difficulty]
HPDrainRate:5
CircleSize:2
OverallDifficulty:5
ApproachRate:10
SliderMultiplier:1.4
SliderTickRate:1

[Events]
//Background and Video events
0,0,"onibg.jpg",0,0
//Break Periods
//Storyboard Layer 0 (Background)
//Storyboard Layer 1 (Fail)
//Storyboard Layer 2 (Pass)
//Storyboard Layer 3 (Foreground)
//Storyboard Sound Samples

[TimingPoints]
4692,392.156862745098,4,1,0,80,1,0
100378,-100,4,1,0,90,0,1
112535,-100,4,1,0,90,0,0
112927,-100,4,1,0,90,0,1
125084,-100,4,1,0,90,0,0
125476,-100,4,1,0,100,0,1
137633,-100,4,1,0,100,0,0
138025,-100,4,1,0,100,0,1
149005,-100,4,1,0,80,0,0
150574,-100,4,1,0,100,0,0
151162,-100,4,1,0,80,0,0
174914,422.535211267606,4,1,0,80,1,8

[HitObjects]
256,192,29790,5,12,0:0:0:0:
256,192,31162,1,0,0:0:0:0:
256,192,31260,1,0,0:0:0:0:
256,192,31358,1,0,0:0:0:0:
256,192,32339,1,0,0:0:0:0:
256,192,32535,1,8,0:0:0:0:
256,192,32927,1,0,0:0:0:0:
256,192,33711,1,0,0:0:0:0:
256,192,34005,1,8,0:0:0:0:
256,192,34299,1,0,0:0:0:0:
256,192,34495,1,8,0:0:0:0:
256,192,35084,1,0,0:0:0:0:
256,192,35280,1,8,0:0:0:0:
256,192,36064,1,8,0:0:0:0:
256,192,36652,1,0,0:0:0:0:
256,192,36848,1,8,0:0:0:0:
256,192,37142,1,8,0:0:0:0:
256,192,37437,1,0,0:0:0:0:
256,192,37633,1,0,0:0:0:0:
256,192,37927,1,8,0:0:0:0:
256,192,38417,1,0,0:0:0:0:
256,192,39201,1,8,0:0:0:0:
256,192,40280,1,8,0:0:0:0:
256,192,40574,1,8,0:0:0:0:
256,192,40770,1,0,0:0:0:0:
256,192,41064,1,8,0:0:0:0:
256,192,41358,1,0,0:0:0:0:
256,192,41554,1,8,0:0:0:0:
256,192,42339,1,8,0:0:0:0:
256,192,43711,1,0,0:0:0:0:
256,192,43809,1,0,0:0:0:0:
256,192,43907,1,0,0:0:0:0:
256,192,44888,1,0,0:0:0:0:
256,192,45084,1,8,0:0:0:0:
256,192,45476,1,0,0:0:0:0:
256,192,46260,1,0,0:0:0:0:
256,192,46554,1,8,0:0:0:0:
256,192,46848,1,0,0:0:0:0:
256,192,47044,1,8,0:0:0:0:
256,192,47633,1,0,0:0:0:0:
256,192,47829,1,8,0:0:0:0:
256,192,48613,1,8,0:0:0:0:
256,192,48907,1,8,0:0:0:0:
256,192,49201,1,0,0:0:0:0:
256,192,49397,1,8,0:0:0:0:
256,192,49986,1,0,0:0:0:0:
256,192,50182,1,0,0:0:0:0:
256,192,50476,1,8,0:0:0:0:
256,192,50770,1,0,0:0:0:0:
256,192,50966,1,8,0:0:0:0:
256,192,51750,1,0,0:0:0:0:
256,192,52829,1,8,0:0:0:0:
256,192,53123,1,8,0:0:0:0:
256,192,53319,1,0,0:0:0:0:
256,192,53907,1,0,0:0:0:0:
256,192,54103,1,8,0:0:0:0:
256,192,54495,1,12,0:0:0:0:
256,192,54888,1,4,0:0:0:0:
256,192,55476,1,0,0:0:0:0:
256,192,55672,1,8,0:0:0:0:
256,192,56456,1,0,0:0:0:0:
256,192,56848,1,8,0:0:0:0:
256,192,57241,1,0,0:0:0:0:
256,192,57633,1,0,0:0:0:0:
256,192,57829,1,0,0:0:0:0:
256,192,58025,1,8,0:0:0:0:
256,192,58613,1,8,0:0:0:0:
256,192,58809,1,0,0:0:0:0:
256,192,59201,1,0,0:0:0:0:
256,192,59593,1,8,0:0:0:0:
256,192,59986,1,8,0:0:0:0:
256,192,60574,1,0,0:0:0:0:
256,192,60770,1,8,0:0:0:0:
256,192,60966,1,0,0:0:0:0:
256,192,61162,1,8,0:0:0:0:
256,192,61554,1,0,0:0:0:0:
256,192,61750,1,0,0:0:0:0:
256,192,61946,1,8,0:0:0:0:
256,192,62339,1,8,0:0:0:0:
256,192,62731,1,0,0:0:0:0:
256,192,63123,1,0,0:0:0:0:
256,192,63417,1,8,0:0:0:0:
256,192,63907,1,8,0:0:0:0:
256,192,64103,1,8,0:0:0:0:
256,192,64299,1,0,0:0:0:0:
256,192,64691,1,0,0:0:0:0:
256,192,64986,1,0,0:0:0:0:
256,192,65280,1,0,0:0:0:0:
256,192,65476,1,0,0:0:0:0:
256,192,65672,1,8,0:0:0:0:
256,192,65966,1,0,0:0:0:0:
256,192,66260,1,8,0:0:0:0:
256,192,67044,1,0,0:0:0:0:
256,192,67437,1,0,0:0:0:0:
256,192,67535,1,0,0:0:0:0:
256,192,67829,1,0,0:0:0:0:
256,192,68123,1,0,0:0:0:0:
256,192,68417,1,0,0:0:0:0:
256,192,68613,1,8,0:0:0:0:
256,192,69005,1,0,0:0:0:0:
256,192,69692,1,8,0:0:0:0:
256,192,69986,1,0,0:0:0:0:
256,192,70182,1,8,0:0:0:0:
256,192,70378,1,8,0:0:0:0:
256,192,70574,1,0,0:0:0:0:
256,192,70966,1,0,0:0:0:0:
256,192,71260,1,0,0:0:0:0:
256,192,71750,1,0,0:0:0:0:
256,192,71946,1,8,0:0:0:0:
256,192,72142,1,0,0:0:0:0:
256,192,72535,1,0,0:0:0:0:
256,192,72829,1,8,0:0:0:0:
256,192,73319,1,0,0:0:0:0:
256,192,73515,1,8,0:0:0:0:
256,192,73711,1,0,0:0:0:0:
256,192,73809,1,0,0:0:0:0:
256,192,74103,1,0,0:0:0:0:
256,192,74299,1,8,0:0:0:0:
256,192,74495,1,0,0:0:0:0:
256,192,74888,1,8,0:0:0:0:
256,192,75280,1,0,0:0:0:0:
256,192,75672,1,8,0:0:0:0:
256,192,76260,1,0,0:0:0:0:
256,192,76456,1,8,0:0:0:0:
256,192,76652,1,8,0:0:0:0:
256,192,76848,1,0,0:0:0:0:
256,192,77241,1,0,0:0:0:0:
256,192,77535,1,0,0:0:0:0:
256,192,77829,1,8,0:0:0:0:
256,192,78025,1,0,0:0:0:0:
256,192,78221,1,8,0:0:0:0:
256,192,78515,1,0,0:0:0:0:
256,192,78809,1,0,0:0:0:0:
256,192,79005,1,8,0:0:0:0:
256,192,79103,1,8,0:0:0:0:
256,192,79299,1,8,0:0:0:0:
256,192,79593,1,0,0:0:0:0:
256,192,80084,1,12,0:0:0:0:
256,192,80378,1,0,0:0:0:0:
256,192,81162,1,0,0:0:0:0:
256,192,81358,1,0,0:0:0:0:
256,192,81652,1,12,0:0:0:0:
256,192,81946,1,0,0:0:0:0:
256,192,82731,1,0,0:0:0:0:
256,192,82927,1,0,0:0:0:0:
256,192,83221,1,12,0:0:0:0:
256,192,83515,1,0,0:0:0:0:
256,192,84299,1,0,0:0:0:0:
256,192,84495,1,0,0:0:0:0:
256,192,84790,1,12,0:0:0:0:
256,192,85084,1,0,0:0:0:0:
256,192,85868,1,0,0:0:0:0:
256,192,86064,1,0,0:0:0:0:
256,192,86358,1,12,0:0:0:0:
256,192,86652,1,8,0:0:0:0:
256,192,86848,1,0,0:0:0:0:
256,192,87142,1,12,0:0:0:0:
256,192,87437,1,8,0:0:0:0:
256,192,87633,1,0,0:0:0:0:
256,192,87927,1,12,0:0:0:0:
256,192,88221,1,8,0:0:0:0:
256,192,88417,1,0,0:0:0:0:
256,192,88711,1,12,0:0:0:0:
256,192,89005,1,8,0:0:0:0:
256,192,89201,1,0,0:0:0:0:
256,192,89397,1,12,0:0:0:0:
256,192,89986,1,0,0:0:0:0:
256,192,90084,1,0,0:0:0:0:
256,192,90182,1,0,0:0:0:0:
256,192,90574,1,8,0:0:0:0:
256,192,90770,1,0,0:0:0:0:
256,192,90868,1,0,0:0:0:0:
256,192,90966,1,0,0:0:0:0:
256,192,91554,1,0,0:0:0:0:
256,192,91652,1,0,0:0:0:0:
256,192,91750,1,0,0:0:0:0:
256,192,92142,1,8,0:0:0:0:
256,192,92339,1,0,0:0:0:0:
256,192,92437,1,0,0:0:0:0:
256,192,92535,1,0,0:0:0:0:
256,192,92731,1,0,0:0:0:0:
256,192,92927,1,8,0:0:0:0:
256,192,93319,1,8,0:0:0:0:
256,192,93711,1,8,0:0:0:0:
256,192,93907,1,0,0:0:0:0:
256,192,94103,1,8,0:0:0:0:
256,192,94495,1,8,0:0:0:0:
256,192,94692,1,0,0:0:0:0:
256,192,94888,1,8,0:0:0:0:
256,192,95084,1,0,0:0:0:0:
256,192,95280,1,8,0:0:0:0:
256,192,95672,1,8,0:0:0:0:
256,192,95770,1,8,0:0:0:0:
256,192,95868,1,8,0:0:0:0:
256,192,96064,1,0,0:0:0:0:
256,192,96260,1,8,0:0:0:0:
256,192,96456,1,0,0:0:0:0:
256,192,96554,1,0,0:0:0:0:
256,192,96652,1,0,0:0:0:0:
256,192,96848,1,8,0:0:0:0:
256,192,97044,1,8,0:0:0:0:
256,192,98809,1,8,0:0:0:0:
256,192,98907,1,8,0:0:0:0:
256,192,99005,1,8,0:0:0:0:
256,192,99201,1,0,0:0:0:0:
256,192,99397,1,8,0:0:0:0:
256,192,99593,1,0,0:0:0:0:
256,192,99692,1,0,0:0:0:0:
256,192,99790,1,0,0:0:0:0:
256,192,99986,1,8,0:0:0:0:
256,192,100182,1,0,0:0:0:0:
256,192,100378,1,12,0:0:0:0:
256,192,100770,1,0,0:0:0:0:
256,192,101064,1,0,0:0:0:0:
256,192,101162,1,0,0:0:0:0:
256,192,101358,1,0,0:0:0:0:
256,192,101554,1,8,0:0:0:0:
256,192,101946,1,0,0:0:0:0:
256,192,102044,1,0,0:0:0:0:
256,192,102339,1,8,0:0:0:0:
256,192,102633,1,0,0:0:0:0:
256,192,102829,1,0,0:0:0:0:
256,192,102927,1,0,0:0:0:0:
256,192,103123,1,8,0:0:0:0:
256,192,103319,1,0,0:0:0:0:
256,192,103515,1,8,0:0:0:0:
256,192,103907,1,0,0:0:0:0:
256,192,104201,1,0,0:0:0:0:
256,192,104397,1,0,0:0:0:0:
256,192,104495,1,0,0:0:0:0:
256,192,104691,1,8,0:0:0:0:
256,192,104888,1,0,0:0:0:0:
256,192,105084,1,8,0:0:0:0:
256,192,105476,1,0,0:0:0:0:
256,192,105770,1,0,0:0:0:0:
256,192,106064,1,0,0:0:0:0:
256,192,106260,1,8,0:0:0:0:
256,192,106652,1,8,0:0:0:0:
256,192,107241,1,8,0:0:0:0:
256,192,107437,1,0,0:0:0:0:
256,192,107829,1,0,0:0:0:0:
256,192,108025,1,0,0:0:0:0:
256,192,108221,1,8,0:0:0:0:
256,192,108319,1,8,0:0:0:0:
256,192,108613,1,0,0:0:0:0:
256,192,108907,1,0,0:0:0:0:
256,192,109103,1,0,0:0:0:0:
256,192,109201,1,0,0:0:0:0:
256,192,109397,1,8,0:0:0:0:
256,192,109593,1,0,0:0:0:0:
256,192,109790,1,8,0:0:0:0:
256,192,109888,1,8,0:0:0:0:
256,192,110182,1,0,0:0:0:0:
256,192,110476,1,0,0:0:0:0:
256,192,110770,1,0,0:0:0:0:
256,192,110966,1,8,0:0:0:0:
256,192,111162,1,0,0:0:0:0:
256,192,111554,1,8,0:0:0:0:
256,192,111750,1,8,0:0:0:0:
256,192,112535,1,8,0:0:0:0:
256,192,112731,1,0,0:0:0:0:
256,192,112927,1,12,0:0:0:0:
256,192,113319,1,0,0:0:0:0:
256,192,113613,1,0,0:0:0:0:
256,192,113711,1,0,0:0:0:0:
256,192,113907,1,0,0:0:0:0:
256,192,114103,1,8,0:0:0:0:
256,192,114495,1,0,0:0:0:0:
256,192,114593,1,0,0:0:0:0:
256,192,114888,1,8,0:0:0:0:
256,192,115182,1,0,0:0:0:0:
256,192,115378,1,0,0:0:0:0:
256,192,115476,1,0,0:0:0:0:
256,192,115672,1,8,0:0:0:0:
256,192,115868,1,0,0:0:0:0:
256,192,116064,1,8,0:0:0:0:
256,192,116456,1,0,0:0:0:0:
256,192,116750,1,0,0:0:0:0:
256,192,117044,1,0,0:0:0:0:
256,192,117241,1,8,0:0:0:0:
256,192,117633,1,0,0:0:0:0:
256,192,118025,1,8,0:0:0:0:
256,192,118613,1,0,0:0:0:0:
256,192,118809,1,8,0:0:0:0:
256,192,119005,1,0,0:0:0:0:
256,192,119201,1,8,0:0:0:0:
256,192,119299,1,8,0:0:0:0:
256,192,119593,1,0,0:0:0:0:
256,192,119790,1,8,0:0:0:0:
256,192,119986,1,0,0:0:0:0:
256,192,120378,1,0,0:0:0:0:
256,192,120574,1,0,0:0:0:0:
256,192,120770,1,8,0:0:0:0:
256,192,120868,1,8,0:0:0:0:
256,192,121162,1,0,0:0:0:0:
256,192,121456,1,0,0:0:0:0:
256,192,121652,1,0,0:0:0:0:
256,192,121750,1,0,0:0:0:0:
256,192,121946,1,8,0:0:0:0:
256,192,122142,1,0,0:0:0:0:
256,192,122339,1,8,0:0:0:0:
256,192,122437,1,8,0:0:0:0:
256,192,122731,1,0,0:0:0:0:
256,192,123025,1,0,0:0:0:0:
256,192,123319,1,0,0:0:0:0:
256,192,123515,1,8,0:0:0:0:
256,192,123711,1,0,0:0:0:0:
256,192,123809,1,0,0:0:0:0:
256,192,124103,1,8,0:0:0:0:
256,192,124299,1,8,0:0:0:0:
256,192,125084,1,8,0:0:0:0:
256,192,125280,1,0,0:0:0:0:
256,192,125476,1,12,0:0:0:0:
256,192,125868,1,0,0:0:0:0:
256,192,126064,1,8,0:0:0:0:
256,192,126456,1,8,0:0:0:0:
256,192,126652,1,0,0:0:0:0:
256,192,126750,1,0,0:0:0:0:
256,192,126848,1,0,0:0:0:0:
256,192,127044,1,8,0:0:0:0:
256,192,127437,1,8,0:0:0:0:
256,192,127829,1,0,0:0:0:0:
256,192,128221,1,8,0:0:0:0:
256,192,128417,1,0,0:0:0:0:
256,192,128613,1,8,0:0:0:0:
256,192,128711,1,8,0:0:0:0:
256,192,128809,1,8,0:0:0:0:
256,192,129005,1,0,0:0:0:0:
256,192,129201,1,8,0:0:0:0:
256,192,129790,1,0,0:0:0:0:
256,192,129986,1,0,0:0:0:0:
256,192,130182,1,8,0:0:0:0:
256,192,130574,1,0,0:0:0:0:
256,192,130966,1,0,0:0:0:0:
256,192,131162,1,8,0:0:0:0:
256,192,131358,1,0,0:0:0:0:
256,192,131750,1,8,0:0:0:0:
256,192,131848,1,8,0:0:0:0:
256,192,131946,1,8,0:0:0:0:
256,192,132142,1,0,0:0:0:0:
256,192,132339,1,8,0:0:0:0:
256,192,132535,1,0,0:0:0:0:
256,192,132927,1,0,0:0:0:0:
256,192,133025,1,0,0:0:0:0:
256,192,133123,1,0,0:0:0:0:
256,192,133319,1,8,0:0:0:0:
256,192,133711,1,8,0:0:0:0:
256,192,134103,1,0,0:0:0:0:
256,192,134495,1,8,0:0:0:0:
256,192,134692,1,0,0:0:0:0:
256,192,134888,1,8,0:0:0:0:
256,192,134986,1,8,0:0:0:0:
256,192,135084,1,8,0:0:0:0:
256,192,135280,1,0,0:0:0:0:
256,192,135476,1,8,0:0:0:0:
256,192,136064,1,8,0:0:0:0:
256,192,136260,1,0,0:0:0:0:
256,192,136652,1,8,0:0:0:0:
256,192,136848,1,8,0:0:0:0:
256,192,137633,1,8,0:0:0:0:
256,192,137829,1,0,0:0:0:0:
256,192,138025,1,12,0:0:0:0:
256,192,138417,1,0,0:0:0:0:
256,192,138613,1,8,0:0:0:0:
256,192,139005,1,8,0:0:0:0:
256,192,139201,1,0,0:0:0:0:
256,192,139299,1,0,0:0:0:0:
256,192,139397,1,0,0:0:0:0:
256,192,139593,1,8,0:0:0:0:
256,192,139986,1,8,0:0:0:0:
256,192,140378,1,0,0:0:0:0:
256,192,140770,1,8,0:0:0:0:
256,192,140966,1,0,0:0:0:0:
256,192,141162,1,8,0:0:0:0:
256,192,141260,1,8,0:0:0:0:
256,192,141358,1,8,0:0:0:0:
256,192,141554,1,0,0:0:0:0:
256,192,141750,1,8,0:0:0:0:
256,192,142339,1,0,0:0:0:0:
256,192,142535,1,0,0:0:0:0:
256,192,142731,1,8,0:0:0:0:
256,192,143123,1,0,0:0:0:0:
256,192,143515,1,0,0:0:0:0:
256,192,143711,1,8,0:0:0:0:
256,192,143907,1,0,0:0:0:0:
256,192,144299,1,12,0:0:0:0:
256,192,144888,1,0,0:0:0:0:
256,192,145084,1,8,0:0:0:0:
256,192,145476,1,0,0:0:0:0:
256,192,145672,1,0,0:0:0:0:
256,192,145770,1,0,0:0:0:0:
256,192,145868,1,0,0:0:0:0:
256,192,146260,1,8,0:0:0:0:
256,192,146652,1,0,0:0:0:0:
256,192,147044,1,8,0:0:0:0:
256,192,147241,1,0,0:0:0:0:
256,192,147339,1,0,0:0:0:0:
256,192,147437,1,0,0:0:0:0:
256,192,147633,1,0,0:0:0:0:
256,192,147829,1,8,0:0:0:0:
256,192,148221,1,8,0:0:0:0:
256,192,148417,1,0,0:0:0:0:
256,192,148613,1,8,0:0:0:0:
256,192,148809,1,0,0:0:0:0:
256,192,149005,1,8,0:0:0:0:
256,192,149397,1,8,0:0:0:0:
256,192,149593,1,0,0:0:0:0:
256,192,149790,1,8,0:0:0:0:
256,192,149986,1,8,0:0:0:0:
256,192,150182,1,0,0:0:0:0:
256,192,150574,1,12,0:0:0:0:
256,192,151162,1,0,0:0:0:0:
256,192,151358,1,8,0:0:0:0:
256,192,151554,1,0,0:0:0:0:
256,192,151750,1,8,0:0:0:0:
256,192,152142,1,0,0:0:0:0:
256,192,152241,1,0,0:0:0:0:
256,192,152339,1,0,0:0:0:0:
256,192,152535,1,8,0:0:0:0:
256,192,152927,1,0,0:0:0:0:
256,192,153123,1,0,0:0:0:0:
256,192,153319,1,8,0:0:0:0:
256,192,153515,1,8,0:0:0:0:
256,192,153711,1,0,0:0:0:0:
256,192,154299,1,0,0:0:0:0:
256,192,154495,1,8,0:0:0:0:
256,192,154692,1,0,0:0:0:0:
256,192,154888,1,8,0:0:0:0:
256,192,155280,1,0,0:0:0:0:
256,192,155378,1,0,0:0:0:0:
256,192,155476,1,0,0:0:0:0:
256,192,155672,1,8,0:0:0:0:
256,192,156064,1,0,0:0:0:0:
256,192,156260,1,0,0:0:0:0:
256,192,156456,1,8,0:0:0:0:
256,192,156652,1,8,0:0:0:0:
256,192,156848,1,0,0:0:0:0:
256,192,157437,1,0,0:0:0:0:
256,192,157633,1,8,0:0:0:0:
256,192,157829,1,0,0:0:0:0:
256,192,158025,1,8,0:0:0:0:
256,192,158417,1,0,0:0:0:0:
256,192,158515,1,0,0:0:0:0:
256,192,158613,1,0,0:0:0:0:
256,192,158809,1,8,0:0:0:0:
256,192,159201,1,0,0:0:0:0:
256,192,159397,1,0,0:0:0:0:
256,192,159593,1,8,0:0:0:0:
256,192,159790,1,8,0:0:0:0:
256,192,159986,1,0,0:0:0:0:
256,192,160574,1,0,0:0:0:0:
256,192,160770,1,8,0:0:0:0:
256,192,160966,1,0,0:0:0:0:
256,192,161162,1,8,0:0:0:0:
256,192,161554,1,0,0:0:0:0:
256,192,161652,1,0,0:0:0:0:
256,192,161750,1,0,0:0:0:0:
256,192,161946,1,8,0:0:0:0:
256,192,162339,1,0,0:0:0:0:
256,192,162535,1,0,0:0:0:0:
256,192,162731,1,8,0:0:0:0:
256,192,162927,1,0,0:0:0:0:
256,192,163123,1,12,0:0:0:0:
256,192,163711,1,0,0:0:0:0:
256,192,163907,1,8,0:0:0:0:
256,192,164103,1,0,0:0:0:0:
256,192,164299,1,8,0:0:0:0:
256,192,164692,1,0,0:0:0:0:
256,192,164790,1,0,0:0:0:0:
256,192,164888,1,0,0:0:0:0:
256,192,165084,1,8,0:0:0:0:
256,192,165476,1,0,0:0:0:0:
256,192,165672,1,0,0:0:0:0:
256,192,165868,1,8,0:0:0:0:
256,192,166064,1,8,0:0:0:0:
256,192,166260,1,0,0:0:0:0:
256,192,166848,1,0,0:0:0:0:
256,192,167044,1,8,0:0:0:0:
256,192,167241,1,0,0:0:0:0:
256,192,167437,1,8,0:0:0:0:
256,192,167829,1,0,0:0:0:0:
256,192,167927,1,0,0:0:0:0:
256,192,168025,1,0,0:0:0:0:
256,192,168221,1,8,0:0:0:0:
256,192,168613,1,0,0:0:0:0:
256,192,168809,1,0,0:0:0:0:
256,192,169005,1,8,0:0:0:0:
256,192,169201,1,8,0:0:0:0:
256,192,169397,1,0,0:0:0:0:
256,192,169593,1,8,0:0:0:0:
256,192,169986,1,8,0:0:0:0:
256,192,170182,1,8,0:0:0:0:
256,192,170378,1,0,0:0:0:0:
256,192,170574,1,8,0:0:0:0:
256,192,170770,1,8,0:0:0:0:
256,192,170966,1,0,0:0:0:0:
256,192,171358,1,8,0:0:0:0:
256,192,171750,1,0,0:0:0:0:
256,192,171848,1,0,0:0:0:0:
256,192,171946,1,0,0:0:0:0:
256,192,172142,1,8,0:0:0:0:
256,192,172339,1,8,0:0:0:0:
256,192,172535,1,0,0:0:0:0:
256,192,172731,1,8,0:0:0:0:
256,192,173123,1,8,0:0:0:0:
256,192,173319,1,8,0:0:0:0:
256,192,173515,1,0,0:0:0:0:
256,192,173711,1,8,0:0:0:0:
256,192,173809,1,8,0:0:0:0:
256,192,173907,1,8,0:0:0:0:
256,192,174103,1,0,0:0:0:0:
256,192,174914,1,8,0:0:0:0:
256,192,175125,1,0,0:0:0:0:
256,192,175336,1,8,0:0:0:0:
256,192,175442,1,8,0:0:0:0:
256,192,175547,1,8,0:0:0:0:
