osu file format v14

[General]
AudioFilename: audio.mp3
AudioLeadIn: 0
PreviewTime: 155427
Countdown: 0
SampleSet: Normal
StackLeniency: 0.7
Mode: 1
LetterboxInBreaks: 0
WidescreenStoryboard: 1

[Editor]
Bookmarks: 59,11427,21532,31637,41743,54374,64480,74585,84690,104901,115006,125111,135532,145322,155427,165532,175637,195848,205953,216059,226164,236269,246295
DistanceSpacing: 0.1
BeatDivisor: 4
GridSize: 32
TimelineZoom: 2.599999

[Metadata]
Title:Aimless Voyage
TitleUnicode:Aimless Voyage
Artist:LiLA'c Records
ArtistUnicode:LiLA'c Records
Creator:Realazy
Version:Oni
Source:東方永夜抄 ~ Imperishable Night.
Tags:Ayyri 東方Project Touhou Toho ZUN Team Shanghai Alice Eiyashou Eternal Night Vignette TH08 TH 8 Final Stage Theme Irus Neeshe 愛原佑季 Yuuki Aihara ヴォヤージュ1969 Voyage 1969 Eirin Yagokoro 八意 永琳 Eternize Reitaisai 9 RTS9 RTS LLAC-001
BeatmapID:1509446
BeatmapSetID:714233

[Difficulty]
HPDrainRate:5
CircleSize:2
OverallDifficulty:5
ApproachRate:10
SliderMultiplier:1.4
SliderTickRate:1

[Events]
//Background and Video events
0,0,"Eirin 465.jpg",0,-35
//Break Periods
//Storyboard Layer 0 (Background)
//Storyboard Layer 1 (Fail)
//Storyboard Layer 2 (Pass)
//Storyboard Layer 3 (Foreground)
//Storyboard Sound Samples

[TimingPoints]
59,315.789473684211,4,1,0,50,1,0
84690,-100,4,1,0,50,0,1
104901,-100,4,1,0,50,0,0
175637,-100,4,1,0,50,0,1
194585,-100,4,1,0,50,0,0

[HitObjects]
256,192,59,5,8,0:0:0:0:
256,192,137,1,8,0:0:0:0:
256,192,216,1,0,0:0:0:0:
256,192,374,1,0,0:0:0:0:
256,192,532,1,8,0:0:0:0:
256,192,690,1,8,0:0:0:0:
256,192,769,1,0,0:0:0:0:
256,192,848,1,0,0:0:0:0:
256,192,1006,1,8,0:0:0:0:
256,192,1085,1,0,0:0:0:0:
256,192,1164,1,0,0:0:0:0:
256,192,1322,1,12,0:0:0:0:
256,192,1637,1,8,0:0:0:0:
256,192,1795,1,0,0:0:0:0:
256,192,1953,1,8,0:0:0:0:
256,192,2032,1,0,0:0:0:0:
256,192,2111,1,8,0:0:0:0:
256,192,2269,1,0,0:0:0:0:
256,192,2427,1,8,0:0:0:0:
256,192,2506,1,8,0:0:0:0:
256,192,2585,1,0,0:0:0:0:
256,192,2901,1,8,0:0:0:0:
256,192,3059,1,0,0:0:0:0:
256,192,3216,1,8,0:0:0:0:
256,192,3295,1,0,0:0:0:0:
256,192,3374,1,8,0:0:0:0:
256,192,3532,1,8,0:0:0:0:
256,192,3690,1,0,0:0:0:0:
256,192,3848,1,0,0:0:0:0:
256,192,4164,1,8,0:0:0:0:
256,192,4322,1,0,0:0:0:0:
256,192,4480,1,8,0:0:0:0:
256,192,4559,1,0,0:0:0:0:
256,192,4637,1,8,0:0:0:0:
256,192,4795,1,8,0:0:0:0:
256,192,5111,1,0,0:0:0:0:
256,192,5190,1,0,0:0:0:0:
256,192,5269,1,0,0:0:0:0:
256,192,5348,1,0,0:0:0:0:
256,192,5427,1,8,0:0:0:0:
256,192,5585,1,0,0:0:0:0:
256,192,5743,1,8,0:0:0:0:
256,192,5822,1,0,0:0:0:0:
256,192,5901,1,8,0:0:0:0:
256,192,6059,1,0,0:0:0:0:
256,192,6216,1,0,0:0:0:0:
256,192,6374,1,12,0:0:0:0:
256,192,6532,1,8,0:0:0:0:
256,192,6690,1,8,0:0:0:0:
256,192,6848,1,0,0:0:0:0:
256,192,7006,1,8,0:0:0:0:
256,192,7085,1,8,0:0:0:0:
256,192,7164,1,0,0:0:0:0:
256,192,7322,1,8,0:0:0:0:
256,192,7637,1,0,0:0:0:0:
256,192,7795,1,0,0:0:0:0:
256,192,7953,1,8,0:0:0:0:
256,192,8111,1,0,0:0:0:0:
256,192,8190,1,0,0:0:0:0:
256,192,8269,1,8,0:0:0:0:
256,192,8427,1,0,0:0:0:0:
256,192,8585,1,8,0:0:0:0:
256,192,8901,1,8,0:0:0:0:
256,192,9059,1,0,0:0:0:0:
256,192,9216,1,8,0:0:0:0:
256,192,9295,1,8,0:0:0:0:
256,192,9374,1,0,0:0:0:0:
256,192,9532,1,8,0:0:0:0:
256,192,9611,1,8,0:0:0:0:
256,192,9690,1,8,0:0:0:0:
256,192,9769,1,0,0:0:0:0:
256,192,9848,1,8,0:0:0:0:
256,192,10006,1,8,0:0:0:0:
256,192,10164,1,0,0:0:0:0:
256,192,10243,1,0,0:0:0:0:
256,192,10322,1,0,0:0:0:0:
256,192,10401,1,0,0:0:0:0:
256,192,10480,1,8,0:0:0:0:
256,192,10637,1,0,0:0:0:0:
256,192,10716,1,0,0:0:0:0:
256,192,10795,1,8,0:0:0:0:
256,192,11427,1,12,0:0:0:0:
256,192,11585,1,0,0:0:0:0:
256,192,11664,1,0,0:0:0:0:
256,192,11743,1,0,0:0:0:0:
256,192,11901,1,0,0:0:0:0:
256,192,12059,1,8,0:0:0:0:
256,192,12216,1,0,0:0:0:0:
256,192,12532,1,0,0:0:0:0:
256,192,12690,1,8,0:0:0:0:
256,192,12848,1,0,0:0:0:0:
256,192,12927,1,0,0:0:0:0:
256,192,13006,1,8,0:0:0:0:
256,192,13164,1,0,0:0:0:0:
256,192,13322,1,8,0:0:0:0:
256,192,13401,1,0,0:0:0:0:
256,192,13480,1,0,0:0:0:0:
256,192,13637,1,8,0:0:0:0:
256,192,13953,1,8,0:0:0:0:
256,192,14111,1,0,0:0:0:0:
256,192,14190,1,0,0:0:0:0:
256,192,14269,1,8,0:0:0:0:
256,192,14427,1,0,0:0:0:0:
256,192,14585,1,8,0:0:0:0:
256,192,14743,1,8,0:0:0:0:
256,192,15059,1,0,0:0:0:0:
256,192,15216,1,0,0:0:0:0:
256,192,15295,1,0,0:0:0:0:
256,192,15374,1,0,0:0:0:0:
256,192,15453,1,0,0:0:0:0:
256,192,15532,1,8,0:0:0:0:
256,192,15690,1,0,0:0:0:0:
256,192,15848,1,8,0:0:0:0:
256,192,15927,1,0,0:0:0:0:
256,192,16006,1,8,0:0:0:0:
256,192,16164,1,0,0:0:0:0:
256,192,16480,1,8,0:0:0:0:
256,192,16637,1,0,0:0:0:0:
256,192,16716,1,0,0:0:0:0:
256,192,16795,1,8,0:0:0:0:
256,192,16953,1,0,0:0:0:0:
256,192,17111,1,8,0:0:0:0:
256,192,17269,1,8,0:0:0:0:
256,192,17585,1,0,0:0:0:0:
256,192,17664,1,0,0:0:0:0:
256,192,17743,1,8,0:0:0:0:
256,192,17901,1,0,0:0:0:0:
256,192,18059,1,8,0:0:0:0:
256,192,18216,1,0,0:0:0:0:
256,192,18374,1,8,0:0:0:0:
256,192,18453,1,0,0:0:0:0:
256,192,18532,1,0,0:0:0:0:
256,192,18690,1,8,0:0:0:0:
256,192,19006,1,8,0:0:0:0:
256,192,19164,1,0,0:0:0:0:
256,192,19243,1,0,0:0:0:0:
256,192,19322,1,8,0:0:0:0:
256,192,19480,1,0,0:0:0:0:
256,192,19637,1,8,0:0:0:0:
256,192,19795,1,8,0:0:0:0:
256,192,19953,1,0,0:0:0:0:
256,192,20269,1,0,0:0:0:0:
256,192,20348,1,0,0:0:0:0:
256,192,20427,1,0,0:0:0:0:
256,192,20506,1,0,0:0:0:0:
256,192,20585,1,8,0:0:0:0:
256,192,20743,1,0,0:0:0:0:
256,192,20822,1,0,0:0:0:0:
256,192,20901,1,8,0:0:0:0:
256,192,21059,1,0,0:0:0:0:
256,192,21216,1,8,0:0:0:0:
256,192,21532,1,12,0:0:0:0:
256,192,21690,1,0,0:0:0:0:
256,192,21848,1,0,0:0:0:0:
256,192,21927,1,0,0:0:0:0:
256,192,22006,1,8,0:0:0:0:
256,192,22164,1,8,0:0:0:0:
256,192,22480,1,0,0:0:0:0:
256,192,22637,1,0,0:0:0:0:
256,192,22716,1,0,0:0:0:0:
256,192,22795,1,8,0:0:0:0:
256,192,22953,1,8,0:0:0:0:
256,192,23032,1,0,0:0:0:0:
256,192,23111,1,8,0:0:0:0:
256,192,23269,1,0,0:0:0:0:
256,192,23427,1,8,0:0:0:0:
256,192,23585,1,0,0:0:0:0:
256,192,23743,1,8,0:0:0:0:
256,192,23901,1,0,0:0:0:0:
256,192,23980,1,0,0:0:0:0:
256,192,24059,1,8,0:0:0:0:
256,192,24374,1,8,0:0:0:0:
256,192,24532,1,0,0:0:0:0:
256,192,24690,1,8,0:0:0:0:
256,192,24848,1,8,0:0:0:0:
256,192,25164,1,0,0:0:0:0:
256,192,25322,1,0,0:0:0:0:
256,192,25401,1,0,0:0:0:0:
256,192,25480,1,0,0:0:0:0:
256,192,25559,1,0,0:0:0:0:
256,192,25637,1,8,0:0:0:0:
256,192,25795,1,0,0:0:0:0:
256,192,25953,1,8,0:0:0:0:
256,192,26111,1,0,0:0:0:0:
256,192,26269,1,0,0:0:0:0:
256,192,26585,1,8,0:0:0:0:
256,192,26743,1,0,0:0:0:0:
256,192,27059,1,0,0:0:0:0:
256,192,27216,1,8,0:0:0:0:
256,192,27374,1,8,0:0:0:0:
256,192,27690,1,0,0:0:0:0:
256,192,27769,1,0,0:0:0:0:
256,192,27848,1,8,0:0:0:0:
256,192,28006,1,0,0:0:0:0:
256,192,28164,1,8,0:0:0:0:
256,192,28322,1,0,0:0:0:0:
256,192,28480,1,8,0:0:0:0:
256,192,28559,1,0,0:0:0:0:
256,192,28637,1,0,0:0:0:0:
256,192,28795,1,8,0:0:0:0:
256,192,29111,1,8,0:0:0:0:
256,192,29269,1,0,0:0:0:0:
256,192,29348,1,0,0:0:0:0:
256,192,29427,1,8,0:0:0:0:
256,192,29585,1,0,0:0:0:0:
256,192,29743,1,8,0:0:0:0:
256,192,29901,1,0,0:0:0:0:
256,192,29980,1,0,0:0:0:0:
256,192,30059,1,0,0:0:0:0:
256,192,30216,1,8,0:0:0:0:
256,192,30374,1,0,0:0:0:0:
256,192,30453,1,0,0:0:0:0:
256,192,30532,1,0,0:0:0:0:
256,192,30611,1,0,0:0:0:0:
256,192,30690,1,8,0:0:0:0:
256,192,30848,1,0,0:0:0:0:
256,192,30927,1,0,0:0:0:0:
256,192,31006,1,8,0:0:0:0:
256,192,31164,1,0,0:0:0:0:
256,192,31322,1,8,0:0:0:0:
256,192,31637,1,12,0:0:0:0:
256,192,31795,1,0,0:0:0:0:
256,192,31874,1,0,0:0:0:0:
256,192,31953,1,0,0:0:0:0:
256,192,32111,1,8,0:0:0:0:
256,192,32427,1,0,0:0:0:0:
256,192,32585,1,8,0:0:0:0:
256,192,32743,1,0,0:0:0:0:
256,192,32822,1,0,0:0:0:0:
256,192,32901,1,8,0:0:0:0:
256,192,33059,1,8,0:0:0:0:
256,192,33374,1,0,0:0:0:0:
256,192,33532,1,8,0:0:0:0:
256,192,33690,1,0,0:0:0:0:
256,192,33769,1,0,0:0:0:0:
256,192,33848,1,8,0:0:0:0:
256,192,33927,1,0,0:0:0:0:
256,192,34006,1,8,0:0:0:0:
256,192,34164,1,0,0:0:0:0:
256,192,34322,1,8,0:0:0:0:
256,192,34480,1,0,0:0:0:0:
256,192,34637,1,8,0:0:0:0:
256,192,34716,1,8,0:0:0:0:
256,192,34795,1,0,0:0:0:0:
256,192,34953,1,8,0:0:0:0:
256,192,35269,1,8,0:0:0:0:
256,192,35427,1,0,0:0:0:0:
256,192,35506,1,0,0:0:0:0:
256,192,35585,1,0,0:0:0:0:
256,192,35664,1,0,0:0:0:0:
256,192,35743,1,8,0:0:0:0:
256,192,35901,1,8,0:0:0:0:
256,192,35980,1,8,0:0:0:0:
256,192,36059,1,0,0:0:0:0:
256,192,36216,1,0,0:0:0:0:
256,192,36374,1,8,0:0:0:0:
256,192,36690,1,8,0:0:0:0:
256,192,36769,1,8,0:0:0:0:
256,192,36848,1,0,0:0:0:0:
256,192,37006,1,0,0:0:0:0:
256,192,37164,1,8,0:0:0:0:
256,192,37480,1,0,0:0:0:0:
256,192,37637,1,8,0:0:0:0:
256,192,37716,1,0,0:0:0:0:
256,192,37795,1,8,0:0:0:0:
256,192,37953,1,0,0:0:0:0:
256,192,38032,1,0,0:0:0:0:
256,192,38111,1,8,0:0:0:0:
256,192,38427,1,0,0:0:0:0:
256,192,38506,1,0,0:0:0:0:
256,192,38585,1,8,0:0:0:0:
256,192,38743,1,0,0:0:0:0:
256,192,38901,1,8,0:0:0:0:
256,192,38980,1,0,0:0:0:0:
256,192,39059,1,8,0:0:0:0:
256,192,39216,1,0,0:0:0:0:
256,192,39374,1,0,0:0:0:0:
256,192,39532,1,8,0:0:0:0:
256,192,39611,1,0,0:0:0:0:
256,192,39690,1,0,0:0:0:0:
256,192,39848,1,8,0:0:0:0:
256,192,40006,1,8,0:0:0:0:
256,192,40085,1,8,0:0:0:0:
256,192,40164,1,0,0:0:0:0:
256,192,40322,1,8,0:0:0:0:
256,192,40480,1,0,0:0:0:0:
256,192,40559,1,0,0:0:0:0:
256,192,40637,1,0,0:0:0:0:
256,192,40716,1,0,0:0:0:0:
256,192,40795,1,8,0:0:0:0:
256,192,40953,1,8,0:0:0:0:
256,192,41032,1,0,0:0:0:0:
256,192,41111,1,8,0:0:0:0:
256,192,41269,1,0,0:0:0:0:
256,192,41427,1,8,0:0:0:0:
256,192,41743,1,12,0:0:0:0:
256,192,41901,1,0,0:0:0:0:
256,192,42059,1,8,0:0:0:0:
256,192,42216,1,0,0:0:0:0:
256,192,42295,1,0,0:0:0:0:
256,192,42374,1,8,0:0:0:0:
256,192,42532,1,8,0:0:0:0:
256,192,42690,1,0,0:0:0:0:
256,192,42848,1,8,0:0:0:0:
256,192,43164,1,8,0:0:0:0:
256,192,43322,1,0,0:0:0:0:
256,192,43480,1,0,0:0:0:0:
256,192,43559,1,0,0:0:0:0:
256,192,43637,1,8,0:0:0:0:
256,192,43795,1,0,0:0:0:0:
256,192,43953,1,8,0:0:0:0:
256,192,44269,1,8,0:0:0:0:
256,192,44427,1,0,0:0:0:0:
256,192,44506,1,0,0:0:0:0:
256,192,44585,1,8,0:0:0:0:
256,192,44743,1,0,0:0:0:0:
256,192,44901,1,8,0:0:0:0:
256,192,45216,1,0,0:0:0:0:
256,192,45374,1,8,0:0:0:0:
256,192,45532,1,0,0:0:0:0:
256,192,45611,1,0,0:0:0:0:
256,192,45690,1,0,0:0:0:0:
256,192,45769,1,0,0:0:0:0:
256,192,45848,1,8,0:0:0:0:
256,192,46006,1,8,0:0:0:0:
256,192,46085,1,0,0:0:0:0:
256,192,46164,1,8,0:0:0:0:
256,192,46322,1,0,0:0:0:0:
256,192,46480,1,8,0:0:0:0:
256,192,46795,1,8,0:0:0:0:
256,192,46953,1,0,0:0:0:0:
256,192,47032,1,0,0:0:0:0:
256,192,47111,1,8,0:0:0:0:
256,192,47269,1,0,0:0:0:0:
256,192,47427,1,8,0:0:0:0:
256,192,47743,1,8,0:0:0:0:
256,192,47901,1,8,0:0:0:0:
256,192,48059,1,0,0:0:0:0:
256,192,48216,1,0,0:0:0:0:
256,192,48295,1,0,0:0:0:0:
256,192,48374,1,8,0:0:0:0:
256,192,48532,1,0,0:0:0:0:
256,192,48690,1,8,0:0:0:0:
256,192,48848,1,0,0:0:0:0:
256,192,49006,1,0,0:0:0:0:
256,192,49322,1,8,0:0:0:0:
256,192,49480,1,0,0:0:0:0:
256,192,49559,1,0,0:0:0:0:
256,192,49637,1,8,0:0:0:0:
256,192,49795,1,8,0:0:0:0:
256,192,49953,1,0,0:0:0:0:
256,192,50111,1,0,0:0:0:0:
256,192,50269,1,8,0:0:0:0:
256,192,50427,1,8,0:0:0:0:
256,192,50585,1,0,0:0:0:0:
256,192,50664,1,0,0:0:0:0:
256,192,50743,1,0,0:0:0:0:
256,192,50822,1,0,0:0:0:0:
256,192,50901,1,8,0:0:0:0:
256,192,51059,1,0,0:0:0:0:
256,192,51216,1,8,0:0:0:0:
256,192,51532,1,0,0:0:0:0:
256,192,51848,1,8,0:0:0:0:
256,192,51927,1,8,0:0:0:0:
256,192,52006,1,8,0:0:0:0:
256,192,52085,1,8,0:0:0:0:
256,192,52164,1,0,0:0:0:0:
256,192,52322,1,0,0:0:0:0:
256,192,52480,1,8,0:0:0:0:
256,192,52559,1,0,0:0:0:0:
256,192,52637,1,8,0:0:0:0:
256,192,52795,1,8,0:0:0:0:
256,192,52953,1,0,0:0:0:0:
256,192,53111,1,8,0:0:0:0:
256,192,53190,1,8,0:0:0:0:
256,192,53269,1,8,0:0:0:0:
256,192,53348,1,0,0:0:0:0:
256,192,53427,1,0,0:0:0:0:
256,192,53585,1,8,0:0:0:0:
256,192,53743,1,8,0:0:0:0:
256,192,53822,1,0,0:0:0:0:
256,192,53901,1,8,0:0:0:0:
256,192,53980,1,0,0:0:0:0:
256,192,54059,1,0,0:0:0:0:
256,192,54216,1,0,0:0:0:0:
256,192,54374,1,12,0:0:0:0:
256,192,54532,1,0,0:0:0:0:
256,192,54611,1,0,0:0:0:0:
256,192,54690,1,0,0:0:0:0:
256,192,54848,1,8,0:0:0:0:
256,192,55164,1,0,0:0:0:0:
256,192,55322,1,8,0:0:0:0:
256,192,55480,1,0,0:0:0:0:
256,192,55559,1,0,0:0:0:0:
256,192,55637,1,8,0:0:0:0:
256,192,55795,1,8,0:0:0:0:
256,192,56111,1,0,0:0:0:0:
256,192,56269,1,8,0:0:0:0:
256,192,56427,1,0,0:0:0:0:
256,192,56506,1,0,0:0:0:0:
256,192,56585,1,8,0:0:0:0:
256,192,56664,1,0,0:0:0:0:
256,192,56743,1,8,0:0:0:0:
256,192,56901,1,0,0:0:0:0:
256,192,57059,1,8,0:0:0:0:
256,192,57216,1,0,0:0:0:0:
256,192,57374,1,8,0:0:0:0:
256,192,57453,1,8,0:0:0:0:
256,192,57532,1,0,0:0:0:0:
256,192,57690,1,8,0:0:0:0:
256,192,58006,1,8,0:0:0:0:
256,192,58164,1,0,0:0:0:0:
256,192,58243,1,0,0:0:0:0:
256,192,58322,1,0,0:0:0:0:
256,192,58401,1,0,0:0:0:0:
256,192,58480,1,8,0:0:0:0:
256,192,58637,1,8,0:0:0:0:
256,192,58716,1,8,0:0:0:0:
256,192,58795,1,0,0:0:0:0:
256,192,58953,1,0,0:0:0:0:
256,192,59111,1,8,0:0:0:0:
256,192,59427,1,8,0:0:0:0:
256,192,59506,1,8,0:0:0:0:
256,192,59585,1,0,0:0:0:0:
256,192,59743,1,0,0:0:0:0:
256,192,59901,1,8,0:0:0:0:
256,192,60216,1,0,0:0:0:0:
256,192,60374,1,8,0:0:0:0:
256,192,60453,1,0,0:0:0:0:
256,192,60532,1,8,0:0:0:0:
256,192,60690,1,0,0:0:0:0:
256,192,60769,1,0,0:0:0:0:
256,192,60848,1,8,0:0:0:0:
256,192,61164,1,0,0:0:0:0:
256,192,61243,1,0,0:0:0:0:
256,192,61322,1,8,0:0:0:0:
256,192,61480,1,0,0:0:0:0:
256,192,61637,1,8,0:0:0:0:
256,192,61716,1,0,0:0:0:0:
256,192,61795,1,8,0:0:0:0:
256,192,61953,1,0,0:0:0:0:
256,192,62111,1,0,0:0:0:0:
256,192,62269,1,8,0:0:0:0:
256,192,62348,1,0,0:0:0:0:
256,192,62427,1,0,0:0:0:0:
256,192,62585,1,8,0:0:0:0:
256,192,62743,1,8,0:0:0:0:
256,192,62822,1,8,0:0:0:0:
256,192,62901,1,0,0:0:0:0:
256,192,63059,1,8,0:0:0:0:
256,192,63216,1,0,0:0:0:0:
256,192,63295,1,0,0:0:0:0:
256,192,63374,1,0,0:0:0:0:
256,192,63453,1,0,0:0:0:0:
256,192,63532,1,8,0:0:0:0:
256,192,63690,1,8,0:0:0:0:
256,192,63769,1,0,0:0:0:0:
256,192,63848,1,8,0:0:0:0:
256,192,64006,1,0,0:0:0:0:
256,192,64164,1,8,0:0:0:0:
256,192,64480,1,12,0:0:0:0:
256,192,64637,1,0,0:0:0:0:
256,192,64716,1,0,0:0:0:0:
256,192,64795,1,8,0:0:0:0:
256,192,64953,1,8,0:0:0:0:
256,192,65111,1,0,0:0:0:0:
256,192,65427,1,0,0:0:0:0:
256,192,65585,1,8,0:0:0:0:
256,192,65743,1,8,0:0:0:0:
256,192,65901,1,0,0:0:0:0:
256,192,65980,1,0,0:0:0:0:
256,192,66059,1,8,0:0:0:0:
256,192,66216,1,0,0:0:0:0:
256,192,66374,1,8,0:0:0:0:
256,192,66532,1,8,0:0:0:0:
256,192,66690,1,0,0:0:0:0:
256,192,67006,1,8,0:0:0:0:
256,192,67164,1,8,0:0:0:0:
256,192,67243,1,0,0:0:0:0:
256,192,67322,1,0,0:0:0:0:
256,192,67480,1,8,0:0:0:0:
256,192,67637,1,0,0:0:0:0:
256,192,67953,1,0,0:0:0:0:
256,192,68111,1,8,0:0:0:0:
256,192,68269,1,0,0:0:0:0:
256,192,68348,1,0,0:0:0:0:
256,192,68427,1,0,0:0:0:0:
256,192,68506,1,0,0:0:0:0:
256,192,68585,1,8,0:0:0:0:
256,192,68743,1,0,0:0:0:0:
256,192,68901,1,8,0:0:0:0:
256,192,69059,1,8,0:0:0:0:
256,192,69216,1,0,0:0:0:0:
256,192,69532,1,8,0:0:0:0:
256,192,69690,1,0,0:0:0:0:
256,192,69769,1,0,0:0:0:0:
256,192,69848,1,8,0:0:0:0:
256,192,70006,1,8,0:0:0:0:
256,192,70164,1,0,0:0:0:0:
256,192,70480,1,0,0:0:0:0:
256,192,70637,1,8,0:0:0:0:
256,192,70795,1,8,0:0:0:0:
256,192,70953,1,0,0:0:0:0:
256,192,71032,1,0,0:0:0:0:
256,192,71111,1,8,0:0:0:0:
256,192,71269,1,8,0:0:0:0:
256,192,71427,1,0,0:0:0:0:
256,192,71585,1,8,0:0:0:0:
256,192,71743,1,0,0:0:0:0:
256,192,72059,1,8,0:0:0:0:
256,192,72216,1,0,0:0:0:0:
256,192,72295,1,0,0:0:0:0:
256,192,72374,1,8,0:0:0:0:
256,192,72532,1,0,0:0:0:0:
256,192,72690,1,8,0:0:0:0:
256,192,73006,1,0,0:0:0:0:
256,192,73164,1,8,0:0:0:0:
256,192,73322,1,0,0:0:0:0:
256,192,73401,1,0,0:0:0:0:
256,192,73480,1,0,0:0:0:0:
256,192,73559,1,0,0:0:0:0:
256,192,73637,1,8,0:0:0:0:
256,192,73795,1,0,0:0:0:0:
256,192,73953,1,0,0:0:0:0:
256,192,74111,1,0,0:0:0:0:
256,192,74269,1,8,0:0:0:0:
256,192,74585,1,12,0:0:0:0:
256,192,74743,1,0,0:0:0:0:
256,192,74822,1,0,0:0:0:0:
256,192,74901,1,8,0:0:0:0:
256,192,75059,1,8,0:0:0:0:
256,192,75216,1,8,0:0:0:0:
256,192,75295,1,8,0:0:0:0:
256,192,75374,1,0,0:0:0:0:
256,192,75532,1,8,0:0:0:0:
256,192,75690,1,0,0:0:0:0:
256,192,75769,1,0,0:0:0:0:
256,192,75848,1,8,0:0:0:0:
256,192,76006,1,8,0:0:0:0:
256,192,76164,1,8,0:0:0:0:
256,192,76243,1,0,0:0:0:0:
256,192,76322,1,0,0:0:0:0:
256,192,76637,1,0,0:0:0:0:
256,192,76716,1,0,0:0:0:0:
256,192,76795,1,8,0:0:0:0:
256,192,76953,1,0,0:0:0:0:
256,192,77111,1,8,0:0:0:0:
256,192,77269,1,8,0:0:0:0:
256,192,77348,1,0,0:0:0:0:
256,192,77427,1,8,0:0:0:0:
256,192,77585,1,0,0:0:0:0:
256,192,77901,1,0,0:0:0:0:
256,192,77980,1,0,0:0:0:0:
256,192,78059,1,8,0:0:0:0:
256,192,78216,1,8,0:0:0:0:
256,192,78374,1,0,0:0:0:0:
256,192,78453,1,0,0:0:0:0:
256,192,78532,1,0,0:0:0:0:
256,192,78611,1,0,0:0:0:0:
256,192,78690,1,8,0:0:0:0:
256,192,78848,1,0,0:0:0:0:
256,192,79164,1,0,0:0:0:0:
256,192,79322,1,8,0:0:0:0:
256,192,79401,1,0,0:0:0:0:
256,192,79480,1,8,0:0:0:0:
256,192,79637,1,8,0:0:0:0:
256,192,79953,1,8,0:0:0:0:
256,192,80032,1,0,0:0:0:0:
256,192,80111,1,0,0:0:0:0:
256,192,80190,1,0,0:0:0:0:
256,192,80269,1,8,0:0:0:0:
256,192,80427,1,0,0:0:0:0:
256,192,80585,1,8,0:0:0:0:
256,192,80664,1,0,0:0:0:0:
256,192,80743,1,0,0:0:0:0:
256,192,80901,1,0,0:0:0:0:
256,192,81059,1,8,0:0:0:0:
256,192,81137,1,0,0:0:0:0:
256,192,81216,1,8,0:0:0:0:
256,192,81374,1,0,0:0:0:0:
256,192,81690,1,0,0:0:0:0:
256,192,81848,1,8,0:0:0:0:
256,192,82006,1,8,0:0:0:0:
256,192,82164,1,8,0:0:0:0:
256,192,82243,1,8,0:0:0:0:
256,192,82322,1,0,0:0:0:0:
256,192,82480,1,0,0:0:0:0:
256,192,82559,1,0,0:0:0:0:
256,192,82637,1,8,0:0:0:0:
256,192,82716,1,8,0:0:0:0:
256,192,82795,1,0,0:0:0:0:
256,192,82953,1,8,0:0:0:0:
256,192,83032,1,0,0:0:0:0:
256,192,83111,1,8,0:0:0:0:
256,192,83427,1,0,0:0:0:0:
256,192,83506,1,0,0:0:0:0:
256,192,83585,1,0,0:0:0:0:
256,192,83664,1,0,0:0:0:0:
256,192,83743,1,8,0:0:0:0:
256,192,83901,1,0,0:0:0:0:
256,192,84059,1,8,0:0:0:0:
256,192,84137,1,8,0:0:0:0:
256,192,84216,1,0,0:0:0:0:
256,192,84295,1,0,0:0:0:0:
256,192,84374,1,8,0:0:0:0:
256,192,84690,1,12,0:0:0:0:
256,192,84848,1,0,0:0:0:0:
256,192,84927,1,0,0:0:0:0:
256,192,85006,1,8,0:0:0:0:
256,192,85164,1,0,0:0:0:0:
256,192,85322,1,8,0:0:0:0:
256,192,85480,1,8,0:0:0:0:
256,192,85637,1,0,0:0:0:0:
256,192,85716,1,0,0:0:0:0:
256,192,85795,1,0,0:0:0:0:
256,192,85953,1,8,0:0:0:0:
256,192,86111,1,8,0:0:0:0:
256,192,86190,1,8,0:0:0:0:
256,192,86269,1,0,0:0:0:0:
256,192,86427,1,0,0:0:0:0:
256,192,86506,1,0,0:0:0:0:
256,192,86585,1,8,0:0:0:0:
256,192,86743,1,0,0:0:0:0:
256,192,86901,1,8,0:0:0:0:
256,192,87216,1,8,0:0:0:0:
256,192,87374,1,0,0:0:0:0:
256,192,87453,1,0,0:0:0:0:
256,192,87532,1,8,0:0:0:0:
256,192,87690,1,0,0:0:0:0:
256,192,87848,1,8,0:0:0:0:
256,192,87927,1,0,0:0:0:0:
256,192,88006,1,8,0:0:0:0:
256,192,88164,1,0,0:0:0:0:
256,192,88322,1,8,0:0:0:0:
256,192,88480,1,0,0:0:0:0:
256,192,88559,1,0,0:0:0:0:
256,192,88637,1,0,0:0:0:0:
256,192,88716,1,0,0:0:0:0:
256,192,88795,1,8,0:0:0:0:
256,192,88953,1,0,0:0:0:0:
256,192,89111,1,8,0:0:0:0:
256,192,89190,1,0,0:0:0:0:
256,192,89269,1,0,0:0:0:0:
256,192,89427,1,8,0:0:0:0:
256,192,89743,1,0,0:0:0:0:
256,192,89901,1,0,0:0:0:0:
256,192,89980,1,0,0:0:0:0:
256,192,90059,1,8,0:0:0:0:
256,192,90216,1,0,0:0:0:0:
256,192,90374,1,8,0:0:0:0:
256,192,90532,1,0,0:0:0:0:
256,192,90690,1,0,0:0:0:0:
256,192,90769,1,0,0:0:0:0:
256,192,90848,1,0,0:0:0:0:
256,192,91006,1,8,0:0:0:0:
256,192,91164,1,8,0:0:0:0:
256,192,91243,1,8,0:0:0:0:
256,192,91322,1,0,0:0:0:0:
256,192,91480,1,0,0:0:0:0:
256,192,91637,1,8,0:0:0:0:
256,192,91716,1,0,0:0:0:0:
256,192,91795,1,0,0:0:0:0:
256,192,91953,1,8,0:0:0:0:
256,192,92269,1,8,0:0:0:0:
256,192,92427,1,8,0:0:0:0:
256,192,92506,1,8,0:0:0:0:
256,192,92585,1,0,0:0:0:0:
256,192,92743,1,0,0:0:0:0:
256,192,92901,1,8,0:0:0:0:
256,192,93059,1,8,0:0:0:0:
256,192,93216,1,0,0:0:0:0:
256,192,93374,1,8,0:0:0:0:
256,192,93532,1,0,0:0:0:0:
256,192,93611,1,0,0:0:0:0:
256,192,93690,1,0,0:0:0:0:
256,192,93769,1,0,0:0:0:0:
256,192,93848,1,8,0:0:0:0:
256,192,94006,1,0,0:0:0:0:
256,192,94164,1,8,0:0:0:0:
256,192,94243,1,0,0:0:0:0:
256,192,94322,1,8,0:0:0:0:
256,192,94480,1,8,0:0:0:0:
256,192,94795,1,12,0:0:0:0:
256,192,94953,1,0,0:0:0:0:
256,192,95032,1,0,0:0:0:0:
256,192,95111,1,8,0:0:0:0:
256,192,95269,1,0,0:0:0:0:
256,192,95427,1,8,0:0:0:0:
256,192,95585,1,8,0:0:0:0:
256,192,95743,1,0,0:0:0:0:
256,192,95822,1,0,0:0:0:0:
256,192,95901,1,0,0:0:0:0:
256,192,96059,1,8,0:0:0:0:
256,192,96216,1,8,0:0:0:0:
256,192,96295,1,8,0:0:0:0:
256,192,96374,1,0,0:0:0:0:
256,192,96532,1,0,0:0:0:0:
256,192,96611,1,0,0:0:0:0:
256,192,96690,1,8,0:0:0:0:
256,192,96848,1,0,0:0:0:0:
256,192,97006,1,0,0:0:0:0:
256,192,97322,1,8,0:0:0:0:
256,192,97480,1,0,0:0:0:0:
256,192,97559,1,0,0:0:0:0:
256,192,97637,1,8,0:0:0:0:
256,192,97795,1,0,0:0:0:0:
256,192,97953,1,8,0:0:0:0:
256,192,98032,1,0,0:0:0:0:
256,192,98111,1,8,0:0:0:0:
256,192,98269,1,0,0:0:0:0:
256,192,98427,1,8,0:0:0:0:
256,192,98585,1,0,0:0:0:0:
256,192,98664,1,0,0:0:0:0:
256,192,98743,1,0,0:0:0:0:
256,192,98822,1,0,0:0:0:0:
256,192,98901,1,8,0:0:0:0:
256,192,99059,1,0,0:0:0:0:
256,192,99216,1,8,0:0:0:0:
256,192,99295,1,0,0:0:0:0:
256,192,99374,1,0,0:0:0:0:
256,192,99532,1,8,0:0:0:0:
256,192,99848,1,0,0:0:0:0:
256,192,100006,1,0,0:0:0:0:
256,192,100085,1,0,0:0:0:0:
256,192,100164,1,8,0:0:0:0:
256,192,100322,1,0,0:0:0:0:
256,192,100480,1,8,0:0:0:0:
256,192,100637,1,0,0:0:0:0:
256,192,100795,1,0,0:0:0:0:
256,192,100874,1,0,0:0:0:0:
256,192,100953,1,0,0:0:0:0:
256,192,101111,1,8,0:0:0:0:
256,192,101269,1,8,0:0:0:0:
256,192,101348,1,8,0:0:0:0:
256,192,101427,1,0,0:0:0:0:
256,192,101585,1,0,0:0:0:0:
256,192,101743,1,8,0:0:0:0:
256,192,101822,1,0,0:0:0:0:
256,192,101901,1,0,0:0:0:0:
256,192,102059,1,8,0:0:0:0:
256,192,102374,1,8,0:0:0:0:
256,192,102532,1,8,0:0:0:0:
256,192,102611,1,8,0:0:0:0:
256,192,102690,1,0,0:0:0:0:
256,192,102848,1,0,0:0:0:0:
256,192,103006,1,8,0:0:0:0:
256,192,103164,1,8,0:0:0:0:
256,192,103322,1,0,0:0:0:0:
256,192,103480,1,0,0:0:0:0:
256,192,103637,1,8,0:0:0:0:
256,192,103716,1,0,0:0:0:0:
256,192,103795,1,8,0:0:0:0:
256,192,103874,1,8,0:0:0:0:
256,192,103953,1,0,0:0:0:0:
256,192,104111,1,8,0:0:0:0:
256,192,104269,1,0,0:0:0:0:
256,192,104427,1,8,0:0:0:0:
256,192,104506,1,8,0:0:0:0:
256,192,104585,1,8,0:0:0:0:
256,192,104664,1,8,0:0:0:0:
256,192,104743,1,0,0:0:0:0:
256,192,104901,1,12,0:0:0:0:
256,192,105059,1,0,0:0:0:0:
256,192,105137,1,0,0:0:0:0:
256,192,105216,1,0,0:0:0:0:
256,192,105374,1,0,0:0:0:0:
256,192,105532,1,8,0:0:0:0:
256,192,105690,1,0,0:0:0:0:
256,192,106006,1,0,0:0:0:0:
256,192,106164,1,8,0:0:0:0:
256,192,106322,1,0,0:0:0:0:
256,192,106401,1,0,0:0:0:0:
256,192,106480,1,8,0:0:0:0:
256,192,106637,1,0,0:0:0:0:
256,192,106795,1,8,0:0:0:0:
256,192,106874,1,0,0:0:0:0:
256,192,106953,1,0,0:0:0:0:
256,192,107111,1,8,0:0:0:0:
256,192,107427,1,8,0:0:0:0:
256,192,107585,1,0,0:0:0:0:
256,192,107664,1,0,0:0:0:0:
256,192,107743,1,8,0:0:0:0:
256,192,107901,1,0,0:0:0:0:
256,192,108059,1,8,0:0:0:0:
256,192,108216,1,8,0:0:0:0:
256,192,108532,1,0,0:0:0:0:
256,192,108690,1,0,0:0:0:0:
256,192,108769,1,0,0:0:0:0:
256,192,108848,1,0,0:0:0:0:
256,192,108927,1,0,0:0:0:0:
256,192,109006,1,8,0:0:0:0:
256,192,109164,1,0,0:0:0:0:
256,192,109322,1,8,0:0:0:0:
256,192,109401,1,0,0:0:0:0:
256,192,109480,1,8,0:0:0:0:
256,192,109637,1,0,0:0:0:0:
256,192,109953,1,8,0:0:0:0:
256,192,110111,1,0,0:0:0:0:
256,192,110190,1,0,0:0:0:0:
256,192,110269,1,8,0:0:0:0:
256,192,110427,1,0,0:0:0:0:
256,192,110585,1,8,0:0:0:0:
256,192,110743,1,8,0:0:0:0:
256,192,111059,1,0,0:0:0:0:
256,192,111137,1,0,0:0:0:0:
256,192,111216,1,8,0:0:0:0:
256,192,111374,1,0,0:0:0:0:
256,192,111532,1,8,0:0:0:0:
256,192,111690,1,0,0:0:0:0:
256,192,111848,1,8,0:0:0:0:
256,192,111927,1,0,0:0:0:0:
256,192,112006,1,0,0:0:0:0:
256,192,112164,1,8,0:0:0:0:
256,192,112480,1,8,0:0:0:0:
256,192,112637,1,0,0:0:0:0:
256,192,112716,1,0,0:0:0:0:
256,192,112795,1,8,0:0:0:0:
256,192,112953,1,0,0:0:0:0:
256,192,113111,1,8,0:0:0:0:
256,192,113269,1,8,0:0:0:0:
256,192,113427,1,0,0:0:0:0:
256,192,113743,1,0,0:0:0:0:
256,192,113822,1,0,0:0:0:0:
256,192,113901,1,0,0:0:0:0:
256,192,113980,1,0,0:0:0:0:
256,192,114059,1,8,0:0:0:0:
256,192,114216,1,0,0:0:0:0:
256,192,114295,1,0,0:0:0:0:
256,192,114374,1,8,0:0:0:0:
256,192,114532,1,0,0:0:0:0:
256,192,114690,1,8,0:0:0:0:
256,192,115006,1,12,0:0:0:0:
256,192,115164,1,0,0:0:0:0:
256,192,115243,1,0,0:0:0:0:
256,192,115322,1,0,0:0:0:0:
256,192,115480,1,0,0:0:0:0:
256,192,115637,1,8,0:0:0:0:
256,192,115795,1,0,0:0:0:0:
256,192,116111,1,0,0:0:0:0:
256,192,116269,1,8,0:0:0:0:
256,192,116427,1,0,0:0:0:0:
256,192,116506,1,0,0:0:0:0:
256,192,116585,1,8,0:0:0:0:
256,192,116743,1,0,0:0:0:0:
256,192,116901,1,8,0:0:0:0:
256,192,116980,1,0,0:0:0:0:
256,192,117059,1,0,0:0:0:0:
256,192,117216,1,8,0:0:0:0:
256,192,117532,1,8,0:0:0:0:
256,192,117690,1,0,0:0:0:0:
256,192,117769,1,0,0:0:0:0:
256,192,117848,1,8,0:0:0:0:
256,192,118006,1,0,0:0:0:0:
256,192,118164,1,8,0:0:0:0:
256,192,118322,1,8,0:0:0:0:
256,192,118637,1,0,0:0:0:0:
256,192,118795,1,0,0:0:0:0:
256,192,118874,1,0,0:0:0:0:
256,192,118953,1,0,0:0:0:0:
256,192,119032,1,0,0:0:0:0:
256,192,119111,1,8,0:0:0:0:
256,192,119269,1,0,0:0:0:0:
256,192,119427,1,8,0:0:0:0:
256,192,119506,1,0,0:0:0:0:
256,192,119585,1,8,0:0:0:0:
256,192,119743,1,0,0:0:0:0:
256,192,120059,1,8,0:0:0:0:
256,192,120216,1,0,0:0:0:0:
256,192,120295,1,0,0:0:0:0:
256,192,120374,1,8,0:0:0:0:
256,192,120532,1,0,0:0:0:0:
256,192,120690,1,8,0:0:0:0:
256,192,120848,1,8,0:0:0:0:
256,192,121164,1,0,0:0:0:0:
256,192,121243,1,0,0:0:0:0:
256,192,121322,1,8,0:0:0:0:
256,192,121480,1,0,0:0:0:0:
256,192,121637,1,8,0:0:0:0:
256,192,121795,1,0,0:0:0:0:
256,192,121953,1,8,0:0:0:0:
256,192,122032,1,0,0:0:0:0:
256,192,122111,1,0,0:0:0:0:
256,192,122269,1,8,0:0:0:0:
256,192,122585,1,8,0:0:0:0:
256,192,122743,1,0,0:0:0:0:
256,192,122822,1,0,0:0:0:0:
256,192,122901,1,8,0:0:0:0:
256,192,123059,1,0,0:0:0:0:
256,192,123216,1,8,0:0:0:0:
256,192,123295,1,0,0:0:0:0:
256,192,123374,1,8,0:0:0:0:
256,192,123532,1,0,0:0:0:0:
256,192,123690,1,0,0:0:0:0:
256,192,123848,1,8,0:0:0:0:
256,192,123927,1,8,0:0:0:0:
256,192,124006,1,0,0:0:0:0:
256,192,124164,1,0,0:0:0:0:
256,192,124243,1,0,0:0:0:0:
256,192,124322,1,8,0:0:0:0:
256,192,124480,1,8,0:0:0:0:
256,192,124559,1,0,0:0:0:0:
256,192,124637,1,0,0:0:0:0:
256,192,124795,1,8,0:0:0:0:
256,192,124874,1,8,0:0:0:0:
256,192,124953,1,0,0:0:0:0:
256,192,125111,1,12,0:0:0:0:
256,192,125269,1,0,0:0:0:0:
256,192,125348,1,0,0:0:0:0:
256,192,125427,1,0,0:0:0:0:
256,192,125585,1,8,0:0:0:0:
256,192,125901,1,0,0:0:0:0:
256,192,126059,1,8,0:0:0:0:
256,192,126216,1,0,0:0:0:0:
256,192,126295,1,0,0:0:0:0:
256,192,126374,1,8,0:0:0:0:
256,192,126532,1,8,0:0:0:0:
256,192,126848,1,0,0:0:0:0:
256,192,127006,1,8,0:0:0:0:
256,192,127164,1,0,0:0:0:0:
256,192,127243,1,0,0:0:0:0:
256,192,127322,1,8,0:0:0:0:
256,192,127401,1,0,0:0:0:0:
256,192,127480,1,8,0:0:0:0:
256,192,127637,1,0,0:0:0:0:
256,192,127795,1,8,0:0:0:0:
256,192,127953,1,0,0:0:0:0:
256,192,128111,1,8,0:0:0:0:
256,192,128190,1,8,0:0:0:0:
256,192,128269,1,0,0:0:0:0:
256,192,128427,1,8,0:0:0:0:
256,192,128743,1,8,0:0:0:0:
256,192,128901,1,0,0:0:0:0:
256,192,128980,1,0,0:0:0:0:
256,192,129059,1,0,0:0:0:0:
256,192,129137,1,0,0:0:0:0:
256,192,129216,1,8,0:0:0:0:
256,192,129374,1,8,0:0:0:0:
256,192,129453,1,8,0:0:0:0:
256,192,129532,1,0,0:0:0:0:
256,192,129690,1,0,0:0:0:0:
256,192,129848,1,8,0:0:0:0:
256,192,130164,1,8,0:0:0:0:
256,192,130243,1,8,0:0:0:0:
256,192,130322,1,0,0:0:0:0:
256,192,130480,1,0,0:0:0:0:
256,192,130637,1,8,0:0:0:0:
256,192,130953,1,0,0:0:0:0:
256,192,131111,1,8,0:0:0:0:
256,192,131190,1,0,0:0:0:0:
256,192,131269,1,8,0:0:0:0:
256,192,131427,1,0,0:0:0:0:
256,192,131506,1,0,0:0:0:0:
256,192,131585,1,8,0:0:0:0:
256,192,131901,1,0,0:0:0:0:
256,192,131980,1,0,0:0:0:0:
256,192,132059,1,8,0:0:0:0:
256,192,132216,1,0,0:0:0:0:
256,192,132374,1,8,0:0:0:0:
256,192,132453,1,0,0:0:0:0:
256,192,132532,1,8,0:0:0:0:
256,192,132690,1,0,0:0:0:0:
256,192,132848,1,0,0:0:0:0:
256,192,133006,1,8,0:0:0:0:
256,192,133085,1,0,0:0:0:0:
256,192,133164,1,0,0:0:0:0:
256,192,133322,1,8,0:0:0:0:
256,192,133401,1,0,0:0:0:0:
256,192,133480,1,8,0:0:0:0:
256,192,133637,1,0,0:0:0:0:
256,192,133716,1,0,0:0:0:0:
256,192,133795,1,0,0:0:0:0:
256,192,133874,1,0,0:0:0:0:
256,192,133953,1,8,0:0:0:0:
256,192,134111,1,0,0:0:0:0:
256,192,134427,1,0,0:0:0:0:
256,192,134585,1,8,0:0:0:0:
256,192,134743,1,8,0:0:0:0:
256,192,134901,1,0,0:0:0:0:
256,192,135216,1,0,0:0:0:0:
256,192,135532,1,12,0:0:0:0:
256,192,135690,1,0,0:0:0:0:
256,192,135769,1,0,0:0:0:0:
256,192,135848,1,8,0:0:0:0:
256,192,136006,1,8,0:0:0:0:
256,192,136164,1,0,0:0:0:0:
256,192,136322,1,8,0:0:0:0:
256,192,136637,1,8,0:0:0:0:
256,192,136795,1,0,0:0:0:0:
256,192,136953,1,0,0:0:0:0:
256,192,137032,1,0,0:0:0:0:
256,192,137111,1,8,0:0:0:0:
256,192,137269,1,0,0:0:0:0:
256,192,137427,1,8,0:0:0:0:
256,192,137743,1,8,0:0:0:0:
256,192,137901,1,0,0:0:0:0:
256,192,137980,1,0,0:0:0:0:
256,192,138059,1,8,0:0:0:0:
256,192,138216,1,0,0:0:0:0:
256,192,138374,1,8,0:0:0:0:
256,192,138690,1,0,0:0:0:0:
256,192,138848,1,8,0:0:0:0:
256,192,139006,1,0,0:0:0:0:
256,192,139085,1,0,0:0:0:0:
256,192,139164,1,0,0:0:0:0:
256,192,139243,1,0,0:0:0:0:
256,192,139322,1,8,0:0:0:0:
256,192,139480,1,8,0:0:0:0:
256,192,139559,1,0,0:0:0:0:
256,192,139637,1,8,0:0:0:0:
256,192,139795,1,0,0:0:0:0:
256,192,139953,1,8,0:0:0:0:
256,192,140269,1,8,0:0:0:0:
256,192,140427,1,0,0:0:0:0:
256,192,140506,1,0,0:0:0:0:
256,192,140585,1,8,0:0:0:0:
256,192,140743,1,0,0:0:0:0:
256,192,140901,1,8,0:0:0:0:
256,192,141216,1,8,0:0:0:0:
256,192,141374,1,8,0:0:0:0:
256,192,141532,1,0,0:0:0:0:
256,192,141690,1,0,0:0:0:0:
256,192,141769,1,0,0:0:0:0:
256,192,141848,1,8,0:0:0:0:
256,192,142006,1,0,0:0:0:0:
256,192,142164,1,8,0:0:0:0:
256,192,142322,1,0,0:0:0:0:
256,192,142480,1,0,0:0:0:0:
256,192,142795,1,8,0:0:0:0:
256,192,142953,1,0,0:0:0:0:
256,192,143032,1,0,0:0:0:0:
256,192,143111,1,8,0:0:0:0:
256,192,143269,1,8,0:0:0:0:
256,192,143427,1,0,0:0:0:0:
256,192,143585,1,0,0:0:0:0:
256,192,143743,1,8,0:0:0:0:
256,192,143901,1,0,0:0:0:0:
256,192,144059,1,0,0:0:0:0:
256,192,144137,1,0,0:0:0:0:
256,192,144216,1,0,0:0:0:0:
256,192,144295,1,0,0:0:0:0:
256,192,144374,1,8,0:0:0:0:
256,192,144532,1,0,0:0:0:0:
256,192,144690,1,8,0:0:0:0:
256,192,145006,1,0,0:0:0:0:
256,192,145322,1,12,0:0:0:0:
256,192,145480,1,0,0:0:0:0:
256,192,145559,1,0,0:0:0:0:
256,192,145637,1,8,0:0:0:0:
256,192,145795,1,8,0:0:0:0:
256,192,145953,1,8,0:0:0:0:
256,192,146032,1,8,0:0:0:0:
256,192,146111,1,0,0:0:0:0:
256,192,146269,1,8,0:0:0:0:
256,192,146427,1,0,0:0:0:0:
256,192,146506,1,0,0:0:0:0:
256,192,146585,1,8,0:0:0:0:
256,192,146743,1,8,0:0:0:0:
256,192,146901,1,8,0:0:0:0:
256,192,146980,1,0,0:0:0:0:
256,192,147059,1,0,0:0:0:0:
256,192,147374,1,0,0:0:0:0:
256,192,147453,1,0,0:0:0:0:
256,192,147532,1,8,0:0:0:0:
256,192,147690,1,0,0:0:0:0:
256,192,147848,1,8,0:0:0:0:
256,192,148006,1,8,0:0:0:0:
256,192,148085,1,0,0:0:0:0:
256,192,148164,1,8,0:0:0:0:
256,192,148322,1,0,0:0:0:0:
256,192,148637,1,0,0:0:0:0:
256,192,148716,1,0,0:0:0:0:
256,192,148795,1,8,0:0:0:0:
256,192,148953,1,8,0:0:0:0:
256,192,149111,1,0,0:0:0:0:
256,192,149190,1,0,0:0:0:0:
256,192,149269,1,0,0:0:0:0:
256,192,149348,1,0,0:0:0:0:
256,192,149427,1,8,0:0:0:0:
256,192,149585,1,0,0:0:0:0:
256,192,149901,1,0,0:0:0:0:
256,192,150059,1,8,0:0:0:0:
256,192,150137,1,0,0:0:0:0:
256,192,150216,1,8,0:0:0:0:
256,192,150374,1,8,0:0:0:0:
256,192,150690,1,8,0:0:0:0:
256,192,150769,1,0,0:0:0:0:
256,192,150848,1,0,0:0:0:0:
256,192,150927,1,0,0:0:0:0:
256,192,151006,1,8,0:0:0:0:
256,192,151164,1,0,0:0:0:0:
256,192,151322,1,8,0:0:0:0:
256,192,151401,1,0,0:0:0:0:
256,192,151480,1,0,0:0:0:0:
256,192,151637,1,0,0:0:0:0:
256,192,151795,1,8,0:0:0:0:
256,192,151874,1,0,0:0:0:0:
256,192,151953,1,8,0:0:0:0:
256,192,152111,1,0,0:0:0:0:
256,192,152427,1,0,0:0:0:0:
256,192,152585,1,8,0:0:0:0:
256,192,152743,1,8,0:0:0:0:
256,192,152901,1,8,0:0:0:0:
256,192,152980,1,8,0:0:0:0:
256,192,153059,1,0,0:0:0:0:
256,192,153216,1,0,0:0:0:0:
256,192,153295,1,0,0:0:0:0:
256,192,153374,1,8,0:0:0:0:
256,192,153453,1,8,0:0:0:0:
256,192,153532,1,0,0:0:0:0:
256,192,153690,1,8,0:0:0:0:
256,192,153769,1,0,0:0:0:0:
256,192,153848,1,8,0:0:0:0:
256,192,154164,1,0,0:0:0:0:
256,192,154243,1,0,0:0:0:0:
256,192,154322,1,0,0:0:0:0:
256,192,154401,1,0,0:0:0:0:
256,192,154480,1,8,0:0:0:0:
256,192,154637,1,0,0:0:0:0:
256,192,154795,1,8,0:0:0:0:
256,192,154874,1,8,0:0:0:0:
256,192,154953,1,0,0:0:0:0:
256,192,155032,1,0,0:0:0:0:
256,192,155111,1,8,0:0:0:0:
256,192,155427,1,12,0:0:0:0:
256,192,155901,1,0,0:0:0:0:
256,192,156059,1,8,0:0:0:0:
256,192,156532,1,0,0:0:0:0:
256,192,156690,1,8,0:0:0:0:
256,192,157006,1,0,0:0:0:0:
256,192,157322,1,8,0:0:0:0:
256,192,157637,1,0,0:0:0:0:
256,192,157953,1,8,0:0:0:0:
256,192,158427,1,0,0:0:0:0:
256,192,158585,1,8,0:0:0:0:
256,192,159059,1,0,0:0:0:0:
256,192,159216,1,8,0:0:0:0:
256,192,159374,1,8,0:0:0:0:
256,192,159690,1,0,0:0:0:0:
256,192,160006,1,8,0:0:0:0:
256,192,160480,1,8,0:0:0:0:
256,192,160953,1,0,0:0:0:0:
256,192,161111,1,8,0:0:0:0:
256,192,161585,1,0,0:0:0:0:
256,192,161743,1,8,0:0:0:0:
256,192,162059,1,0,0:0:0:0:
256,192,162374,1,8,0:0:0:0:
256,192,162690,1,8,0:0:0:0:
256,192,163006,1,0,0:0:0:0:
256,192,163480,1,0,0:0:0:0:
256,192,163637,1,8,0:0:0:0:
256,192,164111,1,0,0:0:0:0:
256,192,164269,1,8,0:0:0:0:
256,192,164427,1,8,0:0:0:0:
256,192,164743,1,0,0:0:0:0:
256,192,165059,1,8,0:0:0:0:
256,192,165216,1,0,0:0:0:0:
256,192,165532,1,12,0:0:0:0:
256,192,165848,1,0,0:0:0:0:
256,192,166006,1,0,0:0:0:0:
256,192,166164,1,8,0:0:0:0:
256,192,166480,1,0,0:0:0:0:
256,192,166637,1,8,0:0:0:0:
256,192,166795,1,0,0:0:0:0:
256,192,167111,1,0,0:0:0:0:
256,192,167427,1,8,0:0:0:0:
256,192,167743,1,0,0:0:0:0:
256,192,167901,1,0,0:0:0:0:
256,192,168059,1,8,0:0:0:0:
256,192,168374,1,0,0:0:0:0:
256,192,168532,1,8,0:0:0:0:
256,192,168690,1,8,0:0:0:0:
256,192,169006,1,0,0:0:0:0:
256,192,169164,1,8,0:0:0:0:
256,192,169322,1,0,0:0:0:0:
256,192,169480,1,8,0:0:0:0:
256,192,169795,1,8,0:0:0:0:
256,192,170111,1,8,0:0:0:0:
256,192,170269,1,0,0:0:0:0:
256,192,170585,1,8,0:0:0:0:
256,192,170743,1,0,0:0:0:0:
256,192,170901,1,0,0:0:0:0:
256,192,171059,1,8,0:0:0:0:
256,192,171216,1,8,0:0:0:0:
256,192,171532,1,0,0:0:0:0:
256,192,171690,1,0,0:0:0:0:
256,192,171848,1,8,0:0:0:0:
256,192,172164,1,8,0:0:0:0:
256,192,172480,1,8,0:0:0:0:
256,192,172637,1,0,0:0:0:0:
256,192,172795,1,8,0:0:0:0:
256,192,173111,1,8,0:0:0:0:
256,192,173190,1,8,0:0:0:0:
256,192,173269,1,0,0:0:0:0:
256,192,173348,1,0,0:0:0:0:
256,192,173427,1,0,0:0:0:0:
256,192,173585,1,0,0:0:0:0:
256,192,173664,1,0,0:0:0:0:
256,192,173743,1,8,0:0:0:0:
256,192,173822,1,0,0:0:0:0:
256,192,173901,1,8,0:0:0:0:
256,192,174059,1,0,0:0:0:0:
256,192,174137,1,0,0:0:0:0:
256,192,174216,1,8,0:0:0:0:
256,192,174374,1,12,0:0:0:0:
256,192,174532,1,0,0:0:0:0:
256,192,174690,1,12,0:0:0:0:
256,192,174848,1,0,0:0:0:0:
256,192,175006,1,12,0:0:0:0:
256,192,175164,1,0,0:0:0:0:
256,192,175322,1,12,0:0:0:0:
256,192,175637,1,12,0:0:0:0:
256,192,175795,1,0,0:0:0:0:
256,192,175874,1,0,0:0:0:0:
256,192,175953,1,8,0:0:0:0:
256,192,176111,1,0,0:0:0:0:
256,192,176269,1,8,0:0:0:0:
256,192,176427,1,8,0:0:0:0:
256,192,176506,1,8,0:0:0:0:
256,192,176585,1,0,0:0:0:0:
256,192,176743,1,0,0:0:0:0:
256,192,176901,1,8,0:0:0:0:
256,192,177059,1,8,0:0:0:0:
256,192,177137,1,8,0:0:0:0:
256,192,177216,1,0,0:0:0:0:
256,192,177374,1,0,0:0:0:0:
256,192,177453,1,0,0:0:0:0:
256,192,177532,1,8,0:0:0:0:
256,192,177690,1,0,0:0:0:0:
256,192,177848,1,8,0:0:0:0:
256,192,178164,1,8,0:0:0:0:
256,192,178322,1,0,0:0:0:0:
256,192,178401,1,0,0:0:0:0:
256,192,178480,1,8,0:0:0:0:
256,192,178637,1,0,0:0:0:0:
256,192,178795,1,8,0:0:0:0:
256,192,178953,1,8,0:0:0:0:
256,192,179032,1,8,0:0:0:0:
256,192,179111,1,0,0:0:0:0:
256,192,179269,1,8,0:0:0:0:
256,192,179427,1,0,0:0:0:0:
256,192,179506,1,0,0:0:0:0:
256,192,179585,1,0,0:0:0:0:
256,192,179664,1,0,0:0:0:0:
256,192,179743,1,8,0:0:0:0:
256,192,179901,1,0,0:0:0:0:
256,192,180059,1,8,0:0:0:0:
256,192,180216,1,0,0:0:0:0:
256,192,180295,1,0,0:0:0:0:
256,192,180374,1,8,0:0:0:0:
256,192,180690,1,0,0:0:0:0:
256,192,180848,1,0,0:0:0:0:
256,192,180927,1,0,0:0:0:0:
256,192,181006,1,8,0:0:0:0:
256,192,181164,1,0,0:0:0:0:
256,192,181322,1,8,0:0:0:0:
256,192,181401,1,0,0:0:0:0:
256,192,181480,1,0,0:0:0:0:
256,192,181637,1,0,0:0:0:0:
256,192,181716,1,8,0:0:0:0:
256,192,181795,1,0,0:0:0:0:
256,192,181953,1,8,0:0:0:0:
256,192,182111,1,8,0:0:0:0:
256,192,182190,1,8,0:0:0:0:
256,192,182269,1,0,0:0:0:0:
256,192,182427,1,0,0:0:0:0:
256,192,182585,1,8,0:0:0:0:
256,192,182664,1,0,0:0:0:0:
256,192,182743,1,0,0:0:0:0:
256,192,182901,1,8,0:0:0:0:
256,192,183216,1,8,0:0:0:0:
256,192,183374,1,8,0:0:0:0:
256,192,183453,1,8,0:0:0:0:
256,192,183532,1,0,0:0:0:0:
256,192,183690,1,0,0:0:0:0:
256,192,183848,1,8,0:0:0:0:
256,192,183927,1,0,0:0:0:0:
256,192,184006,1,8,0:0:0:0:
256,192,184164,1,0,0:0:0:0:
256,192,184322,1,8,0:0:0:0:
256,192,184480,1,0,0:0:0:0:
256,192,184559,1,0,0:0:0:0:
256,192,184637,1,0,0:0:0:0:
256,192,184716,1,0,0:0:0:0:
256,192,184795,1,8,0:0:0:0:
256,192,184953,1,0,0:0:0:0:
256,192,185111,1,8,0:0:0:0:
256,192,185190,1,0,0:0:0:0:
256,192,185269,1,8,0:0:0:0:
256,192,185427,1,8,0:0:0:0:
256,192,185743,1,12,0:0:0:0:
256,192,185901,1,0,0:0:0:0:
256,192,185980,1,0,0:0:0:0:
256,192,186059,1,8,0:0:0:0:
256,192,186216,1,0,0:0:0:0:
256,192,186374,1,8,0:0:0:0:
256,192,186532,1,8,0:0:0:0:
256,192,186690,1,0,0:0:0:0:
256,192,186769,1,8,0:0:0:0:
256,192,186848,1,0,0:0:0:0:
256,192,187006,1,8,0:0:0:0:
256,192,187164,1,8,0:0:0:0:
256,192,187243,1,8,0:0:0:0:
256,192,187322,1,0,0:0:0:0:
256,192,187480,1,0,0:0:0:0:
256,192,187559,1,0,0:0:0:0:
256,192,187637,1,8,0:0:0:0:
256,192,187795,1,0,0:0:0:0:
256,192,187953,1,8,0:0:0:0:
256,192,188269,1,8,0:0:0:0:
256,192,188427,1,0,0:0:0:0:
256,192,188506,1,0,0:0:0:0:
256,192,188585,1,8,0:0:0:0:
256,192,188743,1,0,0:0:0:0:
256,192,188901,1,8,0:0:0:0:
256,192,189059,1,8,0:0:0:0:
256,192,189216,1,0,0:0:0:0:
256,192,189374,1,0,0:0:0:0:
256,192,189532,1,0,0:0:0:0:
256,192,189611,1,0,0:0:0:0:
256,192,189690,1,0,0:0:0:0:
256,192,189769,1,0,0:0:0:0:
256,192,189848,1,8,0:0:0:0:
256,192,190006,1,0,0:0:0:0:
256,192,190164,1,8,0:0:0:0:
256,192,190243,1,0,0:0:0:0:
256,192,190322,1,0,0:0:0:0:
256,192,190480,1,8,0:0:0:0:
256,192,190795,1,0,0:0:0:0:
256,192,190953,1,0,0:0:0:0:
256,192,191032,1,0,0:0:0:0:
256,192,191111,1,8,0:0:0:0:
256,192,191269,1,0,0:0:0:0:
256,192,191427,1,8,0:0:0:0:
256,192,191585,1,0,0:0:0:0:
256,192,191743,1,0,0:0:0:0:
256,192,191822,1,0,0:0:0:0:
256,192,191901,1,8,0:0:0:0:
256,192,192059,1,8,0:0:0:0:
256,192,192216,1,8,0:0:0:0:
256,192,192295,1,8,0:0:0:0:
256,192,192374,1,0,0:0:0:0:
256,192,192532,1,0,0:0:0:0:
256,192,192690,1,8,0:0:0:0:
256,192,192769,1,0,0:0:0:0:
256,192,192848,1,0,0:0:0:0:
256,192,193006,1,8,0:0:0:0:
256,192,193322,1,8,0:0:0:0:
256,192,193480,1,8,0:0:0:0:
256,192,193559,1,8,0:0:0:0:
256,192,193637,1,0,0:0:0:0:
256,192,193795,1,0,0:0:0:0:
256,192,193874,1,0,0:0:0:0:
256,192,193953,1,8,0:0:0:0:
256,192,194111,1,8,0:0:0:0:
256,192,194269,1,0,0:0:0:0:
256,192,194427,1,0,0:0:0:0:
256,192,194506,1,0,0:0:0:0:
256,192,194585,1,8,0:0:0:0:
256,192,194743,1,8,0:0:0:0:
256,192,195059,1,8,0:0:0:0:
256,192,195216,1,0,0:0:0:0:
256,192,195374,1,8,0:0:0:0:
256,192,195453,1,8,0:0:0:0:
256,192,195532,1,8,0:0:0:0:
256,192,195611,1,8,0:0:0:0:
256,192,195690,1,0,0:0:0:0:
256,192,195848,1,12,0:0:0:0:
256,192,196006,1,0,0:0:0:0:
256,192,196085,1,0,0:0:0:0:
256,192,196164,1,8,0:0:0:0:
256,192,196322,1,0,0:0:0:0:
256,192,196480,1,8,0:0:0:0:
256,192,196637,1,0,0:0:0:0:
256,192,196953,1,0,0:0:0:0:
256,192,197111,1,8,0:0:0:0:
256,192,197269,1,0,0:0:0:0:
256,192,197348,1,0,0:0:0:0:
256,192,197427,1,8,0:0:0:0:
256,192,197585,1,0,0:0:0:0:
256,192,197901,1,0,0:0:0:0:
256,192,198059,1,8,0:0:0:0:
256,192,198137,1,0,0:0:0:0:
256,192,198216,1,8,0:0:0:0:
256,192,198374,1,0,0:0:0:0:
256,192,198532,1,0,0:0:0:0:
256,192,198611,1,0,0:0:0:0:
256,192,198690,1,8,0:0:0:0:
256,192,198848,1,0,0:0:0:0:
256,192,199164,1,0,0:0:0:0:
256,192,199322,1,8,0:0:0:0:
256,192,199401,1,8,0:0:0:0:
256,192,199480,1,0,0:0:0:0:
256,192,199637,1,0,0:0:0:0:
256,192,199716,1,0,0:0:0:0:
256,192,199795,1,0,0:0:0:0:
256,192,199874,1,0,0:0:0:0:
256,192,199953,1,8,0:0:0:0:
256,192,200111,1,0,0:0:0:0:
256,192,200269,1,8,0:0:0:0:
256,192,200348,1,0,0:0:0:0:
256,192,200427,1,8,0:0:0:0:
256,192,200585,1,0,0:0:0:0:
256,192,200901,1,0,0:0:0:0:
256,192,201059,1,0,0:0:0:0:
256,192,201137,1,0,0:0:0:0:
256,192,201216,1,8,0:0:0:0:
256,192,201374,1,0,0:0:0:0:
256,192,201532,1,0,0:0:0:0:
256,192,201611,1,0,0:0:0:0:
256,192,201690,1,8,0:0:0:0:
256,192,201848,1,8,0:0:0:0:
256,192,202164,1,0,0:0:0:0:
256,192,202322,1,0,0:0:0:0:
256,192,202401,1,0,0:0:0:0:
256,192,202480,1,8,0:0:0:0:
256,192,202637,1,0,0:0:0:0:
256,192,202795,1,8,0:0:0:0:
256,192,202874,1,8,0:0:0:0:
256,192,202953,1,0,0:0:0:0:
256,192,203111,1,0,0:0:0:0:
256,192,203427,1,0,0:0:0:0:
256,192,203585,1,0,0:0:0:0:
256,192,203664,1,0,0:0:0:0:
256,192,203743,1,8,0:0:0:0:
256,192,203901,1,0,0:0:0:0:
256,192,204059,1,8,0:0:0:0:
256,192,204137,1,0,0:0:0:0:
256,192,204216,1,8,0:0:0:0:
256,192,204374,1,0,0:0:0:0:
256,192,204690,1,0,0:0:0:0:
256,192,204769,1,0,0:0:0:0:
256,192,204848,1,0,0:0:0:0:
256,192,204927,1,0,0:0:0:0:
256,192,205006,1,8,0:0:0:0:
256,192,205164,1,0,0:0:0:0:
256,192,205322,1,8,0:0:0:0:
256,192,205401,1,0,0:0:0:0:
256,192,205480,1,8,0:0:0:0:
256,192,205637,1,8,0:0:0:0:
256,192,205795,1,0,0:0:0:0:
256,192,205953,1,12,0:0:0:0:
256,192,206111,1,0,0:0:0:0:
256,192,206190,1,0,0:0:0:0:
256,192,206269,1,8,0:0:0:0:
256,192,206427,1,0,0:0:0:0:
256,192,206585,1,8,0:0:0:0:
256,192,206743,1,0,0:0:0:0:
256,192,207059,1,0,0:0:0:0:
256,192,207216,1,8,0:0:0:0:
256,192,207374,1,0,0:0:0:0:
256,192,207453,1,0,0:0:0:0:
256,192,207532,1,8,0:0:0:0:
256,192,207690,1,0,0:0:0:0:
256,192,208006,1,0,0:0:0:0:
256,192,208164,1,8,0:0:0:0:
256,192,208243,1,0,0:0:0:0:
256,192,208322,1,8,0:0:0:0:
256,192,208480,1,0,0:0:0:0:
256,192,208637,1,0,0:0:0:0:
256,192,208716,1,0,0:0:0:0:
256,192,208795,1,8,0:0:0:0:
256,192,208953,1,0,0:0:0:0:
256,192,209269,1,0,0:0:0:0:
256,192,209427,1,8,0:0:0:0:
256,192,209506,1,8,0:0:0:0:
256,192,209585,1,0,0:0:0:0:
256,192,209743,1,0,0:0:0:0:
256,192,209822,1,0,0:0:0:0:
256,192,209901,1,0,0:0:0:0:
256,192,209980,1,0,0:0:0:0:
256,192,210059,1,8,0:0:0:0:
256,192,210216,1,0,0:0:0:0:
256,192,210374,1,8,0:0:0:0:
256,192,210453,1,0,0:0:0:0:
256,192,210532,1,8,0:0:0:0:
256,192,210690,1,0,0:0:0:0:
256,192,211006,1,0,0:0:0:0:
256,192,211164,1,0,0:0:0:0:
256,192,211243,1,0,0:0:0:0:
256,192,211322,1,8,0:0:0:0:
256,192,211480,1,0,0:0:0:0:
256,192,211637,1,0,0:0:0:0:
256,192,211716,1,0,0:0:0:0:
256,192,211795,1,8,0:0:0:0:
256,192,211953,1,8,0:0:0:0:
256,192,212269,1,0,0:0:0:0:
256,192,212427,1,0,0:0:0:0:
256,192,212506,1,0,0:0:0:0:
256,192,212585,1,8,0:0:0:0:
256,192,212743,1,0,0:0:0:0:
256,192,212901,1,8,0:0:0:0:
256,192,212980,1,8,0:0:0:0:
256,192,213059,1,0,0:0:0:0:
256,192,213216,1,0,0:0:0:0:
256,192,213532,1,0,0:0:0:0:
256,192,213690,1,0,0:0:0:0:
256,192,213769,1,0,0:0:0:0:
256,192,213848,1,8,0:0:0:0:
256,192,214006,1,0,0:0:0:0:
256,192,214164,1,8,0:0:0:0:
256,192,214243,1,0,0:0:0:0:
256,192,214322,1,8,0:0:0:0:
256,192,214480,1,0,0:0:0:0:
256,192,214637,1,8,0:0:0:0:
256,192,214795,1,0,0:0:0:0:
256,192,214874,1,0,0:0:0:0:
256,192,214953,1,0,0:0:0:0:
256,192,215032,1,0,0:0:0:0:
256,192,215111,1,8,0:0:0:0:
256,192,215269,1,0,0:0:0:0:
256,192,215427,1,8,0:0:0:0:
256,192,215506,1,0,0:0:0:0:
256,192,215585,1,8,0:0:0:0:
256,192,215664,1,8,0:0:0:0:
256,192,215743,1,0,0:0:0:0:
256,192,215901,1,0,0:0:0:0:
256,192,216059,1,12,0:0:0:0:
256,192,216216,1,0,0:0:0:0:
256,192,216295,1,0,0:0:0:0:
256,192,216374,1,0,0:0:0:0:
256,192,216532,1,0,0:0:0:0:
256,192,216690,1,8,0:0:0:0:
256,192,216848,1,0,0:0:0:0:
256,192,217164,1,0,0:0:0:0:
256,192,217322,1,8,0:0:0:0:
256,192,217480,1,0,0:0:0:0:
256,192,217559,1,0,0:0:0:0:
256,192,217637,1,8,0:0:0:0:
256,192,217795,1,0,0:0:0:0:
256,192,217953,1,8,0:0:0:0:
256,192,218032,1,0,0:0:0:0:
256,192,218111,1,0,0:0:0:0:
256,192,218269,1,8,0:0:0:0:
256,192,218585,1,8,0:0:0:0:
256,192,218743,1,0,0:0:0:0:
256,192,218822,1,0,0:0:0:0:
256,192,218901,1,8,0:0:0:0:
256,192,219059,1,0,0:0:0:0:
256,192,219216,1,8,0:0:0:0:
256,192,219374,1,8,0:0:0:0:
256,192,219690,1,0,0:0:0:0:
256,192,219848,1,0,0:0:0:0:
256,192,219927,1,0,0:0:0:0:
256,192,220006,1,0,0:0:0:0:
256,192,220085,1,0,0:0:0:0:
256,192,220164,1,8,0:0:0:0:
256,192,220322,1,0,0:0:0:0:
256,192,220480,1,8,0:0:0:0:
256,192,220559,1,0,0:0:0:0:
256,192,220637,1,8,0:0:0:0:
256,192,220795,1,0,0:0:0:0:
256,192,221111,1,8,0:0:0:0:
256,192,221269,1,0,0:0:0:0:
256,192,221348,1,0,0:0:0:0:
256,192,221427,1,8,0:0:0:0:
256,192,221585,1,0,0:0:0:0:
256,192,221743,1,8,0:0:0:0:
256,192,221901,1,8,0:0:0:0:
256,192,222216,1,0,0:0:0:0:
256,192,222295,1,0,0:0:0:0:
256,192,222374,1,8,0:0:0:0:
256,192,222532,1,0,0:0:0:0:
256,192,222690,1,8,0:0:0:0:
256,192,222848,1,0,0:0:0:0:
256,192,223006,1,8,0:0:0:0:
256,192,223085,1,0,0:0:0:0:
256,192,223164,1,0,0:0:0:0:
256,192,223322,1,8,0:0:0:0:
256,192,223637,1,8,0:0:0:0:
256,192,223795,1,0,0:0:0:0:
256,192,223874,1,0,0:0:0:0:
256,192,223953,1,8,0:0:0:0:
256,192,224111,1,0,0:0:0:0:
256,192,224269,1,8,0:0:0:0:
256,192,224427,1,8,0:0:0:0:
256,192,224585,1,0,0:0:0:0:
256,192,224901,1,0,0:0:0:0:
256,192,224980,1,0,0:0:0:0:
256,192,225059,1,0,0:0:0:0:
256,192,225137,1,0,0:0:0:0:
256,192,225216,1,8,0:0:0:0:
256,192,225374,1,0,0:0:0:0:
256,192,225453,1,0,0:0:0:0:
256,192,225532,1,8,0:0:0:0:
256,192,225690,1,0,0:0:0:0:
256,192,225848,1,8,0:0:0:0:
256,192,226164,1,12,0:0:0:0:
256,192,226322,1,0,0:0:0:0:
256,192,226401,1,0,0:0:0:0:
256,192,226480,1,0,0:0:0:0:
256,192,226637,1,0,0:0:0:0:
256,192,226795,1,8,0:0:0:0:
256,192,226953,1,0,0:0:0:0:
256,192,227269,1,0,0:0:0:0:
256,192,227427,1,8,0:0:0:0:
256,192,227585,1,0,0:0:0:0:
256,192,227664,1,0,0:0:0:0:
256,192,227743,1,8,0:0:0:0:
256,192,227901,1,0,0:0:0:0:
256,192,228059,1,8,0:0:0:0:
256,192,228137,1,0,0:0:0:0:
256,192,228216,1,0,0:0:0:0:
256,192,228374,1,8,0:0:0:0:
256,192,228690,1,8,0:0:0:0:
256,192,228848,1,0,0:0:0:0:
256,192,228927,1,0,0:0:0:0:
256,192,229006,1,8,0:0:0:0:
256,192,229164,1,0,0:0:0:0:
256,192,229322,1,8,0:0:0:0:
256,192,229480,1,8,0:0:0:0:
256,192,229795,1,0,0:0:0:0:
256,192,229953,1,0,0:0:0:0:
256,192,230032,1,0,0:0:0:0:
256,192,230111,1,0,0:0:0:0:
256,192,230190,1,0,0:0:0:0:
256,192,230269,1,8,0:0:0:0:
256,192,230427,1,0,0:0:0:0:
256,192,230585,1,8,0:0:0:0:
256,192,230664,1,0,0:0:0:0:
256,192,230743,1,8,0:0:0:0:
256,192,230901,1,0,0:0:0:0:
256,192,231216,1,8,0:0:0:0:
256,192,231374,1,0,0:0:0:0:
256,192,231453,1,0,0:0:0:0:
256,192,231532,1,8,0:0:0:0:
256,192,231690,1,0,0:0:0:0:
256,192,231848,1,8,0:0:0:0:
256,192,232006,1,8,0:0:0:0:
256,192,232322,1,0,0:0:0:0:
256,192,232401,1,0,0:0:0:0:
256,192,232480,1,8,0:0:0:0:
256,192,232637,1,0,0:0:0:0:
256,192,232795,1,8,0:0:0:0:
256,192,232953,1,0,0:0:0:0:
256,192,233111,1,8,0:0:0:0:
256,192,233190,1,0,0:0:0:0:
256,192,233269,1,0,0:0:0:0:
256,192,233427,1,8,0:0:0:0:
256,192,233743,1,8,0:0:0:0:
256,192,233901,1,0,0:0:0:0:
256,192,233980,1,0,0:0:0:0:
256,192,234059,1,8,0:0:0:0:
256,192,234216,1,0,0:0:0:0:
256,192,234374,1,8,0:0:0:0:
256,192,234532,1,8,0:0:0:0:
256,192,234690,1,0,0:0:0:0:
256,192,235006,1,8,0:0:0:0:
256,192,235085,1,8,0:0:0:0:
256,192,235164,1,0,0:0:0:0:
256,192,235322,1,0,0:0:0:0:
256,192,235480,1,8,0:0:0:0:
256,192,235637,1,8,0:0:0:0:
256,192,235716,1,0,0:0:0:0:
256,192,235795,1,0,0:0:0:0:
256,192,235953,1,8,0:0:0:0:
256,192,236032,1,0,0:0:0:0:
256,192,236111,1,0,0:0:0:0:
256,192,236269,1,12,0:0:0:0:
256,192,236585,1,8,0:0:0:0:
256,192,236743,1,0,0:0:0:0:
256,192,236822,1,0,0:0:0:0:
256,192,236901,1,8,0:0:0:0:
256,192,237059,1,0,0:0:0:0:
256,192,237216,1,8,0:0:0:0:
256,192,237295,1,0,0:0:0:0:
256,192,237374,1,8,0:0:0:0:
256,192,237532,1,0,0:0:0:0:
256,192,237690,1,0,0:0:0:0:
256,192,237769,1,0,0:0:0:0:
256,192,237848,1,8,0:0:0:0:
256,192,238006,1,0,0:0:0:0:
256,192,238322,1,0,0:0:0:0:
256,192,238480,1,8,0:0:0:0:
256,192,238559,1,8,0:0:0:0:
256,192,238637,1,0,0:0:0:0:
256,192,238795,1,0,0:0:0:0:
256,192,238953,1,0,0:0:0:0:
256,192,239032,1,0,0:0:0:0:
256,192,239111,1,8,0:0:0:0:
256,192,239269,1,0,0:0:0:0:
256,192,239585,1,0,0:0:0:0:
256,192,239743,1,8,0:0:0:0:
256,192,239822,1,0,0:0:0:0:
256,192,239901,1,8,0:0:0:0:
256,192,240059,1,0,0:0:0:0:
256,192,240137,1,0,0:0:0:0:
256,192,240216,1,0,0:0:0:0:
256,192,240295,1,0,0:0:0:0:
256,192,240374,1,8,0:0:0:0:
256,192,240532,1,0,0:0:0:0:
256,192,240690,1,8,0:0:0:0:
256,192,240848,1,8,0:0:0:0:
256,192,241006,1,0,0:0:0:0:
256,192,241085,1,8,0:0:0:0:
256,192,241164,1,0,0:0:0:0:
256,192,241322,1,12,0:0:0:0:
256,192,241637,1,8,0:0:0:0:
256,192,241795,1,0,0:0:0:0:
256,192,241874,1,0,0:0:0:0:
256,192,241953,1,8,0:0:0:0:
256,192,242111,1,0,0:0:0:0:
256,192,242269,1,8,0:0:0:0:
256,192,242348,1,0,0:0:0:0:
256,192,242427,1,8,0:0:0:0:
256,192,242585,1,0,0:0:0:0:
256,192,242743,1,0,0:0:0:0:
256,192,242822,1,0,0:0:0:0:
256,192,242901,1,8,0:0:0:0:
256,192,243059,1,0,0:0:0:0:
256,192,243374,1,0,0:0:0:0:
256,192,243532,1,8,0:0:0:0:
256,192,243611,1,8,0:0:0:0:
256,192,243690,1,0,0:0:0:0:
256,192,243848,1,0,0:0:0:0:
256,192,244006,1,0,0:0:0:0:
256,192,244085,1,0,0:0:0:0:
256,192,244164,1,8,0:0:0:0:
256,192,244322,1,0,0:0:0:0:
256,192,244637,1,0,0:0:0:0:
256,192,244795,1,8,0:0:0:0:
256,192,244874,1,0,0:0:0:0:
256,192,244953,1,8,0:0:0:0:
256,192,245111,1,8,0:0:0:0:
256,192,245190,1,8,0:0:0:0:
256,192,245269,1,0,0:0:0:0:
256,192,245427,1,0,0:0:0:0:
256,192,245585,1,8,0:0:0:0:
256,192,245743,1,8,0:0:0:0:
256,192,245822,1,0,0:0:0:0:
256,192,245901,1,0,0:0:0:0:
256,192,246059,1,8,0:0:0:0:
256,192,246137,1,0,0:0:0:0:
256,192,246216,1,0,0:0:0:0:
256,192,246295,1,0,0:0:0:0:
