osu file format v14

[General]
AudioFilename: audio.mp3
AudioLeadIn: 0
PreviewTime: 155427
Countdown: 0
SampleSet: Normal
StackLeniency: 0.7
Mode: 1
LetterboxInBreaks: 0
WidescreenStoryboard: 1

[Editor]
Bookmarks: 59,11427,21532,31637,41743,54374,64480,74585,84690,104901,115006,125111,135532,145322,155427,165532,175637,195848,205953,216059,226164,236269,246295
DistanceSpacing: 0.1
BeatDivisor: 4
GridSize: 32
TimelineZoom: 0.9999999

[Metadata]
Title:Aimless Voyage
TitleUnicode:Aimless Voyage
Artist:LiLA'c Records
ArtistUnicode:LiLA'c Records
Creator:Realazy
Version:Kantan
Source:東方永夜抄 ~ Imperishable Night.
Tags:Ayyri 東方Project Touhou Toho ZUN Team Shanghai Alice Eiyashou Eternal Night Vignette TH08 TH 8 Final Stage Theme Irus Neeshe 愛原佑季 Yuuki Aihara ヴォヤージュ1969 Voyage 1969 Eirin Yagokoro 八意 永琳 Eternize Reitaisai 9 RTS9 RTS LLAC-001
BeatmapID:1509445
BeatmapSetID:714233

[Difficulty]
HPDrainRate:7
CircleSize:2
OverallDifficulty:3
ApproachRate:10
SliderMultiplier:1.4
SliderTickRate:1

[Events]
//Background and Video events
0,0,"Eirin 465.jpg",0,0
//Break Periods
//Storyboard Layer 0 (Background)
//Storyboard Layer 1 (Fail)
//Storyboard Layer 2 (Pass)
//Storyboard Layer 3 (Foreground)
//Storyboard Sound Samples

[TimingPoints]
59,315.789473684211,4,1,0,60,1,0
84690,-100,4,1,0,60,0,1
104901,-100,4,1,0,60,0,0
175637,-100,4,1,0,60,0,1
194585,-100,4,1,0,60,0,0

[HitObjects]
256,192,59,5,8,0:0:0:0:
256,192,1322,1,12,0:0:0:0:
256,192,1637,1,8,0:0:0:0:
256,192,2585,1,0,0:0:0:0:
256,192,2901,1,8,0:0:0:0:
256,192,3848,1,8,0:0:0:0:
256,192,4164,1,8,0:0:0:0:
256,192,5111,1,0,0:0:0:0:
256,192,5427,1,8,0:0:0:0:
256,192,6374,1,12,0:0:0:0:
256,192,7637,1,0,0:0:0:0:
256,192,7953,1,8,0:0:0:0:
256,192,8901,1,8,0:0:0:0:
256,192,10164,1,0,0:0:0:0:
256,192,10480,1,8,0:0:0:0:
256,192,10795,1,8,0:0:0:0:
256,192,11427,1,12,0:0:0:0:
256,192,12059,1,0,0:0:0:0:
256,192,12690,1,8,0:0:0:0:
256,192,13006,1,8,0:0:0:0:
256,192,13322,1,0,0:0:0:0:
256,192,13953,1,8,0:0:0:0:
256,192,14585,1,8,0:0:0:0:
256,192,15216,1,0,0:0:0:0:
256,192,15532,1,8,0:0:0:0:
256,192,15848,1,0,0:0:0:0:
256,192,16480,1,8,0:0:0:0:
256,192,17111,1,8,0:0:0:0:
256,192,17743,1,8,0:0:0:0:
256,192,18059,1,0,0:0:0:0:
256,192,18374,1,8,0:0:0:0:
256,192,19006,1,8,0:0:0:0:
256,192,20269,1,0,0:0:0:0:
256,192,20585,1,8,0:0:0:0:
256,192,20901,1,0,0:0:0:0:
256,192,21532,1,12,0:0:0:0:
256,192,22164,1,0,0:0:0:0:
256,192,22795,1,8,0:0:0:0:
256,192,23111,1,8,0:0:0:0:
256,192,23427,1,0,0:0:0:0:
256,192,24059,1,8,0:0:0:0:
256,192,24690,1,8,0:0:0:0:
256,192,25322,1,0,0:0:0:0:
256,192,25637,1,8,0:0:0:0:
256,192,25953,1,0,0:0:0:0:
256,192,26585,1,0,0:0:0:0:
256,192,27216,1,8,0:0:0:0:
256,192,27848,1,8,0:0:0:0:
256,192,28164,1,0,0:0:0:0:
256,192,28480,1,8,0:0:0:0:
256,192,29111,1,8,0:0:0:0:
256,192,29743,1,0,0:0:0:0:
256,192,30374,1,8,0:0:0:0:
256,192,30690,1,0,0:0:0:0:
256,192,31006,1,8,0:0:0:0:
256,192,31637,1,12,0:0:0:0:
256,192,32585,1,8,0:0:0:0:
256,192,32901,1,0,0:0:0:0:
256,192,33532,1,0,0:0:0:0:
256,192,33848,1,0,0:0:0:0:
256,192,34164,1,8,0:0:0:0:
256,192,34795,1,0,0:0:0:0:
256,192,35427,1,0,0:0:0:0:
256,192,35743,1,8,0:0:0:0:
256,192,36059,1,0,0:0:0:0:
256,192,36690,1,8,0:0:0:0:
256,192,37637,1,8,0:0:0:0:
256,192,37953,1,0,0:0:0:0:
256,192,38585,1,0,0:0:0:0:
256,192,38901,1,0,0:0:0:0:
256,192,39216,1,8,0:0:0:0:
256,192,39848,1,8,0:0:0:0:
256,192,40164,1,8,0:0:0:0:
256,192,40480,1,0,0:0:0:0:
256,192,41111,1,8,0:0:0:0:
256,192,41743,1,12,0:0:0:0:
256,192,42059,1,0,0:0:0:0:
256,192,42374,1,0,0:0:0:0:
256,192,43006,1,8,0:0:0:0:
256,192,43637,1,0,0:0:0:0:
256,192,44269,1,0,0:0:0:0:
256,192,44585,1,8,0:0:0:0:
256,192,44901,1,8,0:0:0:0:
256,192,45532,1,0,0:0:0:0:
256,192,45848,1,8,0:0:0:0:
256,192,46164,1,0,0:0:0:0:
256,192,47111,1,8,0:0:0:0:
256,192,47427,1,0,0:0:0:0:
256,192,48059,1,8,0:0:0:0:
256,192,48374,1,0,0:0:0:0:
256,192,48690,1,0,0:0:0:0:
256,192,49322,1,8,0:0:0:0:
256,192,49953,1,0,0:0:0:0:
256,192,50585,1,0,0:0:0:0:
256,192,50901,1,8,0:0:0:0:
256,192,51216,1,0,0:0:0:0:
256,192,51848,1,12,0:0:0:0:
256,192,53111,1,8,0:0:0:0:
256,192,53743,1,0,0:0:0:0:
256,192,54059,1,0,0:0:0:0:
256,192,54374,1,12,0:0:0:0:
256,192,55322,1,8,0:0:0:0:
256,192,55637,1,0,0:0:0:0:
256,192,56269,1,0,0:0:0:0:
256,192,56585,1,0,0:0:0:0:
256,192,56901,1,8,0:0:0:0:
256,192,57532,1,0,0:0:0:0:
256,192,58164,1,0,0:0:0:0:
256,192,58480,1,8,0:0:0:0:
256,192,58795,1,8,0:0:0:0:
256,192,59427,1,8,0:0:0:0:
256,192,60374,1,8,0:0:0:0:
256,192,60690,1,8,0:0:0:0:
256,192,61322,1,0,0:0:0:0:
256,192,61637,1,0,0:0:0:0:
256,192,61953,1,8,0:0:0:0:
256,192,62585,1,8,0:0:0:0:
256,192,63216,1,0,0:0:0:0:
256,192,63848,1,8,0:0:0:0:
256,192,64480,1,12,0:0:0:0:
256,192,64795,1,0,0:0:0:0:
256,192,65111,1,0,0:0:0:0:
256,192,65743,1,8,0:0:0:0:
256,192,66374,1,0,0:0:0:0:
256,192,67322,1,0,0:0:0:0:
256,192,67637,1,8,0:0:0:0:
256,192,68269,1,0,0:0:0:0:
256,192,68585,1,8,0:0:0:0:
256,192,68901,1,0,0:0:0:0:
256,192,69532,1,8,0:0:0:0:
256,192,70164,1,0,0:0:0:0:
256,192,70795,1,8,0:0:0:0:
256,192,71111,1,0,0:0:0:0:
256,192,71427,1,0,0:0:0:0:
256,192,72059,1,8,0:0:0:0:
256,192,72690,1,0,0:0:0:0:
256,192,73322,1,0,0:0:0:0:
256,192,73637,1,8,0:0:0:0:
256,192,73953,1,0,0:0:0:0:
256,192,74585,1,12,0:0:0:0:
256,192,75216,1,8,0:0:0:0:
256,192,75848,1,0,0:0:0:0:
256,192,76795,1,0,0:0:0:0:
256,192,77111,1,8,0:0:0:0:
256,192,77743,1,0,0:0:0:0:
256,192,78059,1,8,0:0:0:0:
256,192,78374,1,0,0:0:0:0:
256,192,79006,1,8,0:0:0:0:
256,192,79637,1,0,0:0:0:0:
256,192,80269,1,8,0:0:0:0:
256,192,80901,1,8,0:0:0:0:
256,192,81848,1,0,0:0:0:0:
256,192,82164,1,8,0:0:0:0:
256,192,82637,1,8,0:0:0:0:
256,192,82953,1,8,0:0:0:0:
256,192,83427,1,0,0:0:0:0:
256,192,84059,1,8,0:0:0:0:
256,192,84690,1,12,0:0:0:0:
256,192,85322,1,0,0:0:0:0:
256,192,85953,1,8,0:0:0:0:
256,192,86269,1,8,0:0:0:0:
256,192,86585,1,0,0:0:0:0:
256,192,86901,1,0,0:0:0:0:
256,192,87216,1,8,0:0:0:0:
256,192,87848,1,8,0:0:0:0:
256,192,88480,1,0,0:0:0:0:
256,192,88795,1,8,0:0:0:0:
256,192,89111,1,0,0:0:0:0:
256,192,89743,1,8,0:0:0:0:
256,192,90374,1,8,0:0:0:0:
256,192,91006,1,8,0:0:0:0:
256,192,91322,1,8,0:0:0:0:
256,192,91637,1,0,0:0:0:0:
256,192,91953,1,8,0:0:0:0:
256,192,92269,1,0,0:0:0:0:
256,192,92901,1,8,0:0:0:0:
256,192,93532,1,8,0:0:0:0:
256,192,94480,1,0,0:0:0:0:
256,192,94795,1,12,0:0:0:0:
256,192,95427,1,8,0:0:0:0:
256,192,96059,1,8,0:0:0:0:
256,192,96374,1,8,0:0:0:0:
256,192,96690,1,0,0:0:0:0:
256,192,97006,1,0,0:0:0:0:
256,192,97322,1,8,0:0:0:0:
256,192,97953,1,8,0:0:0:0:
256,192,98585,1,0,0:0:0:0:
256,192,98901,1,8,0:0:0:0:
256,192,99216,1,0,0:0:0:0:
256,192,99848,1,0,0:0:0:0:
256,192,100480,1,8,0:0:0:0:
256,192,101111,1,8,0:0:0:0:
256,192,101427,1,8,0:0:0:0:
256,192,101743,1,0,0:0:0:0:
256,192,102059,1,8,0:0:0:0:
256,192,102374,1,0,0:0:0:0:
256,192,103006,1,8,0:0:0:0:
256,192,103637,1,8,0:0:0:0:
256,192,104585,1,0,0:0:0:0:
256,192,104901,1,12,0:0:0:0:
256,192,105532,1,0,0:0:0:0:
256,192,106164,1,8,0:0:0:0:
256,192,106480,1,8,0:0:0:0:
256,192,106795,1,0,0:0:0:0:
256,192,107427,1,8,0:0:0:0:
256,192,108059,1,8,0:0:0:0:
256,192,108690,1,0,0:0:0:0:
256,192,109006,1,8,0:0:0:0:
256,192,109322,1,0,0:0:0:0:
256,192,109953,1,8,0:0:0:0:
256,192,110585,1,0,0:0:0:0:
256,192,111216,1,8,0:0:0:0:
256,192,111532,1,0,0:0:0:0:
256,192,111848,1,8,0:0:0:0:
256,192,112480,1,8,0:0:0:0:
256,192,113743,1,0,0:0:0:0:
256,192,114059,1,8,0:0:0:0:
256,192,114374,1,0,0:0:0:0:
256,192,115006,1,12,0:0:0:0:
256,192,115637,1,0,0:0:0:0:
256,192,116269,1,8,0:0:0:0:
256,192,116585,1,8,0:0:0:0:
256,192,116901,1,0,0:0:0:0:
256,192,117532,1,8,0:0:0:0:
256,192,118164,1,8,0:0:0:0:
256,192,118795,1,0,0:0:0:0:
256,192,119111,1,8,0:0:0:0:
256,192,119427,1,0,0:0:0:0:
256,192,120059,1,0,0:0:0:0:
256,192,120690,1,8,0:0:0:0:
256,192,121322,1,8,0:0:0:0:
256,192,121637,1,8,0:0:0:0:
256,192,121953,1,0,0:0:0:0:
256,192,122585,1,8,0:0:0:0:
256,192,123216,1,0,0:0:0:0:
256,192,123848,1,8,0:0:0:0:
256,192,124164,1,0,0:0:0:0:
256,192,124795,1,0,0:0:0:0:
256,192,125111,1,12,0:0:0:0:
256,192,126059,1,8,0:0:0:0:
256,192,126374,1,0,0:0:0:0:
256,192,127006,1,0,0:0:0:0:
256,192,127322,1,0,0:0:0:0:
256,192,127637,1,8,0:0:0:0:
256,192,128269,1,0,0:0:0:0:
256,192,128901,1,0,0:0:0:0:
256,192,129216,1,8,0:0:0:0:
256,192,129532,1,0,0:0:0:0:
256,192,130164,1,8,0:0:0:0:
256,192,131111,1,8,0:0:0:0:
256,192,131427,1,0,0:0:0:0:
256,192,132059,1,0,0:0:0:0:
256,192,132374,1,0,0:0:0:0:
256,192,132690,1,8,0:0:0:0:
256,192,133322,1,8,0:0:0:0:
256,192,133953,1,0,0:0:0:0:
256,192,135532,1,12,0:0:0:0:
256,192,135848,1,0,0:0:0:0:
256,192,136480,1,8,0:0:0:0:
256,192,137111,1,0,0:0:0:0:
256,192,137427,1,8,0:0:0:0:
256,192,138059,1,0,0:0:0:0:
256,192,138374,1,8,0:0:0:0:
256,192,139006,1,0,0:0:0:0:
256,192,139322,1,8,0:0:0:0:
256,192,139637,1,0,0:0:0:0:
256,192,140585,1,8,0:0:0:0:
256,192,140901,1,0,0:0:0:0:
256,192,141532,1,8,0:0:0:0:
256,192,142164,1,0,0:0:0:0:
256,192,142480,1,8,0:0:0:0:
256,192,143111,1,8,0:0:0:0:
256,192,143427,1,8,0:0:0:0:
256,192,144059,1,0,0:0:0:0:
256,192,144374,1,8,0:0:0:0:
256,192,144690,1,0,0:0:0:0:
256,192,145322,1,12,0:0:0:0:
256,192,145953,1,8,0:0:0:0:
256,192,146585,1,0,0:0:0:0:
256,192,147532,1,0,0:0:0:0:
256,192,147848,1,8,0:0:0:0:
256,192,148480,1,0,0:0:0:0:
256,192,148795,1,8,0:0:0:0:
256,192,149111,1,0,0:0:0:0:
256,192,149743,1,8,0:0:0:0:
256,192,150374,1,0,0:0:0:0:
256,192,151006,1,8,0:0:0:0:
256,192,151637,1,8,0:0:0:0:
256,192,152585,1,0,0:0:0:0:
256,192,152901,1,8,0:0:0:0:
256,192,154164,1,0,0:0:0:0:
256,192,154795,1,8,0:0:0:0:
256,192,155427,1,12,0:0:0:0:
256,192,156690,1,8,0:0:0:0:
256,192,157322,1,0,0:0:0:0:
256,192,157953,1,8,0:0:0:0:
256,192,159216,1,0,0:0:0:0:
256,192,160480,1,8,0:0:0:0:
256,192,161111,1,0,0:0:0:0:
256,192,161743,1,8,0:0:0:0:
256,192,163006,1,0,0:0:0:0:
256,192,163637,1,8,0:0:0:0:
256,192,164269,1,8,0:0:0:0:
256,192,165532,1,12,0:0:0:0:
256,192,166164,1,8,0:0:0:0:
256,192,166795,1,8,0:0:0:0:
256,192,167427,1,0,0:0:0:0:
256,192,168059,1,8,0:0:0:0:
256,192,169322,1,0,0:0:0:0:
256,192,169953,1,8,0:0:0:0:
256,192,170585,1,8,0:0:0:0:
256,192,171216,1,0,0:0:0:0:
256,192,171848,1,8,0:0:0:0:
256,192,172480,1,0,0:0:0:0:
256,192,173111,1,8,0:0:0:0:
256,192,173743,1,0,0:0:0:0:
256,192,174374,1,12,0:0:0:0:
256,192,175637,1,12,0:0:0:0:
256,192,176269,1,0,0:0:0:0:
256,192,176901,1,8,0:0:0:0:
256,192,177216,1,8,0:0:0:0:
256,192,177532,1,0,0:0:0:0:
256,192,177848,1,0,0:0:0:0:
256,192,178164,1,8,0:0:0:0:
256,192,178795,1,8,0:0:0:0:
256,192,179427,1,0,0:0:0:0:
256,192,179743,1,8,0:0:0:0:
256,192,180059,1,0,0:0:0:0:
256,192,180690,1,8,0:0:0:0:
256,192,181322,1,8,0:0:0:0:
256,192,181953,1,8,0:0:0:0:
256,192,182269,1,8,0:0:0:0:
256,192,182585,1,0,0:0:0:0:
256,192,182901,1,8,0:0:0:0:
256,192,183216,1,0,0:0:0:0:
256,192,183848,1,8,0:0:0:0:
256,192,184480,1,8,0:0:0:0:
256,192,185427,1,0,0:0:0:0:
256,192,185743,1,12,0:0:0:0:
256,192,186374,1,8,0:0:0:0:
256,192,187006,1,8,0:0:0:0:
256,192,187322,1,8,0:0:0:0:
256,192,187637,1,0,0:0:0:0:
256,192,187953,1,0,0:0:0:0:
256,192,188269,1,8,0:0:0:0:
256,192,188901,1,8,0:0:0:0:
256,192,189532,1,0,0:0:0:0:
256,192,189848,1,8,0:0:0:0:
256,192,190164,1,0,0:0:0:0:
256,192,190795,1,0,0:0:0:0:
256,192,191427,1,8,0:0:0:0:
256,192,192059,1,8,0:0:0:0:
256,192,192374,1,8,0:0:0:0:
256,192,192690,1,0,0:0:0:0:
256,192,193006,1,8,0:0:0:0:
256,192,193322,1,0,0:0:0:0:
256,192,193953,1,8,0:0:0:0:
256,192,194585,1,8,0:0:0:0:
256,192,195848,1,12,0:0:0:0:
256,192,196164,1,0,0:0:0:0:
256,192,197111,1,0,0:0:0:0:
256,192,197427,1,8,0:0:0:0:
256,192,198059,1,8,0:0:0:0:
256,192,198374,1,0,0:0:0:0:
256,192,198690,1,8,0:0:0:0:
256,192,199322,1,8,0:0:0:0:
256,192,199637,1,0,0:0:0:0:
256,192,200585,1,0,0:0:0:0:
256,192,200901,1,8,0:0:0:0:
256,192,201848,1,8,0:0:0:0:
256,192,202164,1,0,0:0:0:0:
256,192,202795,1,8,0:0:0:0:
256,192,203427,1,8,0:0:0:0:
256,192,204374,1,8,0:0:0:0:
256,192,204690,1,0,0:0:0:0:
256,192,205322,1,0,0:0:0:0:
256,192,205953,1,12,0:0:0:0:
256,192,206269,1,0,0:0:0:0:
256,192,207216,1,0,0:0:0:0:
256,192,207532,1,8,0:0:0:0:
256,192,208164,1,8,0:0:0:0:
256,192,208480,1,0,0:0:0:0:
256,192,208795,1,8,0:0:0:0:
256,192,209427,1,8,0:0:0:0:
256,192,209743,1,0,0:0:0:0:
256,192,210690,1,0,0:0:0:0:
256,192,211006,1,12,0:0:0:0:
256,192,211953,1,8,0:0:0:0:
256,192,212269,1,0,0:0:0:0:
256,192,212901,1,8,0:0:0:0:
256,192,213532,1,8,0:0:0:0:
256,192,214480,1,8,0:0:0:0:
256,192,214795,1,0,0:0:0:0:
256,192,215427,1,0,0:0:0:0:
256,192,216059,1,12,0:0:0:0:
256,192,216690,1,0,0:0:0:0:
256,192,217322,1,8,0:0:0:0:
256,192,217637,1,8,0:0:0:0:
256,192,217953,1,0,0:0:0:0:
256,192,218585,1,8,0:0:0:0:
256,192,219216,1,8,0:0:0:0:
256,192,219848,1,0,0:0:0:0:
256,192,220164,1,8,0:0:0:0:
256,192,220480,1,0,0:0:0:0:
256,192,221111,1,8,0:0:0:0:
256,192,222374,1,8,0:0:0:0:
256,192,222690,1,0,0:0:0:0:
256,192,223006,1,8,0:0:0:0:
256,192,223637,1,8,0:0:0:0:
256,192,224269,1,0,0:0:0:0:
256,192,224901,1,8,0:0:0:0:
256,192,225216,1,8,0:0:0:0:
256,192,225532,1,0,0:0:0:0:
256,192,226164,1,12,0:0:0:0:
256,192,226795,1,0,0:0:0:0:
256,192,227427,1,8,0:0:0:0:
256,192,227743,1,8,0:0:0:0:
256,192,228059,1,0,0:0:0:0:
256,192,228690,1,8,0:0:0:0:
256,192,229322,1,8,0:0:0:0:
256,192,229953,1,0,0:0:0:0:
256,192,230269,1,8,0:0:0:0:
256,192,230585,1,0,0:0:0:0:
256,192,231216,1,0,0:0:0:0:
256,192,231848,1,8,0:0:0:0:
256,192,232480,1,8,0:0:0:0:
256,192,232795,1,0,0:0:0:0:
256,192,233111,1,8,0:0:0:0:
256,192,233743,1,8,0:0:0:0:
256,192,234374,1,8,0:0:0:0:
256,192,235006,1,8,0:0:0:0:
256,192,236269,1,12,0:0:0:0:
256,192,236585,1,8,0:0:0:0:
256,192,237532,1,0,0:0:0:0:
256,192,237848,1,8,0:0:0:0:
256,192,238795,1,0,0:0:0:0:
256,192,239111,1,8,0:0:0:0:
256,192,240059,1,0,0:0:0:0:
256,192,241322,1,12,0:0:0:0:
256,192,241637,1,8,0:0:0:0:
256,192,242585,1,0,0:0:0:0:
256,192,242901,1,8,0:0:0:0:
256,192,243848,1,0,0:0:0:0:
256,192,244164,1,8,0:0:0:0:
256,192,245111,1,8,0:0:0:0:
256,192,246059,1,0,0:0:0:0:
