osu file format v14

[General]
AudioFilename: audio.mp3
AudioLeadIn: 0
PreviewTime: 43135
Countdown: 1
SampleSet: Normal
StackLeniency: 0.7
Mode: 1
LetterboxInBreaks: 0
WidescreenStoryboard: 1

[Editor]
Bookmarks: 2365,12470,32680,42774,55405,65511,75616,80668,85721,105932,126142,136247,146353,151405,156458,176668,196879,217090,237300,247405
DistanceSpacing: 1
BeatDivisor: 4
GridSize: 32
TimelineZoom: 0.9799999

[Metadata]
Title:Aimless Voyage
TitleUnicode:Aimless Voyage
Artist:LiLA'c Records
ArtistUnicode:LiLA'c Records
Creator:Nepuri
Version:Oni
Source:東方永夜抄 ~ Imperishable Night.
Tags:Irus Yuuki Aihara Neeshe Eternize LLAC-0011 RTS9 Reitaisai Voyage 1969 Final Stage Kathayaka
BeatmapID:1437695
BeatmapSetID:679686

[Difficulty]
HPDrainRate:5.5
CircleSize:2
OverallDifficulty:5
ApproachRate:10
SliderMultiplier:1.4
SliderTickRate:1

[Events]
//Background and Video events
0,0,"yag.png",0,30
//Break Periods
//Storyboard Layer 0 (Background)
//Storyboard Layer 1 (Fail)
//Storyboard Layer 2 (Pass)
//Storyboard Layer 3 (Foreground)
//Storyboard Sound Samples

[TimingPoints]
1135,315.789473684211,4,1,0,65,1,0
2398,-95.2380952380952,4,1,0,65,0,0
2713,-100,4,1,0,65,0,0
7450,-95.2380952380952,4,1,0,65,0,0
7766,-100,4,1,0,65,0,0
12503,-90.9090909090909,4,1,0,65,0,0
12819,-100,4,1,0,65,0,0
22608,-90.9090909090909,4,1,0,65,0,0
22924,-100,4,1,0,65,0,0
32713,-90.9090909090909,4,1,0,65,0,0
32871,-95.2380952380952,4,1,0,65,0,0
32950,-97.5609756097561,4,1,0,65,0,0
33029,-100,4,1,0,65,0,0
41556,-101.010101010101,4,1,0,65,0,0
41635,-102.040816326531,4,1,0,65,0,0
41713,-103.092783505155,4,1,0,65,0,0
41871,-105.263157894737,4,1,0,65,0,0
42029,-107.52688172043,4,1,0,65,0,0
42108,-108.695652173913,4,1,0,65,0,0
42187,-109.89010989011,4,1,0,65,0,0
42345,-112.359550561798,4,1,0,65,0,0
42503,-114.942528735632,4,1,0,65,0,0
42819,-120.481927710843,4,1,0,65,0,1
51819,-116.279069767442,4,1,0,65,0,1
51977,-113.636363636364,4,1,0,65,0,1
52056,-112.359550561798,4,1,0,65,0,1
52135,-111.111111111111,4,1,0,65,0,1
52292,-108.695652173913,4,1,0,65,0,1
52608,-104.166666666667,4,1,0,65,0,1
52924,-90.9090909090909,4,1,0,65,0,0
54187,-95.2380952380952,4,1,0,65,0,0
55450,-90.9090909090909,4,1,0,65,0,0
55608,-95.2380952380952,4,1,0,65,0,0
55766,-100,4,1,0,65,0,0
64292,-101.010101010101,4,1,0,65,0,0
64371,-102.040816326531,4,1,0,65,0,0
64450,-103.092783505155,4,1,0,65,0,0
64608,-105.263157894737,4,1,0,65,0,0
64766,-107.52688172043,4,1,0,65,0,0
64845,-108.695652173913,4,1,0,65,0,0
64924,-109.89010989011,4,1,0,65,0,0
65082,-112.359550561798,4,1,0,65,0,0
65240,-114.942528735632,4,1,0,65,0,0
65556,-120.481927710843,4,1,0,65,0,1
74556,-116.279069767442,4,1,0,65,0,1
74713,-113.636363636364,4,1,0,65,0,1
74871,-111.111111111111,4,1,0,65,0,1
75029,-108.695652173913,4,1,0,65,0,1
75345,-104.166666666667,4,1,0,65,0,1
75661,-90.9090909090909,4,1,0,65,0,0
75977,-100,4,1,0,65,0,0
81029,-102.040816326531,4,1,0,65,0,0
81187,-103.092783505155,4,1,0,65,0,0
81503,-105.263157894737,4,1,0,65,0,0
81977,-108.695652173913,4,1,0,65,0,0
82292,-111.111111111111,4,1,0,65,0,0
82766,-114.942528735632,4,1,0,65,0,0
83240,-119.047619047619,4,1,0,65,0,0
84503,-131.578947368421,4,1,0,65,0,0
85135,-138.888888888889,4,1,0,65,0,0
85766,-90.9090909090909,4,1,0,65,0,0
86082,-100,4,1,0,65,0,0
95871,-90.9090909090909,4,1,0,65,0,0
96187,-100,4,1,0,65,0,0
105977,-90.9090909090909,4,1,0,65,0,0
106292,-100,4,1,0,65,0,0
116082,-90.9090909090909,4,1,0,65,0,0
116398,-100,4,1,0,65,0,0
126187,-90.9090909090909,4,1,0,65,0,0
126503,-100,4,1,0,65,0,0
135029,-101.010101010101,4,1,0,65,0,0
135187,-103.092783505155,4,1,0,65,0,0
135503,-107.52688172043,4,1,0,65,0,0
135661,-109.89010989011,4,1,0,65,0,0
135819,-112.359550561798,4,1,0,65,0,0
135977,-114.942528735632,4,1,0,65,0,0
136292,-120.481927710843,4,1,0,65,0,0
136608,-120.481927710843,4,1,0,65,0,1
145292,-117.647058823529,4,1,0,65,0,1
145450,-114.942528735632,4,1,0,65,0,1
145529,-113.636363636364,4,1,0,65,0,1
145608,-112.359550561798,4,1,0,65,0,1
145766,-109.89010989011,4,1,0,65,0,1
145924,-107.52688172043,4,1,0,65,0,1
146082,-105.263157894737,4,1,0,65,0,1
146398,-90.9090909090909,4,1,0,65,0,0
146713,-100,4,1,0,65,0,0
151766,-102.040816326531,4,1,0,65,0,0
151924,-103.092783505155,4,1,0,65,0,0
152240,-105.263157894737,4,1,0,65,0,0
152713,-108.695652173913,4,1,0,65,0,0
153187,-112.359550561798,4,1,0,65,0,0
153503,-114.942528735632,4,1,0,65,0,0
153977,-119.047619047619,4,1,0,65,0,0
155240,-131.578947368421,4,1,0,65,0,0
155872,-138.888888888889,4,1,0,65,0,0
156503,-95.2380952380952,4,1,0,65,0,0
157135,-133.333333333333,4,1,0,65,0,0
166608,-125,4,1,0,65,0,0
175450,-117.647058823529,4,1,0,65,0,0
175608,-114.285714285714,4,1,0,65,0,0
175766,-111.111111111111,4,1,0,65,0,0
175924,-108.108108108108,4,1,0,65,0,0
176082,-105.263157894737,4,1,0,65,0,0
176240,-100,4,1,0,65,0,0
176713,-83.3333333333333,4,1,0,65,0,0
177029,-100,4,1,0,65,0,0
186819,-90.9090909090909,4,1,0,65,0,0
187135,-100,4,1,0,65,0,0
195661,-105.263157894737,4,1,0,65,0,0
195819,-111.111111111111,4,1,0,65,0,0
196135,-125,4,1,0,65,0,0
196450,-90.9090909090909,4,1,0,65,0,0
196924,-83.3333333333333,4,1,0,65,0,1
197082,-86.9565217391304,4,1,0,65,0,1
197240,-90.9090909090909,4,1,0,65,0,1
197398,-95.2380952380952,4,1,0,65,0,1
197477,-97.5609756097561,4,1,0,65,0,1
197556,-100,4,1,0,65,0,1
199135,-99.009900990099,4,1,0,65,0,1
199292,-98.0392156862745,4,1,0,65,0,1
199450,-97.0873786407767,4,1,0,65,0,1
199608,-96.1538461538461,4,1,0,65,0,1
199924,-95.5414621283198,4,1,0,65,0,1
200003,-94.9367118650858,4,1,0,65,0,1
200082,-94.3396226415094,4,1,0,65,0,1
201661,-93.4579439252336,4,1,0,65,0,1
201819,-92.5925925925926,4,1,0,65,0,1
201977,-92.0245963341082,4,1,0,65,0,1
202056,-91.4634425193422,4,1,0,65,0,1
202135,-90.9090909090909,4,1,0,65,0,1
202924,-90.0900900900901,4,1,0,65,0,1
203082,-89.2857142857143,4,1,0,65,0,1
203240,-88.7574489689047,4,1,0,65,0,1
203319,-88.2353200692118,4,1,0,65,0,1
203398,-87.719298245614,4,1,0,65,0,1
203871,-87.2093530286936,4,1,0,65,0,1
203950,-86.7052048180695,4,1,0,65,0,1
204029,-86.2068965517241,4,1,0,65,0,1
204503,-85.7142906122452,4,1,0,65,0,1
204582,-85.227296939573,4,1,0,65,0,1
204661,-84.7457627118644,4,1,0,65,0,1
204977,-84.2697102638822,4,1,0,65,0,1
205056,-83.7989060890799,4,1,0,65,0,1
205135,-83.3333333333333,4,1,0,65,0,1
205450,-82.6446280991736,4,1,0,65,0,1
205608,-81.9672131147541,4,1,0,65,0,1
205766,-82.6446280991736,4,1,0,65,0,1
205924,-83.3333333333333,4,1,0,65,0,1
206082,-84.0336134453781,4,1,0,65,0,1
206240,-84.7457627118644,4,1,0,65,0,1
206398,-85.4700854700855,4,1,0,65,0,1
206556,-86.2068965517241,4,1,0,65,0,1
206713,-86.9565217391304,4,1,0,65,0,1
206871,-87.719298245614,4,1,0,65,0,1
207029,-76.9230769230769,4,1,0,65,0,1
207345,-83.3333333333333,4,1,0,65,0,1
207503,-86.9565217391304,4,1,0,65,0,1
207582,-88.8888888888889,4,1,0,65,0,1
207661,-90.9090909090909,4,1,0,65,0,1
208924,-90.0900900900901,4,1,0,65,0,1
209082,-89.2857142857143,4,1,0,65,0,1
209240,-88.4955752212389,4,1,0,65,0,1
209398,-87.719298245614,4,1,0,65,0,1
209556,-87.2098093593567,4,1,0,65,0,1
209635,-86.705227371453,4,1,0,65,0,1
209713,-86.2068965517241,4,1,0,65,0,1
210029,-85.7143346939055,4,1,0,65,0,1
210108,-85.227296939573,4,1,0,65,0,1
210187,-84.7457627118644,4,1,0,65,0,1
210503,-84.2697102638822,4,1,0,65,0,1
210582,-83.7989060890799,4,1,0,65,0,1
210661,-83.3333333333333,4,1,0,65,0,1
210977,-82.872973962969,4,1,0,65,0,1
211056,-82.4175846818018,4,1,0,65,0,1
211135,-81.9672131147541,4,1,0,65,0,1
211450,-81.3008130081301,4,1,0,65,0,1
211529,-80.6451612903226,4,1,0,65,0,1
211608,-80,4,1,0,65,0,1
211687,-79.3650793650794,4,1,0,65,0,1
211766,-78.7401574803149,4,1,0,65,0,1
212082,-76.9230769230769,4,1,0,65,0,1
212398,-83.3333333333333,4,1,0,65,0,1
212556,-82.6446280991736,4,1,0,65,0,1
212713,-81.9672131147541,4,1,0,65,0,1
213029,-81.3008130081301,4,1,0,65,0,1
213187,-80.6451612903226,4,1,0,65,0,1
213345,-79.3650793650794,4,1,0,65,0,1
213503,-78.7401574803149,4,1,0,65,0,1
213819,-78.3290226261215,4,1,0,65,0,1
213898,-77.9220981615839,4,1,0,65,0,1
213977,-77.5193798449612,4,1,0,65,0,1
214292,-77.2200772200772,4,1,0,65,0,1
214450,-76.9230769230769,4,1,0,65,0,1
214608,-76.6283524904215,4,1,0,65,0,1
214766,-76.3358778625954,4,1,0,65,0,1
215082,-76.0456273764259,4,1,0,65,0,1
215240,-75.7575757575758,4,1,0,65,0,1
215556,-75.4716981132076,4,1,0,65,0,1
215713,-75.187969924812,4,1,0,65,0,1
215871,-75.7575757575758,4,1,0,65,0,1
215950,-76.3358778625954,4,1,0,65,0,1
216029,-76.9230769230769,4,1,0,65,0,1
216108,-77.5193798449612,4,1,0,65,0,1
216187,-78.125,4,1,0,65,0,1
216345,-79.3650793650794,4,1,0,65,0,1
216503,-80.6451612903226,4,1,0,65,0,1
216582,-81.3008130081301,4,1,0,65,0,1
216661,-81.9672131147541,4,1,0,65,0,1
216740,-82.6446280991736,4,1,0,65,0,1
216819,-83.3333333333333,4,1,0,65,0,1
216977,-84.7457627118644,4,1,0,65,0,1
217135,-76.9230769230769,4,1,0,65,0,0
217450,-83.3333333333333,4,1,0,65,0,0
217608,-86.9565217391304,4,1,0,65,0,0
217766,-90.9090909090909,4,1,0,65,0,0
218082,-100,4,1,0,65,0,0
227240,-90.9090909090909,4,1,0,65,0,0
227556,-100,4,1,0,65,0,0
237345,-90.9090909090909,4,1,0,65,0,0
237424,-100,4,1,0,65,0,0
242398,-95.2380952380952,4,1,0,65,0,0
242713,-100,4,1,0,65,0,0

[HitObjects]
352,192,1135,5,12,0:0:0:0:
384,192,1450,1,0,0:0:0:0:
352,192,1608,1,8,0:0:0:0:
352,192,1766,1,8,0:0:0:0:
384,192,1924,1,0,0:0:0:0:
352,192,2082,1,8,0:0:0:0:
256,96,2398,1,12,0:0:0:0:
267,224,2713,1,8,0:0:0:0:
267,224,2871,1,0,0:0:0:0:
267,224,3029,1,0,0:0:0:0:
267,224,3187,1,8,0:0:0:0:
267,224,3345,1,8,0:0:0:0:
267,224,3661,1,0,0:0:0:0:
267,224,3977,1,8,0:0:0:0:
267,224,4135,1,0,0:0:0:0:
267,224,4450,1,0,0:0:0:0:
267,224,4608,1,8,0:0:0:0:
270,232,4766,1,8,0:0:0:0:
270,232,4924,1,0,0:0:0:0:
271,233,5240,1,8,0:0:0:0:
271,233,5398,1,0,0:0:0:0:
270,232,5556,1,0,0:0:0:0:
270,232,5713,1,8,0:0:0:0:
270,232,5871,1,8,0:0:0:0:
178,181,6187,1,0,0:0:0:0:
178,181,6266,1,0,0:0:0:0:
178,181,6345,1,0,0:0:0:0:
178,181,6503,1,8,0:0:0:0:
178,181,6661,1,0,0:0:0:0:
178,181,6819,1,0,0:0:0:0:
178,181,6977,1,8,0:0:0:0:
81,159,7450,1,12,0:0:0:0:
267,224,7766,1,8,0:0:0:0:
267,224,7924,1,0,0:0:0:0:
267,224,8082,1,0,0:0:0:0:
267,224,8240,1,8,0:0:0:0:
267,224,8398,1,8,0:0:0:0:
267,224,8713,1,0,0:0:0:0:
267,224,9029,1,8,0:0:0:0:
267,224,9187,1,0,0:0:0:0:
267,224,9503,1,0,0:0:0:0:
267,224,9661,1,8,0:0:0:0:
270,232,9819,1,8,0:0:0:0:
270,232,9977,1,0,0:0:0:0:
271,233,10292,1,8,0:0:0:0:
271,233,10450,1,0,0:0:0:0:
270,232,10608,1,0,0:0:0:0:
270,232,10766,1,8,0:0:0:0:
270,232,10924,1,0,0:0:0:0:
178,181,11240,1,0,0:0:0:0:
178,181,11319,1,0,0:0:0:0:
178,181,11398,1,0,0:0:0:0:
178,181,11556,1,8,0:0:0:0:
192,192,11713,1,0,0:0:0:0:
160,128,11871,1,0,0:0:0:0:
160,128,11950,1,0,0:0:0:0:
160,128,12029,1,8,0:0:0:0:
160,128,12187,1,0,0:0:0:0:
160,128,12266,1,0,0:0:0:0:
160,128,12345,1,8,0:0:0:0:
160,128,12503,1,12,0:0:0:0:
224,128,12819,1,8,0:0:0:0:
224,128,12977,1,0,0:0:0:0:
224,128,13135,1,0,0:0:0:0:
288,96,13450,5,8,0:0:0:0:
288,96,13608,1,0,0:0:0:0:
320,192,13766,1,0,0:0:0:0:
384,256,13924,1,0,0:0:0:0:
320,192,14082,1,8,0:0:0:0:
320,192,14240,1,0,0:0:0:0:
320,192,14319,1,0,0:0:0:0:
320,192,14398,1,8,0:0:0:0:
320,192,14556,1,0,0:0:0:0:
320,192,14713,1,8,0:0:0:0:
384,224,14871,1,0,0:0:0:0:
320,224,15029,1,0,0:0:0:0:
384,224,15345,1,8,0:0:0:0:
384,224,15503,1,0,0:0:0:0:
384,224,15661,1,0,0:0:0:0:
384,256,15977,1,8,0:0:0:0:
384,256,16135,1,0,0:0:0:0:
384,256,16292,1,0,0:0:0:0:
384,256,16371,1,0,0:0:0:0:
384,256,16450,1,0,0:0:0:0:
384,256,16608,1,8,0:0:0:0:
384,256,16766,1,0,0:0:0:0:
192,160,16924,1,8,0:0:0:0:
192,160,17082,1,0,0:0:0:0:
192,160,17240,1,8,0:0:0:0:
192,160,17556,1,0,0:0:0:0:
256,160,17871,1,8,0:0:0:0:
256,160,18029,1,0,0:0:0:0:
256,160,18187,1,0,0:0:0:0:
256,160,18503,1,8,0:0:0:0:
256,160,18661,1,0,0:0:0:0:
256,160,18819,1,0,0:0:0:0:
288,160,18977,1,0,0:0:0:0:
288,160,19056,1,0,0:0:0:0:
288,160,19135,1,8,0:0:0:0:
288,160,19292,1,0,0:0:0:0:
288,160,19450,1,8,0:0:0:0:
288,160,19608,1,0,0:0:0:0:
224,192,19687,1,0,0:0:0:0:
224,192,19766,1,8,0:0:0:0:
288,160,19924,1,0,0:0:0:0:
288,160,20082,1,0,0:0:0:0:
320,192,20398,1,8,0:0:0:0:
352,192,20556,1,0,0:0:0:0:
352,192,20713,1,0,0:0:0:0:
352,192,21029,1,8,0:0:0:0:
352,192,21187,1,0,0:0:0:0:
352,192,21345,1,0,0:0:0:0:
96,224,21424,1,0,0:0:0:0:
160,128,21503,1,0,0:0:0:0:
352,192,21661,1,8,0:0:0:0:
160,160,21819,1,0,0:0:0:0:
160,192,21977,1,8,0:0:0:0:
160,128,22056,1,8,0:0:0:0:
352,192,22135,1,0,0:0:0:0:
352,192,22292,1,8,0:0:0:0:
128,128,22608,1,12,0:0:0:0:
224,128,22924,1,8,0:0:0:0:
224,128,23082,1,0,0:0:0:0:
224,128,23240,1,0,0:0:0:0:
288,96,23556,5,8,0:0:0:0:
288,96,23713,1,0,0:0:0:0:
320,192,23792,1,0,0:0:0:0:
320,192,23871,1,8,0:0:0:0:
384,256,24029,1,0,0:0:0:0:
320,192,24187,1,8,0:0:0:0:
320,192,24345,1,0,0:0:0:0:
320,192,24503,1,8,0:0:0:0:
128,128,24582,1,0,0:0:0:0:
320,192,24661,1,0,0:0:0:0:
320,192,24819,1,8,0:0:0:0:
384,224,24977,1,0,0:0:0:0:
320,224,25135,1,0,0:0:0:0:
384,224,25450,1,8,0:0:0:0:
384,224,25608,1,0,0:0:0:0:
384,224,25766,1,0,0:0:0:0:
384,256,26082,1,8,0:0:0:0:
384,256,26240,1,0,0:0:0:0:
384,256,26398,1,8,0:0:0:0:
96,224,26477,1,8,0:0:0:0:
64,96,26556,1,0,0:0:0:0:
384,256,26713,1,8,0:0:0:0:
384,256,26871,1,0,0:0:0:0:
192,64,26950,1,0,0:0:0:0:
160,160,27029,1,8,0:0:0:0:
192,160,27187,1,0,0:0:0:0:
192,160,27345,1,8,0:0:0:0:
192,160,27661,1,0,0:0:0:0:
256,160,27977,1,8,0:0:0:0:
256,160,28135,1,0,0:0:0:0:
256,160,28292,1,0,0:0:0:0:
256,160,28608,1,8,0:0:0:0:
256,160,28766,1,0,0:0:0:0:
256,160,28924,1,8,0:0:0:0:
288,160,29082,1,0,0:0:0:0:
288,160,29161,1,0,0:0:0:0:
288,160,29240,1,8,0:0:0:0:
288,160,29398,1,0,0:0:0:0:
288,160,29556,1,8,0:0:0:0:
288,160,29713,1,0,0:0:0:0:
256,128,29792,1,0,0:0:0:0:
224,192,29871,1,8,0:0:0:0:
288,160,30029,1,0,0:0:0:0:
288,160,30187,1,0,0:0:0:0:
320,192,30503,1,8,0:0:0:0:
352,192,30661,1,0,0:0:0:0:
224,96,30740,1,0,0:0:0:0:
352,192,30819,1,8,0:0:0:0:
160,224,30977,1,0,0:0:0:0:
352,192,31135,1,8,0:0:0:0:
352,192,31292,1,0,0:0:0:0:
352,192,31450,1,8,0:0:0:0:
192,224,31529,1,0,0:0:0:0:
160,128,31608,1,0,0:0:0:0:
288,224,31687,1,0,0:0:0:0:
352,192,31766,1,8,0:0:0:0:
160,160,31924,1,0,0:0:0:0:
160,192,32082,1,8,0:0:0:0:
160,128,32161,1,8,0:0:0:0:
352,192,32240,1,0,0:0:0:0:
352,224,32319,1,0,0:0:0:0:
352,192,32398,1,8,0:0:0:0:
352,224,32713,1,12,0:0:0:0:
241,103,32871,1,0,0:0:0:0:
241,103,32950,1,0,0:0:0:0:
224,256,33029,1,8,0:0:0:0:
224,288,33187,1,0,0:0:0:0:
224,288,33345,1,0,0:0:0:0:
224,288,33503,1,8,0:0:0:0:
256,160,33661,1,0,0:0:0:0:
256,160,33977,1,8,0:0:0:0:
256,160,34135,1,0,0:0:0:0:
256,160,34292,1,8,0:0:0:0:
256,160,34450,1,0,0:0:0:0:
192,160,34529,1,0,0:0:0:0:
256,160,34608,1,0,0:0:0:0:
256,160,34766,1,0,0:0:0:0:
256,160,34924,1,8,0:0:0:0:
256,160,35240,1,0,0:0:0:0:
192,160,35398,1,0,0:0:0:0:
192,160,35477,1,0,0:0:0:0:
192,160,35556,1,8,0:0:0:0:
192,160,35713,1,0,0:0:0:0:
192,160,35871,1,0,0:0:0:0:
192,160,36029,1,8,0:0:0:0:
192,160,36187,1,0,0:0:0:0:
192,160,36503,1,0,0:0:0:0:
192,160,36582,1,0,0:0:0:0:
192,160,36661,1,0,0:0:0:0:
192,160,36819,1,8,0:0:0:0:
192,160,36977,1,0,0:0:0:0:
192,160,37056,1,0,0:0:0:0:
192,160,37135,1,0,0:0:0:0:
192,160,37292,1,8,0:0:0:0:
192,160,37450,1,0,0:0:0:0:
192,160,37766,1,0,0:0:0:0:
218,71,37924,1,0,0:0:0:0:
218,231,38082,1,8,0:0:0:0:
218,263,38240,1,0,0:0:0:0:
186,135,38319,1,0,0:0:0:0:
218,263,38398,1,0,0:0:0:0:
218,263,38556,1,8,0:0:0:0:
250,135,38713,1,0,0:0:0:0:
250,135,39029,1,8,0:0:0:0:
250,135,39187,1,0,0:0:0:0:
250,135,39345,1,8,0:0:0:0:
250,135,39503,1,0,0:0:0:0:
250,135,39661,1,0,0:0:0:0:
186,135,39740,1,0,0:0:0:0:
250,135,39819,1,0,0:0:0:0:
250,135,39977,1,8,0:0:0:0:
250,135,40292,1,0,0:0:0:0:
186,135,40450,1,0,0:0:0:0:
186,135,40529,1,0,0:0:0:0:
186,135,40608,1,8,0:0:0:0:
186,135,40766,1,0,0:0:0:0:
186,135,40924,1,0,0:0:0:0:
186,135,41082,1,8,0:0:0:0:
186,135,41240,5,0,0:0:0:0:
186,135,41556,1,0,0:0:0:0:
186,135,41635,1,0,0:0:0:0:
314,167,41713,1,0,0:0:0:0:
186,135,41871,1,8,0:0:0:0:
346,231,42029,1,0,0:0:0:0:
186,135,42108,1,0,0:0:0:0:
186,135,42187,1,0,0:0:0:0:
186,135,42345,1,8,0:0:0:0:
186,135,42503,1,0,0:0:0:0:
346,231,42819,1,12,0:0:0:0:
320,128,42977,5,0,0:0:0:0:
384,224,43135,1,8,0:0:0:0:
384,224,43292,1,0,0:0:0:0:
320,128,43371,1,0,0:0:0:0:
384,224,43450,1,8,0:0:0:0:
384,224,43608,1,0,0:0:0:0:
384,224,43924,1,8,0:0:0:0:
320,192,44003,1,8,0:0:0:0:
320,192,44082,1,8,0:0:0:0:
416,256,44240,1,0,0:0:0:0:
448,224,44398,1,8,0:0:0:0:
448,224,44556,1,0,0:0:0:0:
448,224,44713,1,0,0:0:0:0:
85,187,44792,1,0,0:0:0:0:
448,224,44871,1,8,0:0:0:0:
448,224,45029,1,8,0:0:0:0:
448,224,45345,1,0,0:0:0:0:
343,253,45503,1,0,0:0:0:0:
343,253,45661,1,8,0:0:0:0:
343,253,45740,1,0,0:0:0:0:
343,253,45819,1,0,0:0:0:0:
343,253,45977,1,8,0:0:0:0:
343,253,46292,1,0,0:0:0:0:
343,253,46450,1,8,0:0:0:0:
343,253,46529,1,8,0:0:0:0:
343,253,46608,1,8,0:0:0:0:
415,213,46766,1,0,0:0:0:0:
403,209,46924,1,8,0:0:0:0:
403,209,47082,1,0,0:0:0:0:
428,258,47240,1,0,0:0:0:0:
158,172,47319,1,0,0:0:0:0:
403,209,47398,1,0,0:0:0:0:
407,209,47556,1,8,0:0:0:0:
276,152,47871,1,0,0:0:0:0:
384,224,48187,1,8,0:0:0:0:
384,224,48345,1,0,0:0:0:0:
320,128,48424,1,0,0:0:0:0:
384,224,48503,1,8,0:0:0:0:
321,199,48819,1,0,0:0:0:0:
384,224,48977,1,8,0:0:0:0:
320,192,49056,1,8,0:0:0:0:
320,192,49135,1,8,0:0:0:0:
416,256,49292,1,0,0:0:0:0:
226,47,49371,1,0,0:0:0:0:
448,224,49450,1,8,0:0:0:0:
448,224,49608,1,0,0:0:0:0:
448,224,49766,1,0,0:0:0:0:
448,224,49924,1,8,0:0:0:0:
448,224,50082,1,8,0:0:0:0:
448,224,50398,1,0,0:0:0:0:
282,118,50556,1,8,0:0:0:0:
343,253,50713,1,0,0:0:0:0:
343,253,50871,1,8,0:0:0:0:
343,253,51029,1,8,0:0:0:0:
343,253,51345,1,0,0:0:0:0:
343,253,51503,1,8,0:0:0:0:
343,253,51582,1,8,0:0:0:0:
343,253,51661,1,8,0:0:0:0:
415,213,51819,1,0,0:0:0:0:
403,209,51977,1,8,0:0:0:0:
226,47,52056,1,0,0:0:0:0:
403,209,52135,1,0,0:0:0:0:
428,258,52292,1,0,0:0:0:0:
407,209,52608,1,8,0:0:0:0:
192,96,52924,1,12,0:0:0:0:
224,160,53082,1,0,0:0:0:0:
224,160,53240,1,0,0:0:0:0:
224,160,53556,1,0,0:0:0:0:
224,160,53871,1,0,0:0:0:0:
256,160,54187,1,8,0:0:0:0:
256,160,54503,1,0,0:0:0:0:
256,160,54661,1,8,0:0:0:0:
256,160,54819,1,8,0:0:0:0:
256,160,54977,1,0,0:0:0:0:
256,160,55135,1,8,0:0:0:0:
198,192,55450,5,12,0:0:0:0:
224,96,55608,1,0,0:0:0:0:
224,256,55766,1,8,0:0:0:0:
224,288,55924,1,0,0:0:0:0:
192,160,56003,1,0,0:0:0:0:
224,288,56082,1,0,0:0:0:0:
224,288,56240,1,8,0:0:0:0:
256,160,56398,1,0,0:0:0:0:
256,160,56713,1,8,0:0:0:0:
256,160,56871,1,0,0:0:0:0:
256,160,57029,1,8,0:0:0:0:
256,160,57187,1,0,0:0:0:0:
192,160,57266,1,0,0:0:0:0:
256,160,57345,1,0,0:0:0:0:
256,160,57503,1,0,0:0:0:0:
256,160,57661,1,8,0:0:0:0:
256,160,57977,1,0,0:0:0:0:
192,160,58135,1,0,0:0:0:0:
192,160,58213,1,0,0:0:0:0:
192,160,58292,1,8,0:0:0:0:
192,160,58450,1,0,0:0:0:0:
192,160,58608,1,0,0:0:0:0:
192,160,58766,1,8,0:0:0:0:
192,160,58924,1,0,0:0:0:0:
192,160,59240,1,0,0:0:0:0:
192,160,59319,1,0,0:0:0:0:
192,160,59398,1,0,0:0:0:0:
192,160,59556,1,8,0:0:0:0:
192,160,59713,1,0,0:0:0:0:
192,160,59792,1,0,0:0:0:0:
192,160,59871,1,0,0:0:0:0:
192,160,60029,1,8,0:0:0:0:
192,160,60187,1,0,0:0:0:0:
192,160,60503,1,0,0:0:0:0:
224,96,60661,1,0,0:0:0:0:
192,160,60740,1,0,0:0:0:0:
224,256,60819,1,8,0:0:0:0:
224,288,60977,1,0,0:0:0:0:
224,288,61135,1,0,0:0:0:0:
224,288,61292,1,8,0:0:0:0:
256,160,61450,1,0,0:0:0:0:
256,160,61766,1,8,0:0:0:0:
256,160,61924,1,0,0:0:0:0:
256,160,62082,1,8,0:0:0:0:
256,160,62240,1,0,0:0:0:0:
256,160,62398,1,0,0:0:0:0:
192,160,62477,1,0,0:0:0:0:
256,160,62556,1,8,0:0:0:0:
256,160,62713,1,0,0:0:0:0:
256,160,63029,1,0,0:0:0:0:
192,160,63187,1,0,0:0:0:0:
192,160,63266,1,0,0:0:0:0:
192,160,63345,1,8,0:0:0:0:
192,160,63503,1,0,0:0:0:0:
192,160,63661,1,0,0:0:0:0:
192,160,63819,1,8,0:0:0:0:
192,160,63977,5,0,0:0:0:0:
192,160,64292,1,0,0:0:0:0:
192,160,64371,1,0,0:0:0:0:
320,192,64450,1,0,0:0:0:0:
192,160,64608,1,8,0:0:0:0:
352,256,64766,1,0,0:0:0:0:
192,160,64845,1,0,0:0:0:0:
192,160,64924,1,0,0:0:0:0:
192,160,65082,1,8,0:0:0:0:
192,160,65240,1,0,0:0:0:0:
352,256,65556,1,12,0:0:0:0:
320,128,65713,5,0,0:0:0:0:
384,224,65871,1,8,0:0:0:0:
384,224,66029,1,0,0:0:0:0:
320,128,66108,1,0,0:0:0:0:
384,224,66187,1,8,0:0:0:0:
384,224,66345,1,0,0:0:0:0:
384,224,66661,1,8,0:0:0:0:
320,192,66740,1,8,0:0:0:0:
320,192,66819,1,8,0:0:0:0:
416,256,66977,1,0,0:0:0:0:
448,224,67135,1,8,0:0:0:0:
448,224,67292,1,0,0:0:0:0:
448,224,67450,1,0,0:0:0:0:
85,187,67529,1,0,0:0:0:0:
448,224,67608,1,8,0:0:0:0:
448,224,67766,1,0,0:0:0:0:
448,224,68082,1,0,0:0:0:0:
343,253,68240,1,8,0:0:0:0:
343,253,68319,1,8,0:0:0:0:
343,253,68398,1,0,0:0:0:0:
343,253,68556,1,8,0:0:0:0:
343,253,68713,1,0,0:0:0:0:
343,253,69029,1,0,0:0:0:0:
343,253,69187,1,8,0:0:0:0:
343,253,69266,1,8,0:0:0:0:
343,253,69345,1,8,0:0:0:0:
415,213,69503,1,0,0:0:0:0:
403,209,69661,1,8,0:0:0:0:
403,209,69819,1,0,0:0:0:0:
428,258,69977,1,8,0:0:0:0:
158,172,70056,1,8,0:0:0:0:
403,209,70135,1,0,0:0:0:0:
407,209,70292,1,8,0:0:0:0:
276,152,70608,1,0,0:0:0:0:
384,224,70924,1,8,0:0:0:0:
384,224,71082,1,0,0:0:0:0:
320,128,71161,1,0,0:0:0:0:
384,224,71240,1,8,0:0:0:0:
321,199,71556,1,0,0:0:0:0:
384,224,71713,1,8,0:0:0:0:
320,192,71792,1,8,0:0:0:0:
320,192,71871,1,8,0:0:0:0:
416,256,72029,1,0,0:0:0:0:
226,47,72108,1,0,0:0:0:0:
448,224,72187,1,8,0:0:0:0:
448,224,72345,1,0,0:0:0:0:
448,224,72503,1,8,0:0:0:0:
448,224,72661,1,0,0:0:0:0:
448,224,72819,1,8,0:0:0:0:
448,224,73135,1,0,0:0:0:0:
282,118,73292,1,8,0:0:0:0:
343,253,73450,1,8,0:0:0:0:
343,253,73608,1,0,0:0:0:0:
343,253,73766,1,8,0:0:0:0:
343,253,74082,1,0,0:0:0:0:
343,253,74240,1,8,0:0:0:0:
343,253,74319,1,8,0:0:0:0:
343,253,74398,1,8,0:0:0:0:
415,213,74556,1,0,0:0:0:0:
403,209,74713,1,8,0:0:0:0:
403,209,74871,1,0,0:0:0:0:
428,258,75029,1,0,0:0:0:0:
407,209,75345,1,8,0:0:0:0:
192,96,75661,1,12,0:0:0:0:
352,224,75977,1,8,0:0:0:0:
352,224,76135,1,8,0:0:0:0:
352,224,76292,1,0,0:0:0:0:
352,224,76450,1,8,0:0:0:0:
352,224,76608,1,0,0:0:0:0:
288,224,76924,1,0,0:0:0:0:
288,224,77240,1,8,0:0:0:0:
288,224,77398,1,0,0:0:0:0:
288,224,77556,1,0,0:0:0:0:
288,224,77713,1,8,0:0:0:0:
288,224,77871,1,0,0:0:0:0:
288,224,78187,1,0,0:0:0:0:
96,160,78503,1,8,0:0:0:0:
96,160,78661,1,0,0:0:0:0:
96,160,78977,1,8,0:0:0:0:
96,160,79135,1,0,0:0:0:0:
96,160,79450,1,0,0:0:0:0:
320,256,79529,1,0,0:0:0:0:
352,288,79608,1,0,0:0:0:0:
352,288,79766,1,8,0:0:0:0:
352,288,79924,1,0,0:0:0:0:
352,288,80240,1,8,0:0:0:0:
160,64,80398,1,0,0:0:0:0:
256,160,80713,1,0,0:0:0:0:
224,128,81029,1,8,0:0:0:0:
224,128,81187,1,0,0:0:0:0:
224,128,81503,1,8,0:0:0:0:
224,128,81977,1,0,0:0:0:0:
224,128,82292,1,8,0:0:0:0:
224,128,82766,1,8,0:0:0:0:
224,128,83240,1,0,0:0:0:0:
224,128,84503,1,8,0:0:0:0:
128,192,85135,1,8,0:0:0:0:
224,128,85766,1,12,0:0:0:0:
288,224,86082,1,0,0:0:0:0:
288,224,86240,1,8,0:0:0:0:
288,224,86398,1,8,0:0:0:0:
288,224,86713,1,0,0:0:0:0:
288,224,86871,1,8,0:0:0:0:
288,224,87029,1,8,0:0:0:0:
224,32,87108,1,8,0:0:0:0:
288,224,87187,1,0,0:0:0:0:
288,224,87345,1,8,0:0:0:0:
288,224,87503,1,0,0:0:0:0:
32,160,87582,1,0,0:0:0:0:
288,224,87661,1,8,0:0:0:0:
288,224,87819,1,0,0:0:0:0:
288,224,87977,1,8,0:0:0:0:
288,224,88135,1,0,0:0:0:0:
288,224,88292,1,8,0:0:0:0:
288,224,88608,1,0,0:0:0:0:
288,224,88766,1,8,0:0:0:0:
288,224,88924,1,8,0:0:0:0:
256,224,89240,1,8,0:0:0:0:
256,224,89398,1,0,0:0:0:0:
288,192,89556,1,8,0:0:0:0:
448,256,89635,1,8,0:0:0:0:
256,256,89713,1,0,0:0:0:0:
256,256,89871,1,0,0:0:0:0:
32,160,89950,1,0,0:0:0:0:
448,256,90029,1,8,0:0:0:0:
448,256,90187,1,0,0:0:0:0:
448,256,90345,1,8,0:0:0:0:
192,128,90661,1,0,0:0:0:0:
192,128,90819,1,8,0:0:0:0:
224,160,91135,1,0,0:0:0:0:
224,160,91292,1,8,0:0:0:0:
224,160,91450,1,8,0:0:0:0:
224,160,91766,1,0,0:0:0:0:
224,160,91924,1,8,0:0:0:0:
224,160,92082,1,8,0:0:0:0:
160,128,92161,1,8,0:0:0:0:
224,160,92240,1,0,0:0:0:0:
224,160,92398,1,8,0:0:0:0:
224,160,92556,1,0,0:0:0:0:
224,160,92713,1,8,0:0:0:0:
192,128,92792,1,8,0:0:0:0:
224,160,92871,1,0,0:0:0:0:
224,160,93029,1,0,0:0:0:0:
224,160,93187,1,0,0:0:0:0:
224,160,93345,1,8,0:0:0:0:
224,160,93661,1,0,0:0:0:0:
224,160,93819,1,8,0:0:0:0:
224,160,93977,1,8,0:0:0:0:
224,160,94292,1,8,0:0:0:0:
224,160,94450,1,0,0:0:0:0:
192,160,94608,1,8,0:0:0:0:
224,160,94687,1,0,0:0:0:0:
224,160,94766,1,0,0:0:0:0:
224,160,94924,1,8,0:0:0:0:
224,160,95082,1,8,0:0:0:0:
32,160,95161,1,8,0:0:0:0:
224,160,95240,1,0,0:0:0:0:
224,160,95398,1,8,0:0:0:0:
224,160,95713,1,0,0:0:0:0:
224,160,95871,1,12,0:0:0:0:
288,224,96187,1,0,0:0:0:0:
288,224,96345,1,8,0:0:0:0:
288,224,96503,1,8,0:0:0:0:
288,224,96819,1,0,0:0:0:0:
288,224,96977,1,8,0:0:0:0:
288,224,97135,1,8,0:0:0:0:
224,32,97213,1,8,0:0:0:0:
288,224,97292,1,0,0:0:0:0:
288,224,97450,1,8,0:0:0:0:
288,224,97608,1,0,0:0:0:0:
288,224,97766,1,8,0:0:0:0:
32,160,97845,1,8,0:0:0:0:
288,224,97924,1,0,0:0:0:0:
288,224,98082,1,8,0:0:0:0:
288,224,98240,1,0,0:0:0:0:
288,224,98398,1,8,0:0:0:0:
288,224,98713,1,0,0:0:0:0:
288,224,98871,1,8,0:0:0:0:
288,224,99029,1,8,0:0:0:0:
256,224,99345,1,8,0:0:0:0:
256,224,99503,1,0,0:0:0:0:
288,192,99661,1,8,0:0:0:0:
448,256,99740,1,8,0:0:0:0:
256,256,99819,1,0,0:0:0:0:
256,256,99977,1,0,0:0:0:0:
448,256,100135,1,8,0:0:0:0:
448,256,100292,1,0,0:0:0:0:
448,256,100450,1,8,0:0:0:0:
192,128,100766,1,0,0:0:0:0:
192,128,100924,1,8,0:0:0:0:
224,160,101240,1,0,0:0:0:0:
224,160,101398,1,8,0:0:0:0:
224,160,101556,1,8,0:0:0:0:
224,160,101871,1,0,0:0:0:0:
224,160,102029,1,8,0:0:0:0:
224,160,102187,1,8,0:0:0:0:
160,128,102266,1,8,0:0:0:0:
224,160,102345,1,0,0:0:0:0:
224,160,102503,1,8,0:0:0:0:
224,160,102661,1,0,0:0:0:0:
192,160,102740,1,0,0:0:0:0:
224,160,102819,1,8,0:0:0:0:
160,160,102977,1,8,0:0:0:0:
224,160,103135,1,0,0:0:0:0:
224,160,103292,1,0,0:0:0:0:
224,160,103450,1,8,0:0:0:0:
224,160,103766,1,0,0:0:0:0:
224,160,103924,1,8,0:0:0:0:
224,160,104082,1,8,0:0:0:0:
224,160,104398,1,8,0:0:0:0:
224,160,104556,1,0,0:0:0:0:
192,160,104713,1,0,0:0:0:0:
224,160,104792,1,0,0:0:0:0:
224,160,104871,1,0,0:0:0:0:
160,160,104950,1,0,0:0:0:0:
224,160,105029,1,8,0:0:0:0:
224,160,105187,1,8,0:0:0:0:
224,160,105345,1,0,0:0:0:0:
32,160,105424,1,0,0:0:0:0:
224,160,105503,1,8,0:0:0:0:
192,96,105582,1,8,0:0:0:0:
224,160,105661,1,0,0:0:0:0:
192,64,105977,1,12,0:0:0:0:
224,128,106292,1,8,0:0:0:0:
224,128,106450,1,0,0:0:0:0:
224,128,106608,1,0,0:0:0:0:
288,96,106924,5,8,0:0:0:0:
288,96,107082,1,0,0:0:0:0:
320,192,107240,1,0,0:0:0:0:
384,256,107398,1,0,0:0:0:0:
320,192,107556,1,8,0:0:0:0:
320,192,107713,1,0,0:0:0:0:
320,192,107792,1,0,0:0:0:0:
320,192,107871,1,8,0:0:0:0:
320,192,108029,1,0,0:0:0:0:
320,192,108187,1,8,0:0:0:0:
384,224,108345,1,0,0:0:0:0:
320,224,108503,1,0,0:0:0:0:
384,224,108819,1,8,0:0:0:0:
384,224,108977,1,0,0:0:0:0:
384,224,109135,1,0,0:0:0:0:
384,256,109450,1,8,0:0:0:0:
384,256,109608,1,0,0:0:0:0:
384,256,109766,1,0,0:0:0:0:
384,256,109845,1,0,0:0:0:0:
384,256,109924,1,0,0:0:0:0:
384,256,110082,1,8,0:0:0:0:
384,256,110240,1,0,0:0:0:0:
192,160,110398,1,8,0:0:0:0:
192,160,110556,1,0,0:0:0:0:
192,160,110713,1,8,0:0:0:0:
192,160,111029,1,0,0:0:0:0:
256,160,111345,1,8,0:0:0:0:
256,160,111503,1,0,0:0:0:0:
256,160,111661,1,0,0:0:0:0:
256,160,111977,1,8,0:0:0:0:
256,160,112135,1,0,0:0:0:0:
256,160,112292,1,0,0:0:0:0:
288,160,112450,1,0,0:0:0:0:
288,160,112529,1,0,0:0:0:0:
288,160,112608,1,8,0:0:0:0:
288,160,112766,1,0,0:0:0:0:
288,160,112924,1,8,0:0:0:0:
288,160,113082,1,0,0:0:0:0:
224,192,113161,1,0,0:0:0:0:
224,192,113240,1,8,0:0:0:0:
288,160,113398,1,0,0:0:0:0:
288,160,113556,1,0,0:0:0:0:
320,192,113871,1,8,0:0:0:0:
352,192,114029,1,0,0:0:0:0:
352,192,114187,1,0,0:0:0:0:
352,192,114503,1,8,0:0:0:0:
352,192,114661,1,0,0:0:0:0:
352,192,114819,1,0,0:0:0:0:
160,128,114977,1,0,0:0:0:0:
288,224,115056,1,0,0:0:0:0:
352,192,115135,1,8,0:0:0:0:
160,160,115292,1,0,0:0:0:0:
160,192,115450,1,8,0:0:0:0:
160,128,115529,1,8,0:0:0:0:
352,192,115608,1,0,0:0:0:0:
352,192,115766,1,4,0:0:0:0:
128,128,116082,1,12,0:0:0:0:
224,128,116398,1,8,0:0:0:0:
224,128,116556,1,0,0:0:0:0:
224,128,116713,1,0,0:0:0:0:
288,96,117029,5,8,0:0:0:0:
288,96,117187,1,0,0:0:0:0:
320,192,117266,1,0,0:0:0:0:
320,192,117345,1,8,0:0:0:0:
384,256,117503,1,0,0:0:0:0:
320,192,117661,1,8,0:0:0:0:
320,192,117819,1,0,0:0:0:0:
320,192,117977,1,8,0:0:0:0:
128,128,118056,1,0,0:0:0:0:
320,192,118135,1,0,0:0:0:0:
320,192,118292,1,8,0:0:0:0:
384,224,118450,1,0,0:0:0:0:
320,224,118608,1,0,0:0:0:0:
384,224,118924,1,8,0:0:0:0:
384,224,119082,1,0,0:0:0:0:
384,224,119240,1,0,0:0:0:0:
384,256,119556,1,8,0:0:0:0:
384,256,119713,1,0,0:0:0:0:
384,256,119871,1,8,0:0:0:0:
384,256,119950,1,8,0:0:0:0:
384,256,120029,1,0,0:0:0:0:
384,256,120187,1,8,0:0:0:0:
384,256,120345,1,0,0:0:0:0:
192,64,120424,1,0,0:0:0:0:
160,160,120503,1,8,0:0:0:0:
192,160,120661,1,0,0:0:0:0:
192,160,120819,1,8,0:0:0:0:
192,160,121135,1,0,0:0:0:0:
256,160,121450,1,8,0:0:0:0:
256,160,121608,1,0,0:0:0:0:
256,160,121766,1,0,0:0:0:0:
256,160,122082,1,8,0:0:0:0:
256,160,122240,1,0,0:0:0:0:
256,160,122398,1,8,0:0:0:0:
288,160,122556,1,0,0:0:0:0:
288,160,122635,1,0,0:0:0:0:
288,160,122713,1,8,0:0:0:0:
288,160,122871,1,0,0:0:0:0:
288,160,123029,1,8,0:0:0:0:
288,160,123187,1,0,0:0:0:0:
224,192,123345,1,8,0:0:0:0:
288,160,123503,1,0,0:0:0:0:
288,160,123661,1,0,0:0:0:0:
320,192,123977,1,8,0:0:0:0:
352,192,124135,1,0,0:0:0:0:
224,96,124213,1,0,0:0:0:0:
352,192,124292,1,8,0:0:0:0:
160,224,124450,1,0,0:0:0:0:
352,192,124608,1,8,0:0:0:0:
352,192,124766,1,0,0:0:0:0:
352,192,124924,1,8,0:0:0:0:
192,224,125003,1,8,0:0:0:0:
160,128,125082,1,0,0:0:0:0:
288,224,125161,1,0,0:0:0:0:
352,192,125240,1,8,0:0:0:0:
160,160,125398,1,0,0:0:0:0:
160,192,125556,1,8,0:0:0:0:
160,128,125635,1,0,0:0:0:0:
352,192,125713,1,0,0:0:0:0:
352,224,125792,1,0,0:0:0:0:
352,192,125871,1,8,0:0:0:0:
352,224,126187,1,12,0:0:0:0:
267,171,126503,1,8,0:0:0:0:
267,171,126661,1,0,0:0:0:0:
267,171,126819,1,0,0:0:0:0:
267,171,126977,1,8,0:0:0:0:
267,171,127135,1,0,0:0:0:0:
267,171,127450,1,0,0:0:0:0:
267,171,127608,1,0,0:0:0:0:
267,171,127766,1,8,0:0:0:0:
269,177,127924,1,0,0:0:0:0:
269,178,128240,1,0,0:0:0:0:
269,178,128398,1,8,0:0:0:0:
128,187,128556,1,8,0:0:0:0:
128,187,128713,1,0,0:0:0:0:
128,187,128871,1,0,0:0:0:0:
128,187,129029,1,8,0:0:0:0:
133,182,129187,1,0,0:0:0:0:
122,117,129503,1,0,0:0:0:0:
122,117,129661,1,8,0:0:0:0:
122,117,129819,1,0,0:0:0:0:
122,117,129977,1,0,0:0:0:0:
311,122,130056,1,0,0:0:0:0:
122,117,130135,1,0,0:0:0:0:
122,117,130292,1,8,0:0:0:0:
129,114,130450,1,0,0:0:0:0:
129,114,130766,1,8,0:0:0:0:
129,116,130924,1,0,0:0:0:0:
312,122,131240,1,0,0:0:0:0:
224,96,131398,1,0,0:0:0:0:
224,256,131556,1,8,0:0:0:0:
224,288,131713,1,0,0:0:0:0:
192,160,131792,1,0,0:0:0:0:
224,288,131871,1,0,0:0:0:0:
224,288,132029,1,8,0:0:0:0:
256,160,132187,1,0,0:0:0:0:
256,160,132503,1,8,0:0:0:0:
256,160,132661,1,0,0:0:0:0:
256,160,132819,1,8,0:0:0:0:
256,160,132977,1,0,0:0:0:0:
256,160,133135,1,0,0:0:0:0:
192,160,133213,1,0,0:0:0:0:
256,160,133292,1,0,0:0:0:0:
256,160,133450,1,8,0:0:0:0:
256,160,133766,1,0,0:0:0:0:
192,160,133924,1,0,0:0:0:0:
192,160,134003,1,0,0:0:0:0:
192,160,134082,1,8,0:0:0:0:
192,160,134240,1,0,0:0:0:0:
192,160,134398,1,0,0:0:0:0:
192,160,134556,1,8,0:0:0:0:
192,160,134713,5,0,0:0:0:0:
192,160,135029,1,0,0:0:0:0:
320,192,135187,1,0,0:0:0:0:
192,160,135503,1,8,0:0:0:0:
352,256,135661,1,0,0:0:0:0:
86,176,135819,1,0,0:0:0:0:
192,160,135977,1,8,0:0:0:0:
67,80,136292,1,0,0:0:0:0:
352,256,136608,1,12,0:0:0:0:
384,288,136766,1,0,0:0:0:0:
230,201,136845,1,0,0:0:0:0:
384,288,136924,1,8,0:0:0:0:
384,288,137082,1,0,0:0:0:0:
230,201,137398,1,8,0:0:0:0:
230,201,137477,1,8,0:0:0:0:
230,201,137556,1,8,0:0:0:0:
230,201,137713,1,0,0:0:0:0:
230,201,137871,1,8,0:0:0:0:
239,203,138029,1,0,0:0:0:0:
241,204,138108,1,0,0:0:0:0:
241,204,138187,1,8,0:0:0:0:
240,204,138345,1,0,0:0:0:0:
240,204,138503,1,8,0:0:0:0:
235,142,138819,1,0,0:0:0:0:
235,142,139135,1,8,0:0:0:0:
235,142,139292,1,8,0:0:0:0:
235,142,139450,1,0,0:0:0:0:
231,177,139529,1,0,0:0:0:0:
231,178,139608,1,0,0:0:0:0:
231,178,139766,1,0,0:0:0:0:
231,177,139924,1,8,0:0:0:0:
368,178,140003,1,8,0:0:0:0:
368,178,140082,1,8,0:0:0:0:
368,178,140240,1,0,0:0:0:0:
368,178,140398,1,8,0:0:0:0:
256,192,140556,5,0,0:0:0:0:
196,204,140635,1,0,0:0:0:0:
256,195,140713,1,8,0:0:0:0:
256,199,140871,1,8,0:0:0:0:
256,199,141029,1,0,0:0:0:0:
256,192,141345,1,0,0:0:0:0:
157,192,141661,1,8,0:0:0:0:
157,192,141819,1,0,0:0:0:0:
171,200,141898,1,0,0:0:0:0:
157,192,141977,1,8,0:0:0:0:
378,264,142292,1,0,0:0:0:0:
378,264,142450,1,8,0:0:0:0:
378,264,142529,1,8,0:0:0:0:
378,264,142608,1,8,0:0:0:0:
378,264,142766,1,0,0:0:0:0:
378,264,142924,1,8,0:0:0:0:
378,264,143003,1,8,0:0:0:0:
378,264,143082,1,0,0:0:0:0:
378,264,143240,1,8,0:0:0:0:
378,264,143398,1,8,0:0:0:0:
378,264,143556,1,0,0:0:0:0:
224,224,143871,1,0,0:0:0:0:
224,224,144029,1,0,0:0:0:0:
192,224,144187,1,8,0:0:0:0:
192,224,144345,1,0,0:0:0:0:
224,224,144503,1,8,0:0:0:0:
288,192,144819,1,0,0:0:0:0:
288,192,144977,1,8,0:0:0:0:
288,192,145056,1,8,0:0:0:0:
288,192,145135,1,8,0:0:0:0:
288,192,145292,1,0,0:0:0:0:
288,192,145450,1,8,0:0:0:0:
288,224,145529,1,8,0:0:0:0:
288,224,145608,1,0,0:0:0:0:
288,224,145766,1,8,0:0:0:0:
288,224,145924,1,0,0:0:0:0:
288,224,146082,1,8,0:0:0:0:
192,96,146398,1,12,0:0:0:0:
352,224,146713,1,8,0:0:0:0:
352,224,146871,1,8,0:0:0:0:
352,224,147029,1,0,0:0:0:0:
352,224,147187,1,8,0:0:0:0:
352,224,147345,1,0,0:0:0:0:
288,224,147661,1,0,0:0:0:0:
288,224,147977,1,8,0:0:0:0:
288,224,148135,1,0,0:0:0:0:
288,224,148292,1,0,0:0:0:0:
288,224,148450,1,8,0:0:0:0:
288,224,148608,1,0,0:0:0:0:
288,224,148924,1,0,0:0:0:0:
96,160,149240,1,8,0:0:0:0:
96,160,149398,1,0,0:0:0:0:
96,160,149713,1,8,0:0:0:0:
96,160,149871,1,0,0:0:0:0:
96,160,150187,1,0,0:0:0:0:
320,256,150266,1,0,0:0:0:0:
352,288,150345,1,0,0:0:0:0:
352,288,150503,1,8,0:0:0:0:
352,288,150661,1,0,0:0:0:0:
352,288,150977,1,8,0:0:0:0:
160,64,151135,1,0,0:0:0:0:
256,160,151450,1,0,0:0:0:0:
224,128,151766,1,8,0:0:0:0:
224,128,151924,1,0,0:0:0:0:
224,128,152240,1,8,0:0:0:0:
224,128,152713,1,0,0:0:0:0:
224,128,153187,1,0,0:0:0:0:
224,128,153503,1,8,0:0:0:0:
224,128,153977,1,0,0:0:0:0:
224,128,155240,1,8,0:0:0:0:
128,192,155871,1,8,0:0:0:0:
288,160,156503,1,12,0:0:0:0:
288,128,157135,1,8,0:0:0:0:
192,128,157766,1,0,0:0:0:0:
192,128,158398,1,8,0:0:0:0:
288,128,159029,1,0,0:0:0:0:
192,128,159661,1,8,0:0:0:0:
192,128,160292,1,0,0:0:0:0:
192,128,160924,1,8,0:0:0:0:
192,128,161240,1,0,0:0:0:0:
192,128,161556,1,0,0:0:0:0:
192,128,162187,1,8,0:0:0:0:
192,128,162819,1,0,0:0:0:0:
160,160,163450,1,8,0:0:0:0:
160,160,164082,1,0,0:0:0:0:
160,160,164713,1,8,0:0:0:0:
160,160,165345,1,0,0:0:0:0:
160,160,165819,1,0,0:0:0:0:
160,160,166292,1,0,0:0:0:0:
160,160,166608,1,8,0:0:0:0:
160,192,166924,1,0,0:0:0:0:
160,192,167240,1,8,0:0:0:0:
160,192,167556,1,0,0:0:0:0:
160,160,167871,1,0,0:0:0:0:
160,160,168187,1,0,0:0:0:0:
160,160,168503,1,8,0:0:0:0:
160,160,168819,1,0,0:0:0:0:
192,192,168977,1,0,0:0:0:0:
160,160,169135,1,0,0:0:0:0:
160,128,169450,1,0,0:0:0:0:
160,128,169766,1,8,0:0:0:0:
224,160,170082,1,0,0:0:0:0:
160,128,170398,1,0,0:0:0:0:
160,128,170713,1,0,0:0:0:0:
160,128,171029,1,8,0:0:0:0:
160,128,171345,1,0,0:0:0:0:
192,128,171503,1,0,0:0:0:0:
160,128,171661,1,8,0:0:0:0:
160,128,171977,1,0,0:0:0:0:
160,128,172135,1,0,0:0:0:0:
160,128,172292,1,8,0:0:0:0:
160,128,172608,1,0,0:0:0:0:
160,128,172766,1,0,0:0:0:0:
160,128,172924,1,8,0:0:0:0:
160,128,173240,1,0,0:0:0:0:
160,128,173556,1,8,0:0:0:0:
160,128,173871,1,0,0:0:0:0:
160,128,174029,1,0,0:0:0:0:
160,128,174187,1,8,0:0:0:0:
160,128,174503,1,0,0:0:0:0:
160,128,174819,1,8,0:0:0:0:
160,128,175135,1,0,0:0:0:0:
320,160,175450,1,8,0:0:0:0:
320,160,175608,1,0,0:0:0:0:
320,160,175766,1,8,0:0:0:0:
320,160,175924,1,0,0:0:0:0:
320,192,176082,1,8,0:0:0:0:
320,192,176240,1,0,0:0:0:0:
320,192,176398,1,8,0:0:0:0:
320,192,176477,1,8,0:0:0:0:
320,192,176556,1,0,0:0:0:0:
320,192,176713,1,12,0:0:0:0:
288,256,177029,1,0,0:0:0:0:
288,256,177187,1,8,0:0:0:0:
288,256,177345,1,8,0:0:0:0:
288,256,177661,1,0,0:0:0:0:
288,256,177819,1,8,0:0:0:0:
288,256,177977,1,8,0:0:0:0:
224,64,178056,1,8,0:0:0:0:
288,256,178135,1,0,0:0:0:0:
288,256,178292,1,8,0:0:0:0:
288,256,178450,1,0,0:0:0:0:
32,192,178529,1,0,0:0:0:0:
288,256,178608,1,8,0:0:0:0:
288,256,178766,1,0,0:0:0:0:
288,256,178924,1,8,0:0:0:0:
288,256,179082,1,0,0:0:0:0:
288,256,179240,1,8,0:0:0:0:
288,256,179556,1,0,0:0:0:0:
288,256,179713,1,8,0:0:0:0:
288,256,179871,1,8,0:0:0:0:
256,256,180187,1,8,0:0:0:0:
256,256,180345,1,0,0:0:0:0:
288,224,180503,1,8,0:0:0:0:
448,288,180582,1,8,0:0:0:0:
256,288,180661,1,0,0:0:0:0:
256,288,180819,1,0,0:0:0:0:
32,192,180898,1,0,0:0:0:0:
448,288,180977,1,8,0:0:0:0:
448,288,181135,1,0,0:0:0:0:
448,288,181292,1,8,0:0:0:0:
192,160,181608,1,0,0:0:0:0:
192,160,181766,1,8,0:0:0:0:
224,192,182082,1,0,0:0:0:0:
224,192,182240,1,8,0:0:0:0:
224,192,182398,1,8,0:0:0:0:
224,192,182713,1,0,0:0:0:0:
224,192,182871,1,8,0:0:0:0:
224,192,183029,1,8,0:0:0:0:
160,160,183108,1,8,0:0:0:0:
224,192,183187,1,0,0:0:0:0:
224,192,183345,1,8,0:0:0:0:
224,192,183503,1,0,0:0:0:0:
224,192,183661,1,8,0:0:0:0:
192,192,183740,1,8,0:0:0:0:
224,192,183819,1,0,0:0:0:0:
224,192,183977,1,0,0:0:0:0:
224,192,184135,1,0,0:0:0:0:
224,192,184292,1,8,0:0:0:0:
224,192,184608,1,0,0:0:0:0:
224,192,184766,1,8,0:0:0:0:
224,192,184924,1,8,0:0:0:0:
224,192,185240,1,8,0:0:0:0:
224,192,185398,1,0,0:0:0:0:
192,192,185556,1,8,0:0:0:0:
224,192,185635,1,0,0:0:0:0:
224,192,185713,1,0,0:0:0:0:
224,192,185871,1,8,0:0:0:0:
224,192,186029,1,8,0:0:0:0:
32,192,186108,1,8,0:0:0:0:
224,192,186187,1,0,0:0:0:0:
224,192,186345,1,8,0:0:0:0:
224,192,186661,1,0,0:0:0:0:
224,192,186819,1,12,0:0:0:0:
288,256,187135,1,0,0:0:0:0:
288,256,187292,1,8,0:0:0:0:
288,256,187450,1,8,0:0:0:0:
288,256,187766,1,0,0:0:0:0:
288,256,187924,1,8,0:0:0:0:
288,256,188082,1,8,0:0:0:0:
224,64,188161,1,8,0:0:0:0:
288,256,188240,1,0,0:0:0:0:
288,256,188398,1,8,0:0:0:0:
288,256,188556,1,0,0:0:0:0:
288,256,188713,1,8,0:0:0:0:
32,192,188792,1,8,0:0:0:0:
288,256,188871,1,0,0:0:0:0:
288,256,189029,1,8,0:0:0:0:
288,256,189187,1,0,0:0:0:0:
288,256,189345,1,8,0:0:0:0:
288,256,189661,1,0,0:0:0:0:
288,256,189819,1,8,0:0:0:0:
288,256,189977,1,8,0:0:0:0:
256,256,190292,1,8,0:0:0:0:
256,256,190450,1,0,0:0:0:0:
288,224,190608,1,8,0:0:0:0:
448,288,190687,1,8,0:0:0:0:
256,288,190766,1,0,0:0:0:0:
256,288,190924,1,0,0:0:0:0:
448,288,191082,1,8,0:0:0:0:
448,288,191240,1,0,0:0:0:0:
448,288,191398,1,8,0:0:0:0:
192,160,191713,1,0,0:0:0:0:
192,160,191871,1,8,0:0:0:0:
224,192,192187,1,0,0:0:0:0:
224,192,192345,1,8,0:0:0:0:
224,192,192503,1,8,0:0:0:0:
224,192,192819,1,0,0:0:0:0:
224,192,192977,1,8,0:0:0:0:
224,192,193135,1,8,0:0:0:0:
160,160,193213,1,8,0:0:0:0:
224,192,193292,1,0,0:0:0:0:
224,192,193450,1,8,0:0:0:0:
224,192,193608,1,0,0:0:0:0:
192,192,193687,1,0,0:0:0:0:
224,192,193766,1,8,0:0:0:0:
224,192,193924,1,8,0:0:0:0:
224,192,194082,1,0,0:0:0:0:
224,192,194240,1,0,0:0:0:0:
224,192,194398,1,8,0:0:0:0:
160,160,194556,1,0,0:0:0:0:
160,160,194635,1,0,0:0:0:0:
160,160,194713,1,0,0:0:0:0:
160,160,194792,1,0,0:0:0:0:
224,192,194871,1,8,0:0:0:0:
224,192,195029,1,8,0:0:0:0:
256,224,195187,1,0,0:0:0:0:
288,224,195266,1,0,0:0:0:0:
224,192,195345,1,0,0:0:0:0:
256,192,195424,1,0,0:0:0:0:
224,192,195503,1,8,0:0:0:0:
192,192,195661,1,8,0:0:0:0:
288,128,195819,1,0,0:0:0:0:
288,128,196135,1,8,0:0:0:0:
288,128,196450,1,4,0:0:0:0:
192,160,196924,1,12,0:0:0:0:
224,192,197082,1,0,0:0:0:0:
224,192,197240,1,8,0:0:0:0:
320,384,197398,1,0,0:0:0:0:
224,224,197477,1,0,0:0:0:0:
224,224,197556,1,0,0:0:0:0:
224,224,197713,1,8,0:0:0:0:
256,224,197871,1,8,0:0:0:0:
256,224,198029,1,0,0:0:0:0:
256,224,198108,1,0,0:0:0:0:
256,224,198187,1,0,0:0:0:0:
256,224,198345,1,0,0:0:0:0:
224,224,198503,1,8,0:0:0:0:
224,224,198661,1,0,0:0:0:0:
224,224,198740,1,0,0:0:0:0:
224,224,198819,1,0,0:0:0:0:
224,224,198977,1,8,0:0:0:0:
160,192,199135,1,8,0:0:0:0:
160,192,199292,1,0,0:0:0:0:
160,192,199450,1,8,0:0:0:0:
158,29,199608,1,0,0:0:0:0:
158,29,199766,1,8,0:0:0:0:
288,128,199924,1,8,0:0:0:0:
140,149,200003,1,8,0:0:0:0:
288,128,200082,1,0,0:0:0:0:
320,192,200240,1,0,0:0:0:0:
320,192,200398,1,8,0:0:0:0:
360,143,200713,1,0,0:0:0:0:
360,143,200792,1,0,0:0:0:0:
360,143,200871,1,0,0:0:0:0:
360,143,201029,1,8,0:0:0:0:
360,143,201187,1,8,0:0:0:0:
360,143,201345,1,0,0:0:0:0:
360,143,201661,1,8,0:0:0:0:
360,143,201819,1,0,0:0:0:0:
360,143,201977,1,8,0:0:0:0:
216,43,202056,1,8,0:0:0:0:
216,43,202135,1,0,0:0:0:0:
199,218,202292,1,8,0:0:0:0:
199,218,202450,1,8,0:0:0:0:
199,218,202529,1,0,0:0:0:0:
199,218,202608,1,0,0:0:0:0:
199,218,202766,1,8,0:0:0:0:
207,208,202924,1,8,0:0:0:0:
208,207,203082,1,0,0:0:0:0:
208,207,203240,1,8,0:0:0:0:
208,207,203319,1,0,0:0:0:0:
207,207,203398,1,0,0:0:0:0:
204,198,203556,1,8,0:0:0:0:
205,198,203713,1,0,0:0:0:0:
205,200,203871,1,8,0:0:0:0:
246,69,203950,1,8,0:0:0:0:
246,69,204029,1,0,0:0:0:0:
246,69,204187,1,8,0:0:0:0:
246,69,204503,1,8,0:0:0:0:
246,69,204582,1,0,0:0:0:0:
246,69,204661,1,0,0:0:0:0:
266,214,204819,1,8,0:0:0:0:
266,214,204977,1,8,0:0:0:0:
266,214,205056,1,8,0:0:0:0:
266,214,205135,1,0,0:0:0:0:
266,214,205292,1,8,0:0:0:0:
249,193,205450,1,8,0:0:0:0:
223,77,205608,1,0,0:0:0:0:
249,193,205766,1,8,0:0:0:0:
230,83,205924,1,8,0:0:0:0:
234,96,206082,1,0,0:0:0:0:
233,125,206240,1,0,0:0:0:0:
233,116,206398,1,8,0:0:0:0:
236,131,206556,1,0,0:0:0:0:
241,119,206713,1,8,0:0:0:0:
241,131,206871,1,8,0:0:0:0:
241,131,207029,1,12,0:0:0:0:
318,226,207345,1,8,0:0:0:0:
293,117,207503,1,0,0:0:0:0:
293,117,207582,1,0,0:0:0:0:
293,117,207661,1,0,0:0:0:0:
293,117,207819,1,8,0:0:0:0:
293,117,207977,1,8,0:0:0:0:
293,117,208135,1,0,0:0:0:0:
293,117,208213,1,0,0:0:0:0:
293,117,208292,1,0,0:0:0:0:
293,117,208450,1,0,0:0:0:0:
293,117,208608,1,8,0:0:0:0:
293,117,208766,1,0,0:0:0:0:
293,117,208924,1,8,0:0:0:0:
278,152,209082,1,0,0:0:0:0:
286,156,209240,1,8,0:0:0:0:
291,157,209398,1,0,0:0:0:0:
292,159,209556,1,0,0:0:0:0:
297,161,209635,1,0,0:0:0:0:
297,161,209713,1,0,0:0:0:0:
298,162,209871,1,8,0:0:0:0:
298,162,210029,1,8,0:0:0:0:
298,162,210108,1,0,0:0:0:0:
298,162,210187,1,0,0:0:0:0:
299,160,210345,1,8,0:0:0:0:
299,160,210503,1,8,0:0:0:0:
300,161,210582,1,8,0:0:0:0:
297,161,210661,1,0,0:0:0:0:
298,162,210819,1,8,0:0:0:0:
298,162,210977,1,8,0:0:0:0:
298,162,211056,1,8,0:0:0:0:
298,162,211135,1,8,0:0:0:0:
299,160,211292,1,8,0:0:0:0:
299,160,211450,1,8,0:0:0:0:
299,160,211529,1,8,0:0:0:0:
300,161,211608,1,8,0:0:0:0:
297,161,211687,1,8,0:0:0:0:
298,162,211766,1,0,0:0:0:0:
292,155,211924,1,8,0:0:0:0:
298,162,212082,1,12,0:0:0:0:
276,188,212398,1,8,0:0:0:0:
291,132,212556,1,8,0:0:0:0:
291,132,212713,1,8,0:0:0:0:
291,132,212871,1,0,0:0:0:0:
290,132,213029,1,8,0:0:0:0:
258,146,213187,1,0,0:0:0:0:
141,113,213345,1,8,0:0:0:0:
141,113,213503,1,0,0:0:0:0:
141,113,213661,1,0,0:0:0:0:
141,113,213819,1,8,0:0:0:0:
141,113,213898,1,8,0:0:0:0:
141,113,213977,1,0,0:0:0:0:
141,113,214135,1,0,0:0:0:0:
141,113,214292,1,8,0:0:0:0:
141,113,214450,1,0,0:0:0:0:
141,113,214608,1,8,0:0:0:0:
141,113,214766,1,8,0:0:0:0:
141,113,214924,1,0,0:0:0:0:
141,113,215082,1,8,0:0:0:0:
141,113,215240,1,8,0:0:0:0:
138,119,215398,1,0,0:0:0:0:
138,120,215556,1,8,0:0:0:0:
141,113,215713,1,0,0:0:0:0:
141,113,215871,1,8,0:0:0:0:
138,124,215950,1,0,0:0:0:0:
131,101,216029,1,0,0:0:0:0:
197,59,216108,1,0,0:0:0:0:
177,142,216187,1,8,0:0:0:0:
131,101,216345,1,0,0:0:0:0:
131,101,216503,1,8,0:0:0:0:
197,59,216582,1,8,0:0:0:0:
131,101,216661,1,0,0:0:0:0:
177,142,216740,1,0,0:0:0:0:
132,102,216819,1,8,0:0:0:0:
131,101,216977,1,8,0:0:0:0:
183,200,217135,1,12,0:0:0:0:
213,124,217450,1,8,0:0:0:0:
213,124,217608,1,0,0:0:0:0:
213,124,217766,1,0,0:0:0:0:
277,92,218082,5,8,0:0:0:0:
277,92,218240,1,0,0:0:0:0:
309,188,218398,1,0,0:0:0:0:
373,252,218556,1,0,0:0:0:0:
309,188,218713,1,8,0:0:0:0:
309,188,218871,1,0,0:0:0:0:
309,188,218950,1,0,0:0:0:0:
309,188,219029,1,8,0:0:0:0:
309,188,219187,1,0,0:0:0:0:
309,188,219345,1,8,0:0:0:0:
373,220,219503,1,0,0:0:0:0:
309,220,219661,1,0,0:0:0:0:
373,220,219977,1,8,0:0:0:0:
373,220,220135,1,0,0:0:0:0:
373,220,220292,1,0,0:0:0:0:
373,252,220608,1,8,0:0:0:0:
373,252,220766,1,0,0:0:0:0:
373,252,220924,1,0,0:0:0:0:
373,252,221003,1,0,0:0:0:0:
373,252,221082,1,0,0:0:0:0:
373,252,221240,1,8,0:0:0:0:
373,252,221398,1,0,0:0:0:0:
181,156,221556,1,8,0:0:0:0:
181,156,221713,1,0,0:0:0:0:
181,156,221871,1,8,0:0:0:0:
181,156,222187,1,0,0:0:0:0:
245,156,222503,1,8,0:0:0:0:
245,156,222661,1,0,0:0:0:0:
245,156,222819,1,0,0:0:0:0:
245,156,223135,1,8,0:0:0:0:
245,156,223292,1,0,0:0:0:0:
245,156,223450,1,0,0:0:0:0:
277,156,223608,1,0,0:0:0:0:
277,156,223687,1,0,0:0:0:0:
277,156,223766,1,8,0:0:0:0:
277,156,223924,1,0,0:0:0:0:
277,156,224082,1,8,0:0:0:0:
277,156,224240,1,0,0:0:0:0:
256,160,224319,1,0,0:0:0:0:
213,188,224398,1,8,0:0:0:0:
277,156,224556,1,0,0:0:0:0:
277,156,224713,1,0,0:0:0:0:
309,188,225029,1,8,0:0:0:0:
341,188,225187,1,0,0:0:0:0:
341,188,225345,1,0,0:0:0:0:
341,188,225661,1,8,0:0:0:0:
341,188,225819,1,0,0:0:0:0:
341,188,225977,1,0,0:0:0:0:
85,220,226056,1,0,0:0:0:0:
149,124,226135,1,0,0:0:0:0:
277,220,226213,1,0,0:0:0:0:
341,188,226292,1,8,0:0:0:0:
149,156,226450,1,0,0:0:0:0:
149,188,226608,1,8,0:0:0:0:
149,124,226687,1,8,0:0:0:0:
341,188,226766,1,0,0:0:0:0:
341,188,226924,1,4,0:0:0:0:
117,124,227240,1,12,0:0:0:0:
213,124,227556,1,8,0:0:0:0:
213,124,227713,1,0,0:0:0:0:
213,124,227871,1,0,0:0:0:0:
277,92,228187,5,8,0:0:0:0:
277,92,228345,1,0,0:0:0:0:
309,188,228424,1,0,0:0:0:0:
309,188,228503,1,8,0:0:0:0:
373,252,228661,1,0,0:0:0:0:
309,188,228819,1,8,0:0:0:0:
309,188,228977,1,0,0:0:0:0:
309,188,229135,1,8,0:0:0:0:
117,124,229213,1,0,0:0:0:0:
309,188,229292,1,0,0:0:0:0:
309,188,229450,1,8,0:0:0:0:
373,220,229608,1,0,0:0:0:0:
309,220,229766,1,0,0:0:0:0:
373,220,230082,1,8,0:0:0:0:
373,220,230240,1,0,0:0:0:0:
373,220,230398,1,0,0:0:0:0:
373,252,230713,1,8,0:0:0:0:
373,252,230871,1,0,0:0:0:0:
373,252,231029,1,8,0:0:0:0:
85,220,231108,1,8,0:0:0:0:
53,92,231187,1,0,0:0:0:0:
373,252,231345,1,8,0:0:0:0:
373,252,231503,1,0,0:0:0:0:
181,60,231582,1,0,0:0:0:0:
149,156,231661,1,8,0:0:0:0:
181,156,231819,1,0,0:0:0:0:
181,156,231977,1,8,0:0:0:0:
181,156,232292,1,0,0:0:0:0:
245,156,232608,1,8,0:0:0:0:
245,156,232766,1,0,0:0:0:0:
245,156,232924,1,0,0:0:0:0:
245,156,233240,1,8,0:0:0:0:
245,156,233398,1,0,0:0:0:0:
245,156,233556,1,8,0:0:0:0:
277,156,233713,1,0,0:0:0:0:
277,156,233792,1,0,0:0:0:0:
277,156,233871,1,8,0:0:0:0:
277,156,234029,1,0,0:0:0:0:
245,92,234108,1,0,0:0:0:0:
277,156,234187,1,8,0:0:0:0:
277,156,234345,1,0,0:0:0:0:
213,188,234503,1,8,0:0:0:0:
277,156,234661,1,0,0:0:0:0:
277,156,234819,1,0,0:0:0:0:
309,188,235135,1,8,0:0:0:0:
341,188,235292,1,0,0:0:0:0:
213,92,235371,1,0,0:0:0:0:
341,188,235450,1,0,0:0:0:0:
149,220,235608,1,0,0:0:0:0:
341,188,235766,1,8,0:0:0:0:
341,188,235924,1,0,0:0:0:0:
341,188,236082,1,0,0:0:0:0:
181,220,236161,1,0,0:0:0:0:
149,124,236240,1,0,0:0:0:0:
277,220,236319,1,0,0:0:0:0:
341,188,236398,1,8,0:0:0:0:
149,156,236556,1,0,0:0:0:0:
140,184,236713,1,8,0:0:0:0:
149,124,236792,1,8,0:0:0:0:
341,188,236871,1,0,0:0:0:0:
341,220,236950,1,0,0:0:0:0:
341,188,237029,1,8,0:0:0:0:
155,62,237345,1,12,0:0:0:0:
267,224,237661,1,8,0:0:0:0:
267,224,237819,1,0,0:0:0:0:
267,224,237977,1,0,0:0:0:0:
267,224,238135,1,8,0:0:0:0:
267,224,238292,1,8,0:0:0:0:
267,224,238608,1,0,0:0:0:0:
267,224,238924,1,8,0:0:0:0:
267,224,239082,1,0,0:0:0:0:
267,224,239398,1,0,0:0:0:0:
267,224,239556,1,8,0:0:0:0:
270,232,239713,1,8,0:0:0:0:
270,232,239871,1,0,0:0:0:0:
271,233,240187,1,8,0:0:0:0:
271,233,240345,1,0,0:0:0:0:
270,232,240503,1,0,0:0:0:0:
270,232,240661,1,8,0:0:0:0:
270,232,240819,1,8,0:0:0:0:
178,181,241135,1,0,0:0:0:0:
178,181,241213,1,0,0:0:0:0:
178,181,241292,1,0,0:0:0:0:
178,181,241450,1,8,0:0:0:0:
178,181,241608,1,0,0:0:0:0:
178,181,241766,1,0,0:0:0:0:
178,181,241924,1,8,0:0:0:0:
81,159,242398,1,12,0:0:0:0:
267,224,242713,1,8,0:0:0:0:
267,224,242871,1,0,0:0:0:0:
267,224,243029,1,0,0:0:0:0:
267,224,243187,1,8,0:0:0:0:
267,224,243345,1,8,0:0:0:0:
267,224,243661,1,0,0:0:0:0:
267,224,243977,1,8,0:0:0:0:
267,224,244135,1,0,0:0:0:0:
267,224,244450,1,0,0:0:0:0:
267,224,244608,1,8,0:0:0:0:
270,232,244766,1,8,0:0:0:0:
270,232,244924,1,0,0:0:0:0:
271,233,245240,1,8,0:0:0:0:
271,233,245398,1,0,0:0:0:0:
270,232,245556,1,0,0:0:0:0:
270,232,245713,1,8,0:0:0:0:
270,232,245871,1,0,0:0:0:0:
288,64,246187,1,8,0:0:0:0:
160,64,246503,1,0,0:0:0:0:
384,192,246661,1,8,0:0:0:0:
384,192,246819,1,8,0:0:0:0:
384,192,246977,1,0,0:0:0:0:
320,128,247135,1,8,0:0:0:0:
384,192,247292,1,0,0:0:0:0:
