osu file format v14

[General]
AudioFilename: audio.mp3
AudioLeadIn: 0
PreviewTime: 43135
Countdown: 1
SampleSet: Normal
StackLeniency: 0.7
Mode: 1
LetterboxInBreaks: 0
WidescreenStoryboard: 0

[Editor]
Bookmarks: 2365,12458,32680,42774,55405,65511,75616,80668,85721,105932,126142,136247,146353,151405,156458,176668,196879,217090,237300,247405
DistanceSpacing: 1
BeatDivisor: 4
GridSize: 32
TimelineZoom: 1.932

[Metadata]
Title:Aimless Voyage
TitleUnicode:Aimless Voyage
Artist:LiLA'c Records
ArtistUnicode:LiLA'c Records
Creator:Nepuri
Version:Lost
Source:東方永夜抄 ~ Imperishable Night.
Tags:Irus Yuuki Aihara Neeshe Eternize LLAC-0011 RTS9 Reitaisai Voyage 1969 Final Stage Kathayaka
BeatmapID:1437286
BeatmapSetID:679686

[Difficulty]
HPDrainRate:5.5
CircleSize:2
OverallDifficulty:6
ApproachRate:10
SliderMultiplier:1.4
SliderTickRate:1

[Events]
//Background and Video events
0,0,"yag.png",0,30
//Break Periods
//Storyboard Layer 0 (Background)
//Storyboard Layer 1 (Fail)
//Storyboard Layer 2 (Pass)
//Storyboard Layer 3 (Foreground)
//Storyboard Sound Samples

[TimingPoints]
1135,315.789473684211,4,1,0,65,1,0
2398,-90.9090909090909,4,1,0,65,0,0
2635,-100,4,1,0,65,0,0
7450,-90.9090909090909,4,1,0,65,0,0
7687,-100,4,1,0,65,0,0
12503,-83.3333333333333,4,1,0,65,0,0
12819,-90.9090909090909,4,1,0,65,0,0
12977,-95.2380952380952,4,1,0,65,0,0
13056,-97.5609756097561,4,1,0,65,0,0
13135,-100,4,1,0,65,0,0
22608,-83.3333333333333,4,1,0,65,0,0
22924,-90.9090909090909,4,1,0,65,0,0
23082,-95.2380952380952,4,1,0,65,0,0
23161,-97.5609756097561,4,1,0,65,0,0
23240,-100,4,1,0,65,0,0
32713,-83.3333333333333,4,1,0,65,0,0
32871,-86.9565217391304,4,1,0,65,0,0
32950,-88.8888888888889,4,1,0,65,0,0
33029,-90.9090909090909,4,1,0,65,0,0
33187,-95.2380952380952,4,1,0,65,0,0
33345,-100,4,1,0,65,0,0
41556,-101.010101010101,4,1,0,65,0,0
41635,-102.040816326531,4,1,0,65,0,0
41713,-103.092783505155,4,1,0,65,0,0
41792,-104.166666666667,4,1,0,65,0,0
41871,-105.263157894737,4,1,0,65,0,0
42029,-107.52688172043,4,1,0,65,0,0
42108,-108.695652173913,4,1,0,65,0,0
42187,-109.89010989011,4,1,0,65,0,0
42345,-112.359550561798,4,1,0,65,0,0
42503,-114.942528735632,4,1,0,65,0,0
42582,-116.279069767442,4,1,0,65,0,0
42661,-117.647058823529,4,1,0,65,0,0
42819,-120.481927710843,4,1,0,65,0,1
52924,-120.481927710843,4,1,0,65,0,0
53082,-117.647058823529,4,1,0,65,0,0
53240,-114.942528735632,4,1,0,65,0,0
53319,-113.636363636364,4,1,0,65,0,0
53398,-112.359550561798,4,1,0,65,0,0
53556,-109.89010989011,4,1,0,65,0,0
53713,-107.52688172043,4,1,0,65,0,0
53871,-105.263157894737,4,1,0,65,0,0
53950,-104.166666666667,4,1,0,65,0,0
54029,-103.092783505155,4,1,0,65,0,0
54187,-101.010101010101,4,1,0,65,0,0
54266,-100,4,1,0,65,0,0
54345,-99.009900990099,4,1,0,65,0,0
54424,-98.0392156862745,4,1,0,65,0,0
54503,-97.0873786407767,4,1,0,65,0,0
54661,-95.2380952380952,4,1,0,65,0,0
54740,-94.3396226415094,4,1,0,65,0,0
54819,-93.4579439252336,4,1,0,65,0,0
54898,-92.5925925925926,4,1,0,65,0,0
54977,-91.743119266055,4,1,0,65,0,0
55135,-90.0900900900901,4,1,0,65,0,0
55213,-89.2857142857143,4,1,0,65,0,0
55292,-88.4955752212389,4,1,0,65,0,0
55450,-86.9565217391304,4,1,0,65,0,0
55608,-90.9090909090909,4,1,0,65,0,0
55687,-93.0232558139535,4,1,0,65,0,0
55766,-95.2380952380952,4,1,0,65,0,0
55924,-100,4,1,0,65,0,0
64292,-101.522842639594,4,1,0,65,0,0
64371,-103.092783505155,4,1,0,65,0,0
64450,-104.712041884817,4,1,0,65,0,0
64529,-106.382978723404,4,1,0,65,0,0
64608,-108.108108108108,4,1,0,65,0,0
64766,-111.731843575419,4,1,0,65,0,0
64845,-113.636363636364,4,1,0,65,0,0
64924,-115.606936416185,4,1,0,65,0,0
65082,-119.760479041916,4,1,0,65,0,0
65240,-124.223602484472,4,1,0,65,0,0
65319,-126.582278481013,4,1,0,65,0,0
65398,-129.032258064516,4,1,0,65,0,0
65556,-131.578947368421,4,1,0,65,0,1
74556,-124.223602484472,4,1,0,65,0,1
74635,-121.951219512195,4,1,0,65,0,1
74713,-119.760479041916,4,1,0,65,0,1
74871,-115.606936416185,4,1,0,65,0,1
75029,-111.731843575419,4,1,0,65,0,1
75187,-108.108108108108,4,1,0,65,0,1
75345,-104.712041884817,4,1,0,65,0,1
75661,-83.3333333333333,4,1,0,65,0,0
75819,-86.9565217391304,4,1,0,65,0,0
75977,-90.9090909090909,4,1,0,65,0,0
76135,-95.2380952380952,4,1,0,65,0,0
76292,-100,4,1,0,65,0,0
81029,-102.040816326531,4,1,0,65,0,0
81187,-103.092783505155,4,1,0,65,0,0
81345,-104.166666666667,4,1,0,65,0,0
81503,-105.263157894737,4,1,0,65,0,0
81661,-106.382978723404,4,1,0,65,0,0
81977,-108.695652173913,4,1,0,65,0,0
82292,-111.111111111111,4,1,0,65,0,0
82450,-112.359550561798,4,1,0,65,0,0
82608,-113.636363636364,4,1,0,65,0,0
82766,-114.942528735632,4,1,0,65,0,0
82924,-116.279069767442,4,1,0,65,0,0
83240,-119.047619047619,4,1,0,65,0,0
83556,-121.951219512195,4,1,0,65,0,0
83713,-123.456790123457,4,1,0,65,0,0
84029,-126.582278481013,4,1,0,65,0,0
84187,-128.205128205128,4,1,0,65,0,0
84503,-131.578947368421,4,1,0,65,0,0
85135,-138.888888888889,4,1,0,65,0,0
85766,-83.3333333333333,4,1,0,65,0,0
85924,-86.9565217391304,4,1,0,65,0,0
86082,-90.9090909090909,4,1,0,65,0,0
86240,-95.2380952380952,4,1,0,65,0,0
86319,-97.5609756097561,4,1,0,65,0,0
86398,-100,4,1,0,65,0,0
95871,-83.3333333333333,4,1,0,65,0,0
96187,-90.9090909090909,4,1,0,65,0,0
96345,-95.2380952380952,4,1,0,65,0,0
96424,-97.5609756097561,4,1,0,65,0,0
96503,-100,4,1,0,65,0,0
105977,-83.3333333333333,4,1,0,65,0,0
106292,-90.9090909090909,4,1,0,65,0,0
106450,-95.2380952380952,4,1,0,65,0,0
106529,-97.5609756097561,4,1,0,65,0,0
106608,-100,4,1,0,65,0,0
115766,-90.9090909090909,4,1,0,65,0,0
116082,-83.3333333333333,4,1,0,65,0,0
116398,-90.9090909090909,4,1,0,65,0,0
116556,-95.2380952380952,4,1,0,65,0,0
116635,-97.5609756097561,4,1,0,65,0,0
116713,-100,4,1,0,65,0,0
126187,-83.3333333333333,4,1,0,65,0,0
126503,-90.9090909090909,4,1,0,65,0,0
126661,-95.2380952380952,4,1,0,65,0,0
126819,-100,4,1,0,65,0,0
135029,-102.040816326531,4,1,0,65,0,0
135108,-104.166666666667,4,1,0,65,0,0
135187,-106.382978723404,4,1,0,65,0,0
135503,-116.279069767442,4,1,0,65,0,0
135661,-121.951219512195,4,1,0,65,0,0
135740,-125,4,1,0,65,0,0
135819,-128.205128205128,4,1,0,65,0,0
135977,-135.135135135135,4,1,0,65,0,0
136292,-151.515151515152,4,1,0,65,0,0
136608,-151.515151515152,4,1,0,65,0,1
145292,-138.888888888889,4,1,0,65,0,1
145450,-131.578947368421,4,1,0,65,0,1
145529,-128.205128205128,4,1,0,65,0,1
145608,-125,4,1,0,65,0,1
145766,-119.047619047619,4,1,0,65,0,1
145924,-113.636363636364,4,1,0,65,0,1
146082,-108.695652173913,4,1,0,65,0,1
146398,-83.3333333333333,4,1,0,65,0,0
146556,-86.9565217391304,4,1,0,65,0,0
146635,-88.8888888888889,4,1,0,65,0,0
146713,-90.9090909090909,4,1,0,65,0,0
146871,-95.2380952380952,4,1,0,65,0,0
147029,-100,4,1,0,65,0,0
151766,-102.040816326531,4,1,0,65,0,0
151924,-103.092783505155,4,1,0,65,0,0
152082,-104.166666666667,4,1,0,65,0,0
152240,-105.263157894737,4,1,0,65,0,0
152398,-106.382978723404,4,1,0,65,0,0
152713,-108.695652173913,4,1,0,65,0,0
153029,-111.111111111111,4,1,0,65,0,0
153187,-112.359550561798,4,1,0,65,0,0
153345,-113.636363636364,4,1,0,65,0,0
153503,-114.942528735632,4,1,0,65,0,0
153661,-116.279069767442,4,1,0,65,0,0
153977,-119.047619047619,4,1,0,65,0,0
154292,-121.951219512195,4,1,0,65,0,0
154450,-123.456790123457,4,1,0,65,0,0
154766,-126.582278481013,4,1,0,65,0,0
154924,-128.205128205128,4,1,0,65,0,0
155240,-131.578947368421,4,1,0,65,0,0
155871,-138.888888888889,4,1,0,65,0,0
156503,-95.2380952380952,4,1,0,65,0,0
157135,-133.333333333333,4,1,0,65,0,0
166608,-111.111111111111,4,1,0,65,0,0
166924,-117.647058823529,4,1,0,65,0,0
167240,-125,4,1,0,65,0,0
175450,-117.647058823529,4,1,0,65,0,0
175766,-111.111111111111,4,1,0,65,0,0
176082,-105.263157894737,4,1,0,65,0,0
176713,-83.3333333333333,4,1,0,65,0,0
176871,-86.9565217391304,4,1,0,65,0,0
177029,-90.9090909090909,4,1,0,65,0,0
177187,-95.2380952380952,4,1,0,65,0,0
177266,-97.5609756097561,4,1,0,65,0,0
177345,-100,4,1,0,65,0,0
186819,-83.3333333333333,4,1,0,65,0,0
187135,-90.9090909090909,4,1,0,65,0,0
187292,-95.2380952380952,4,1,0,65,0,0
187371,-97.5609756097561,4,1,0,65,0,0
187450,-100,4,1,0,65,0,0
195661,-105.263157894737,4,1,0,65,0,0
195819,-111.111111111111,4,1,0,65,0,0
196135,-125,4,1,0,65,0,0
196450,-83.3333333333333,4,1,0,65,0,0
196924,-71.4285714285714,4,1,0,65,0,1
197082,-74.0740740740741,4,1,0,65,0,1
197161,-75.4716981132076,4,1,0,65,0,1
197240,-76.9230769230769,4,1,0,65,0,1
197398,-80,4,1,0,65,0,1
197477,-81.6326530612245,4,1,0,65,0,1
197556,-83.3333333333333,4,1,0,65,0,1
197635,-85.1063829787234,4,1,0,65,0,1
197713,-86.9565217391304,4,1,0,65,0,1
197871,-90.9090909090909,4,1,0,65,0,1
199135,-90.0900900900901,4,1,0,65,0,1
199213,-89.2857142857143,4,1,0,65,0,1
199292,-88.4955752212389,4,1,0,65,0,1
199450,-87.719298245614,4,1,0,65,0,1
199529,-86.9565217391304,4,1,0,65,0,1
199608,-86.2068965517241,4,1,0,65,0,1
199924,-85.8369098712446,4,1,0,65,0,1
200003,-85.4700854700855,4,1,0,65,0,1
200082,-85.1063829787234,4,1,0,65,0,1
200161,-84.7457627118644,4,1,0,65,0,1
200240,-84.0336134453781,4,1,0,65,0,1
201661,-83.3333333333333,4,1,0,65,0,1
201740,-82.6446280991736,4,1,0,65,0,1
201819,-81.9672131147541,4,1,0,65,0,1
201977,-81.6326530612245,4,1,0,65,0,1
202056,-81.3008130081301,4,1,0,65,0,1
202135,-80.9716599190283,4,1,0,65,0,1
202213,-80.6451612903226,4,1,0,65,0,1
202292,-80,4,1,0,65,0,1
202924,-79.3650793650794,4,1,0,65,0,1
203003,-78.7401574803149,4,1,0,65,0,1
203082,-78.125,4,1,0,65,0,1
203240,-77.8210116731517,4,1,0,65,0,1
203319,-77.5193798449612,4,1,0,65,0,1
203398,-77.2200772200772,4,1,0,65,0,1
203477,-76.9230769230769,4,1,0,65,0,1
203556,-76.3358778625954,4,1,0,65,0,1
203871,-76.0456273764259,4,1,0,65,0,1
203950,-75.7575757575758,4,1,0,65,0,1
204029,-75.4716981132076,4,1,0,65,0,1
204108,-75.187969924812,4,1,0,65,0,1
204187,-74.6268656716418,4,1,0,65,0,1
204503,-74.3494423791822,4,1,0,65,0,1
204582,-74.0740740740741,4,1,0,65,0,1
204661,-73.8007380073801,4,1,0,65,0,1
204740,-73.5294117647059,4,1,0,65,0,1
204819,-72.992700729927,4,1,0,65,0,1
204977,-72.7272727272727,4,1,0,65,0,1
205056,-72.463768115942,4,1,0,65,0,1
205135,-72.202166064982,4,1,0,65,0,1
205213,-71.9424460431655,4,1,0,65,0,1
205292,-71.4285714285714,4,1,0,65,0,1
205450,-70.9219858156028,4,1,0,65,0,1
205529,-70.4225352112676,4,1,0,65,0,1
205608,-69.9300699300699,4,1,0,65,0,1
205766,-70.4225352112676,4,1,0,65,0,1
205845,-70.9219858156028,4,1,0,65,0,1
205924,-71.4285714285714,4,1,0,65,0,1
206082,-71.9424460431655,4,1,0,65,0,1
206161,-72.463768115942,4,1,0,65,0,1
206240,-72.992700729927,4,1,0,65,0,1
206398,-73.5294117647059,4,1,0,65,0,1
206477,-74.0740740740741,4,1,0,65,0,1
206556,-74.6268656716418,4,1,0,65,0,1
206713,-75.187969924812,4,1,0,65,0,1
206792,-75.7575757575758,4,1,0,65,0,1
206871,-76.3358778625954,4,1,0,65,0,1
207029,-66.6666666666667,4,1,0,65,0,1
207187,-68.9655172413793,4,1,0,65,0,1
207266,-70.1754385964912,4,1,0,65,0,1
207345,-71.4285714285714,4,1,0,65,0,1
207503,-74.0740740740741,4,1,0,65,0,1
207582,-75.4716981132076,4,1,0,65,0,1
207661,-76.9230769230769,4,1,0,65,0,1
207740,-78.4313725490196,4,1,0,65,0,1
207819,-80,4,1,0,65,0,1
207977,-83.3333333333333,4,1,0,65,0,1
208924,-82.6446280991736,4,1,0,65,0,1
209003,-81.9672131147541,4,1,0,65,0,1
209082,-81.3008130081301,4,1,0,65,0,1
209240,-80.6451612903226,4,1,0,65,0,1
209319,-80,4,1,0,65,0,1
209398,-79.3650793650794,4,1,0,65,0,1
209556,-79.0513833992095,4,1,0,65,0,1
209635,-78.7401574803149,4,1,0,65,0,1
209713,-78.4313725490196,4,1,0,65,0,1
209792,-78.125,4,1,0,65,0,1
209871,-77.5193798449612,4,1,0,65,0,1
210029,-77.2200772200772,4,1,0,65,0,1
210108,-76.9230769230769,4,1,0,65,0,1
210187,-76.6283524904215,4,1,0,65,0,1
210266,-76.3358778625954,4,1,0,65,0,1
210345,-75.7575757575758,4,1,0,65,0,1
210503,-75.4716981132076,4,1,0,65,0,1
210582,-75.187969924812,4,1,0,65,0,1
210661,-74.9063670411985,4,1,0,65,0,1
210740,-74.6268656716418,4,1,0,65,0,1
210819,-74.0740740740741,4,1,0,65,0,1
210977,-73.8007380073801,4,1,0,65,0,1
211056,-73.5294117647059,4,1,0,65,0,1
211135,-73.2600732600733,4,1,0,65,0,1
211213,-72.992700729927,4,1,0,65,0,1
211292,-72.463768115942,4,1,0,65,0,1
211450,-72.202166064982,4,1,0,65,0,1
211529,-71.9424460431655,4,1,0,65,0,1
211608,-71.6845878136201,4,1,0,65,0,1
211687,-71.4285714285714,4,1,0,65,0,1
211766,-71.1743772241993,4,1,0,65,0,1
211845,-70.9219858156028,4,1,0,65,0,1
211924,-70.4225352112676,4,1,0,65,0,1
212082,-66.6666666666667,4,1,0,65,0,1
212240,-71.4285714285714,4,1,0,65,0,1
212319,-74.0740740740741,4,1,0,65,0,1
212398,-76.9230769230769,4,1,0,65,0,1
212556,-76.6283524904215,4,1,0,65,0,1
212635,-76.3358778625954,4,1,0,65,0,1
212713,-76.0456273764259,4,1,0,65,0,1
212792,-75.7575757575758,4,1,0,65,0,1
212871,-75.187969924812,4,1,0,65,0,1
213029,-74.9063670411985,4,1,0,65,0,1
213108,-74.6268656716418,4,1,0,65,0,1
213187,-74.0740740740741,4,1,0,65,0,1
213345,-73.8007380073801,4,1,0,65,0,1
213424,-73.5294117647059,4,1,0,65,0,1
213503,-72.992700729927,4,1,0,65,0,1
213819,-72.7272727272727,4,1,0,65,0,1
213898,-72.463768115942,4,1,0,65,0,1
213977,-72.202166064982,4,1,0,65,0,1
214056,-71.9424460431655,4,1,0,65,0,1
214135,-71.4285714285714,4,1,0,65,0,1
214292,-71.1743772241993,4,1,0,65,0,1
214371,-70.9219858156028,4,1,0,65,0,1
214450,-70.4225352112676,4,1,0,65,0,1
214608,-70.1754385964912,4,1,0,65,0,1
214687,-69.9300699300699,4,1,0,65,0,1
214766,-69.4444444444444,4,1,0,65,0,1
215082,-69.204152249135,4,1,0,65,0,1
215161,-68.9655172413793,4,1,0,65,0,1
215240,-68.4931506849315,4,1,0,65,0,1
215556,-68.259385665529,4,1,0,65,0,1
215635,-68.0272108843537,4,1,0,65,0,1
215713,-67.5675675675676,4,1,0,65,0,1
215871,-68.4931506849315,4,1,0,65,0,1
215950,-69.4444444444444,4,1,0,65,0,1
216029,-70.4225352112676,4,1,0,65,0,1
216108,-71.4285714285714,4,1,0,65,0,1
216187,-72.463768115942,4,1,0,65,0,1
216266,-73.5294117647059,4,1,0,65,0,1
216345,-74.6268656716418,4,1,0,65,0,1
216503,-75.7575757575758,4,1,0,65,0,1
216582,-76.9230769230769,4,1,0,65,0,1
216661,-78.125,4,1,0,65,0,1
216740,-79.3650793650794,4,1,0,65,0,1
216819,-80.6451612903226,4,1,0,65,0,1
216898,-81.9672131147541,4,1,0,65,0,1
216977,-83.3333333333333,4,1,0,65,0,1
217135,-71.4285714285714,4,1,0,65,0,0
217450,-76.9230769230769,4,1,0,65,0,0
217608,-80,4,1,0,65,0,0
217687,-81.6326530612245,4,1,0,65,0,0
217766,-83.3333333333333,4,1,0,65,0,0
217924,-86.9565217391304,4,1,0,65,0,0
218082,-90.9090909090909,4,1,0,65,0,0
218240,-95.2380952380952,4,1,0,65,0,0
218319,-96.6183574879227,4,1,0,65,0,0
218398,-98.0392156862745,4,1,0,65,0,0
226924,-90.9090909090909,4,1,0,65,0,0
227082,-86.9565217391304,4,1,0,65,0,0
227240,-83.3333333333333,4,1,0,65,0,0
227556,-90.9090909090909,4,1,0,65,0,0
227713,-95.2380952380952,4,1,0,65,0,0
227792,-97.5609756097561,4,1,0,65,0,0
227871,-100,4,1,0,65,0,0
237345,-83.3333333333333,4,1,0,65,0,0
237582,-88.8888888888889,4,1,0,65,0,0
237661,-90.9090909090909,4,1,0,65,0,0
237819,-95.2380952380952,4,1,0,65,0,0
237977,-100,4,1,0,65,0,0
242398,-90.9090909090909,4,1,0,65,0,0
242635,-100,4,1,0,65,0,0

[HitObjects]
320,224,1135,5,8,0:0:0:0:
448,192,1371,1,0,0:0:0:0:
448,192,1450,1,0,0:0:0:0:
448,192,1608,1,8,0:0:0:0:
448,192,1687,1,0,0:0:0:0:
448,192,1766,1,8,0:0:0:0:
448,192,1845,1,8,0:0:0:0:
448,192,1924,1,0,0:0:0:0:
448,192,2082,1,8,0:0:0:0:
448,192,2161,1,0,0:0:0:0:
448,192,2240,1,0,0:0:0:0:
448,192,2398,1,12,0:0:0:0:
448,224,2635,1,0,0:0:0:0:
448,224,2713,1,8,0:0:0:0:
448,224,2871,1,0,0:0:0:0:
448,224,3029,1,0,0:0:0:0:
448,224,3108,1,0,0:0:0:0:
448,224,3187,1,8,0:0:0:0:
448,224,3345,1,8,0:0:0:0:
448,224,3503,1,0,0:0:0:0:
384,256,3661,1,0,0:0:0:0:
384,256,3819,1,0,0:0:0:0:
384,256,3898,1,0,0:0:0:0:
384,256,3977,1,8,0:0:0:0:
384,256,4135,1,0,0:0:0:0:
384,256,4292,1,0,0:0:0:0:
384,256,4371,1,0,0:0:0:0:
384,256,4450,1,8,0:0:0:0:
384,256,4608,1,8,0:0:0:0:
384,256,4766,1,0,0:0:0:0:
384,256,4924,1,0,0:0:0:0:
384,256,5161,1,0,0:0:0:0:
384,256,5240,1,8,0:0:0:0:
384,256,5398,1,0,0:0:0:0:
160,224,5556,1,0,0:0:0:0:
160,192,5635,1,0,0:0:0:0:
160,192,5713,1,8,0:0:0:0:
160,192,5871,1,8,0:0:0:0:
160,192,6029,1,0,0:0:0:0:
160,192,6187,1,0,0:0:0:0:
160,192,6266,1,0,0:0:0:0:
160,192,6345,1,0,0:0:0:0:
160,192,6424,1,0,0:0:0:0:
160,192,6503,1,8,0:0:0:0:
160,64,6661,1,0,0:0:0:0:
160,64,6740,1,0,0:0:0:0:
160,64,6819,1,0,0:0:0:0:
192,160,6977,1,8,0:0:0:0:
96,64,7135,1,0,0:0:0:0:
160,64,7292,1,0,0:0:0:0:
160,64,7450,1,12,0:0:0:0:
448,224,7687,1,0,0:0:0:0:
448,224,7766,1,8,0:0:0:0:
448,224,7924,1,0,0:0:0:0:
448,224,8082,1,0,0:0:0:0:
448,224,8161,1,0,0:0:0:0:
448,224,8240,1,8,0:0:0:0:
448,224,8398,1,8,0:0:0:0:
448,224,8556,1,0,0:0:0:0:
384,256,8713,1,0,0:0:0:0:
384,256,8871,1,0,0:0:0:0:
384,256,8950,1,0,0:0:0:0:
384,256,9029,1,8,0:0:0:0:
384,256,9187,1,0,0:0:0:0:
384,256,9345,1,0,0:0:0:0:
384,256,9424,1,0,0:0:0:0:
384,256,9503,1,8,0:0:0:0:
384,256,9661,1,8,0:0:0:0:
384,256,9819,1,0,0:0:0:0:
384,256,9977,1,0,0:0:0:0:
224,160,10213,1,0,0:0:0:0:
224,160,10292,1,8,0:0:0:0:
224,160,10450,1,0,0:0:0:0:
160,96,10608,1,0,0:0:0:0:
192,160,10687,1,0,0:0:0:0:
256,192,10766,1,8,0:0:0:0:
256,192,10924,1,8,0:0:0:0:
256,192,11082,1,0,0:0:0:0:
256,192,11240,1,0,0:0:0:0:
256,192,11319,1,0,0:0:0:0:
256,192,11398,1,0,0:0:0:0:
256,192,11477,1,0,0:0:0:0:
256,192,11556,1,8,0:0:0:0:
256,192,11713,1,0,0:0:0:0:
256,192,11792,1,0,0:0:0:0:
256,192,11871,1,0,0:0:0:0:
224,160,11950,1,0,0:0:0:0:
256,192,12029,1,8,0:0:0:0:
256,192,12108,1,8,0:0:0:0:
256,192,12187,1,0,0:0:0:0:
256,192,12266,1,0,0:0:0:0:
256,192,12345,1,8,0:0:0:0:
256,192,12503,1,12,0:0:0:0:
256,224,12819,1,8,0:0:0:0:
256,224,12977,1,0,0:0:0:0:
192,192,13056,1,0,0:0:0:0:
256,224,13135,1,8,0:0:0:0:
192,192,13292,1,0,0:0:0:0:
192,192,13450,1,8,0:0:0:0:
192,192,13608,1,0,0:0:0:0:
224,192,13687,1,0,0:0:0:0:
224,192,13766,1,8,0:0:0:0:
224,192,13924,1,0,0:0:0:0:
224,192,14003,1,0,0:0:0:0:
224,192,14082,1,8,0:0:0:0:
224,192,14240,1,0,0:0:0:0:
224,192,14398,1,8,0:0:0:0:
288,224,14477,1,8,0:0:0:0:
224,192,14556,1,0,0:0:0:0:
224,192,14713,1,8,0:0:0:0:
224,192,14871,1,0,0:0:0:0:
224,192,15029,1,8,0:0:0:0:
256,224,15345,1,8,0:0:0:0:
320,224,15503,1,0,0:0:0:0:
320,224,15582,1,0,0:0:0:0:
320,224,15661,1,8,0:0:0:0:
320,224,15819,1,0,0:0:0:0:
160,128,15977,1,8,0:0:0:0:
160,128,16135,1,8,0:0:0:0:
192,64,16213,1,0,0:0:0:0:
160,160,16292,1,8,0:0:0:0:
160,160,16450,1,0,0:0:0:0:
160,160,16529,1,0,0:0:0:0:
160,160,16608,1,8,0:0:0:0:
320,224,16766,1,0,0:0:0:0:
320,224,16845,1,0,0:0:0:0:
320,224,16924,1,8,0:0:0:0:
320,224,17082,1,0,0:0:0:0:
320,224,17240,1,8,0:0:0:0:
320,224,17398,1,8,0:0:0:0:
320,224,17556,1,0,0:0:0:0:
256,224,17871,1,8,0:0:0:0:
256,224,18029,1,0,0:0:0:0:
192,192,18108,1,0,0:0:0:0:
256,224,18187,1,8,0:0:0:0:
192,192,18345,1,0,0:0:0:0:
192,192,18503,1,8,0:0:0:0:
192,192,18661,1,0,0:0:0:0:
224,192,18819,1,8,0:0:0:0:
224,192,18898,1,8,0:0:0:0:
224,192,18977,1,0,0:0:0:0:
224,192,19135,1,8,0:0:0:0:
224,192,19292,1,0,0:0:0:0:
224,192,19450,1,8,0:0:0:0:
288,224,19529,1,8,0:0:0:0:
224,192,19608,1,0,0:0:0:0:
224,192,19687,1,0,0:0:0:0:
224,192,19766,1,8,0:0:0:0:
224,192,19924,1,0,0:0:0:0:
224,192,20082,1,8,0:0:0:0:
256,224,20398,1,8,0:0:0:0:
320,224,20556,1,0,0:0:0:0:
320,224,20635,1,0,0:0:0:0:
320,224,20713,1,8,0:0:0:0:
320,224,20871,1,0,0:0:0:0:
160,128,21029,1,8,0:0:0:0:
160,128,21187,1,8,0:0:0:0:
192,64,21266,1,0,0:0:0:0:
160,160,21345,1,8,0:0:0:0:
160,160,21503,1,0,0:0:0:0:
160,160,21582,1,0,0:0:0:0:
160,160,21661,1,8,0:0:0:0:
320,224,21819,1,0,0:0:0:0:
320,224,21898,1,0,0:0:0:0:
320,224,21977,1,8,0:0:0:0:
320,224,22135,1,0,0:0:0:0:
320,224,22292,1,8,0:0:0:0:
320,224,22450,1,8,0:0:0:0:
320,224,22608,1,12,0:0:0:0:
256,224,22924,1,8,0:0:0:0:
256,224,23082,1,0,0:0:0:0:
192,192,23161,1,0,0:0:0:0:
256,224,23240,1,8,0:0:0:0:
192,192,23398,1,0,0:0:0:0:
192,192,23556,1,8,0:0:0:0:
192,192,23713,1,0,0:0:0:0:
224,192,23792,1,0,0:0:0:0:
224,192,23871,1,8,0:0:0:0:
224,192,24029,1,0,0:0:0:0:
224,192,24187,1,8,0:0:0:0:
325,156,24266,1,8,0:0:0:0:
224,192,24345,1,0,0:0:0:0:
224,192,24503,1,8,0:0:0:0:
288,224,24582,1,8,0:0:0:0:
224,192,24661,1,0,0:0:0:0:
224,192,24819,1,8,0:0:0:0:
224,192,24977,1,0,0:0:0:0:
224,192,25135,1,8,0:0:0:0:
256,224,25450,1,8,0:0:0:0:
320,224,25608,1,0,0:0:0:0:
320,224,25687,1,0,0:0:0:0:
320,224,25766,1,8,0:0:0:0:
320,224,25924,1,0,0:0:0:0:
160,128,26082,1,8,0:0:0:0:
160,128,26240,1,8,0:0:0:0:
192,64,26319,1,0,0:0:0:0:
160,160,26398,1,8,0:0:0:0:
160,160,26556,1,0,0:0:0:0:
160,160,26635,1,0,0:0:0:0:
160,160,26713,1,8,0:0:0:0:
320,224,26871,1,0,0:0:0:0:
41,103,26950,1,0,0:0:0:0:
320,224,27029,1,8,0:0:0:0:
320,224,27187,1,0,0:0:0:0:
320,224,27345,1,8,0:0:0:0:
172,69,27503,1,8,0:0:0:0:
320,224,27661,1,0,0:0:0:0:
256,224,27977,1,8,0:0:0:0:
256,224,28135,1,0,0:0:0:0:
192,192,28213,1,0,0:0:0:0:
256,224,28292,1,8,0:0:0:0:
192,192,28450,1,0,0:0:0:0:
192,192,28608,1,8,0:0:0:0:
192,192,28766,1,0,0:0:0:0:
224,192,28845,1,0,0:0:0:0:
224,192,28924,1,8,0:0:0:0:
224,192,29082,1,0,0:0:0:0:
224,192,29161,1,0,0:0:0:0:
224,192,29240,1,8,0:0:0:0:
224,192,29398,1,0,0:0:0:0:
224,192,29556,1,8,0:0:0:0:
288,224,29635,1,8,0:0:0:0:
224,192,29713,1,0,0:0:0:0:
224,192,29871,1,8,0:0:0:0:
224,192,30029,1,0,0:0:0:0:
224,192,30187,1,8,0:0:0:0:
242,130,30503,1,8,0:0:0:0:
242,130,30661,1,0,0:0:0:0:
242,130,30740,1,0,0:0:0:0:
249,130,30819,1,8,0:0:0:0:
249,130,30977,1,0,0:0:0:0:
248,131,31135,1,0,0:0:0:0:
247,136,31292,1,8,0:0:0:0:
247,136,31450,1,8,0:0:0:0:
248,137,31529,1,8,0:0:0:0:
250,137,31608,1,0,0:0:0:0:
250,138,31687,1,0,0:0:0:0:
250,139,31766,1,8,0:0:0:0:
252,139,31845,1,8,0:0:0:0:
254,133,31924,1,0,0:0:0:0:
263,131,32082,1,8,0:0:0:0:
266,127,32161,1,0,0:0:0:0:
268,124,32240,1,0,0:0:0:0:
268,124,32319,1,0,0:0:0:0:
269,113,32398,1,8,0:0:0:0:
269,113,32477,1,8,0:0:0:0:
279,106,32556,1,0,0:0:0:0:
281,97,32713,1,12,0:0:0:0:
319,188,32871,1,0,0:0:0:0:
319,188,32950,1,0,0:0:0:0:
319,188,33029,1,8,0:0:0:0:
319,188,33187,1,0,0:0:0:0:
319,188,33345,1,0,0:0:0:0:
319,188,33424,1,0,0:0:0:0:
319,188,33503,1,8,0:0:0:0:
319,188,33661,1,8,0:0:0:0:
319,188,33819,1,0,0:0:0:0:
238,73,33898,1,0,0:0:0:0:
319,188,33977,1,0,0:0:0:0:
142,84,34135,1,0,0:0:0:0:
324,196,34292,1,8,0:0:0:0:
324,194,34450,1,0,0:0:0:0:
323,194,34608,1,0,0:0:0:0:
323,194,34766,1,8,0:0:0:0:
323,194,34845,1,8,0:0:0:0:
323,194,34924,1,0,0:0:0:0:
323,194,35082,1,8,0:0:0:0:
322,192,35240,1,0,0:0:0:0:
324,194,35398,1,0,0:0:0:0:
324,194,35477,1,0,0:0:0:0:
323,194,35556,1,8,0:0:0:0:
323,194,35713,1,0,0:0:0:0:
323,194,35871,1,0,0:0:0:0:
323,194,35950,1,0,0:0:0:0:
323,194,36029,1,8,0:0:0:0:
324,195,36187,1,8,0:0:0:0:
324,194,36345,1,0,0:0:0:0:
161,191,36503,1,0,0:0:0:0:
161,191,36582,1,0,0:0:0:0:
161,191,36661,1,0,0:0:0:0:
161,191,36740,1,0,0:0:0:0:
161,191,36819,1,8,0:0:0:0:
40,164,36977,1,0,0:0:0:0:
196,97,37056,1,0,0:0:0:0:
189,96,37135,1,0,0:0:0:0:
40,164,37292,1,8,0:0:0:0:
40,164,37450,1,0,0:0:0:0:
131,48,37529,1,0,0:0:0:0:
159,7,37608,1,0,0:0:0:0:
314,258,37766,1,0,0:0:0:0:
319,188,38082,1,8,0:0:0:0:
319,188,38240,1,0,0:0:0:0:
319,188,38398,1,0,0:0:0:0:
319,188,38477,1,0,0:0:0:0:
319,188,38556,1,8,0:0:0:0:
319,188,38713,1,8,0:0:0:0:
319,188,38871,1,0,0:0:0:0:
238,73,38950,1,0,0:0:0:0:
319,188,39029,1,0,0:0:0:0:
319,188,39187,1,0,0:0:0:0:
324,196,39345,1,8,0:0:0:0:
324,194,39503,1,0,0:0:0:0:
323,194,39661,1,0,0:0:0:0:
160,160,39819,1,8,0:0:0:0:
128,64,39898,1,8,0:0:0:0:
160,160,39977,1,0,0:0:0:0:
160,160,40135,1,8,0:0:0:0:
322,192,40292,1,0,0:0:0:0:
324,194,40450,5,0,0:0:0:0:
192,192,40529,1,0,0:0:0:0:
323,194,40608,1,8,0:0:0:0:
323,194,40766,1,0,0:0:0:0:
323,194,40924,1,0,0:0:0:0:
323,194,41003,1,0,0:0:0:0:
323,194,41082,1,8,0:0:0:0:
324,195,41240,1,8,0:0:0:0:
324,194,41398,1,0,0:0:0:0:
224,192,41556,5,0,0:0:0:0:
224,192,41635,1,0,0:0:0:0:
224,192,41713,1,0,0:0:0:0:
224,192,41792,1,0,0:0:0:0:
224,192,41871,1,8,0:0:0:0:
448,224,42029,1,0,0:0:0:0:
448,224,42108,1,0,0:0:0:0:
448,224,42187,1,0,0:0:0:0:
448,224,42345,1,8,0:0:0:0:
448,224,42503,1,0,0:0:0:0:
238,93,42582,1,0,0:0:0:0:
448,224,42661,1,0,0:0:0:0:
320,224,42819,1,12,0:0:0:0:
160,224,42977,1,0,0:0:0:0:
160,224,43056,1,0,0:0:0:0:
160,224,43135,1,8,0:0:0:0:
160,224,43292,1,0,0:0:0:0:
160,224,43450,1,0,0:0:0:0:
160,224,43529,1,8,0:0:0:0:
192,224,43608,1,0,0:0:0:0:
192,224,43766,1,0,0:0:0:0:
192,224,43924,1,8,0:0:0:0:
320,224,44003,1,8,0:0:0:0:
224,224,44082,1,0,0:0:0:0:
106,203,44161,1,0,0:0:0:0:
224,224,44240,1,8,0:0:0:0:
109,126,44398,1,8,0:0:0:0:
224,224,44556,1,0,0:0:0:0:
320,224,44713,1,0,0:0:0:0:
320,224,44792,1,8,0:0:0:0:
320,224,44871,1,0,0:0:0:0:
320,224,45029,1,8,0:0:0:0:
224,256,45345,1,0,0:0:0:0:
256,224,45503,1,0,0:0:0:0:
320,192,45661,1,8,0:0:0:0:
320,192,45819,1,0,0:0:0:0:
320,192,45898,1,0,0:0:0:0:
320,192,45977,1,8,0:0:0:0:
224,192,46135,1,0,0:0:0:0:
224,192,46292,1,0,0:0:0:0:
224,192,46371,1,0,0:0:0:0:
224,192,46450,1,8,0:0:0:0:
256,128,46529,1,8,0:0:0:0:
224,192,46608,1,0,0:0:0:0:
224,224,46766,1,8,0:0:0:0:
224,224,46845,1,0,0:0:0:0:
224,224,46924,1,8,0:0:0:0:
224,224,47082,1,0,0:0:0:0:
224,224,47240,1,0,0:0:0:0:
224,224,47398,1,0,0:0:0:0:
160,32,47477,1,0,0:0:0:0:
224,224,47556,1,8,0:0:0:0:
256,224,47871,1,0,0:0:0:0:
416,192,48029,1,0,0:0:0:0:
416,192,48187,1,8,0:0:0:0:
416,192,48345,1,0,0:0:0:0:
416,192,48424,1,0,0:0:0:0:
416,192,48503,1,8,0:0:0:0:
224,64,48661,1,0,0:0:0:0:
224,64,48819,1,0,0:0:0:0:
224,64,48898,1,0,0:0:0:0:
224,64,48977,1,8,0:0:0:0:
224,64,49056,1,8,0:0:0:0:
224,64,49135,1,0,0:0:0:0:
256,96,49292,1,0,0:0:0:0:
256,96,49450,1,8,0:0:0:0:
256,96,49529,1,0,0:0:0:0:
256,96,49608,1,0,0:0:0:0:
256,96,49766,1,0,0:0:0:0:
256,96,49924,1,0,0:0:0:0:
256,96,50003,1,0,0:0:0:0:
256,96,50082,1,8,0:0:0:0:
256,96,50398,1,0,0:0:0:0:
320,96,50556,1,0,0:0:0:0:
320,96,50635,1,8,0:0:0:0:
320,96,50713,1,0,0:0:0:0:
320,96,50871,1,0,0:0:0:0:
320,96,50950,1,0,0:0:0:0:
320,96,51029,1,8,0:0:0:0:
320,96,51187,1,0,0:0:0:0:
320,96,51345,1,8,0:0:0:0:
320,96,51503,1,8,0:0:0:0:
320,96,51582,1,8,0:0:0:0:
320,96,51661,1,0,0:0:0:0:
224,64,51740,5,0,0:0:0:0:
224,64,51819,1,8,0:0:0:0:
224,64,51977,1,0,0:0:0:0:
192,128,52135,1,0,0:0:0:0:
192,128,52292,1,8,0:0:0:0:
192,224,52450,1,0,0:0:0:0:
192,128,52608,1,8,0:0:0:0:
192,128,52924,1,12,0:0:0:0:
256,128,53082,1,0,0:0:0:0:
256,128,53240,1,0,0:0:0:0:
256,128,53319,1,0,0:0:0:0:
256,128,53398,1,0,0:0:0:0:
256,128,53556,1,0,0:0:0:0:
256,128,53713,1,0,0:0:0:0:
256,128,53871,1,0,0:0:0:0:
256,128,53950,1,0,0:0:0:0:
256,128,54029,1,0,0:0:0:0:
256,128,54187,1,8,0:0:0:0:
256,128,54266,1,8,0:0:0:0:
256,128,54345,1,0,0:0:0:0:
256,128,54424,1,0,0:0:0:0:
256,128,54503,1,0,0:0:0:0:
256,128,54661,1,8,0:0:0:0:
256,128,54740,1,0,0:0:0:0:
256,128,54819,1,8,0:0:0:0:
256,128,54898,1,8,0:0:0:0:
256,128,54977,1,0,0:0:0:0:
256,128,55135,1,8,0:0:0:0:
256,128,55213,1,0,0:0:0:0:
256,128,55292,1,0,0:0:0:0:
256,128,55450,1,12,0:0:0:0:
319,188,55608,1,0,0:0:0:0:
319,188,55687,1,0,0:0:0:0:
319,188,55766,1,8,0:0:0:0:
319,188,55924,1,0,0:0:0:0:
319,188,56082,1,0,0:0:0:0:
319,188,56161,1,0,0:0:0:0:
319,188,56240,1,8,0:0:0:0:
319,188,56398,1,8,0:0:0:0:
319,188,56556,1,0,0:0:0:0:
238,73,56635,1,0,0:0:0:0:
319,188,56713,1,0,0:0:0:0:
142,84,56871,1,0,0:0:0:0:
324,196,57029,1,8,0:0:0:0:
324,194,57187,1,0,0:0:0:0:
323,194,57345,1,0,0:0:0:0:
192,192,57503,1,8,0:0:0:0:
160,64,57582,1,8,0:0:0:0:
323,194,57661,1,0,0:0:0:0:
323,194,57819,1,8,0:0:0:0:
322,192,57977,1,0,0:0:0:0:
324,194,58135,1,0,0:0:0:0:
324,194,58213,1,0,0:0:0:0:
323,194,58292,1,8,0:0:0:0:
323,194,58450,1,0,0:0:0:0:
323,194,58608,1,0,0:0:0:0:
323,194,58687,1,0,0:0:0:0:
323,194,58766,1,8,0:0:0:0:
324,195,58924,1,8,0:0:0:0:
324,194,59082,1,0,0:0:0:0:
161,191,59240,1,0,0:0:0:0:
161,191,59319,1,0,0:0:0:0:
161,191,59398,1,0,0:0:0:0:
161,191,59477,1,0,0:0:0:0:
161,191,59556,1,8,0:0:0:0:
40,164,59713,1,0,0:0:0:0:
196,97,59792,1,0,0:0:0:0:
189,96,59871,1,0,0:0:0:0:
40,164,60029,1,8,0:0:0:0:
40,164,60187,1,0,0:0:0:0:
131,48,60266,1,0,0:0:0:0:
159,7,60345,1,0,0:0:0:0:
314,258,60503,1,0,0:0:0:0:
319,188,60819,1,8,0:0:0:0:
319,188,60977,1,0,0:0:0:0:
319,188,61135,1,0,0:0:0:0:
319,188,61213,1,0,0:0:0:0:
319,188,61292,1,8,0:0:0:0:
319,188,61450,1,8,0:0:0:0:
319,188,61608,1,0,0:0:0:0:
238,73,61687,1,0,0:0:0:0:
319,188,61766,1,0,0:0:0:0:
319,188,61924,1,0,0:0:0:0:
324,196,62082,1,8,0:0:0:0:
324,194,62240,1,0,0:0:0:0:
323,194,62398,1,0,0:0:0:0:
323,194,62556,1,8,0:0:0:0:
128,160,62635,1,8,0:0:0:0:
323,194,62713,1,0,0:0:0:0:
323,194,62871,1,8,0:0:0:0:
322,192,63029,1,0,0:0:0:0:
324,194,63187,5,0,0:0:0:0:
192,160,63266,1,0,0:0:0:0:
323,194,63345,1,8,0:0:0:0:
323,194,63503,1,0,0:0:0:0:
323,194,63661,1,0,0:0:0:0:
323,194,63740,1,0,0:0:0:0:
323,194,63819,1,8,0:0:0:0:
324,195,63977,1,8,0:0:0:0:
324,194,64135,1,0,0:0:0:0:
224,192,64292,5,0,0:0:0:0:
224,192,64371,1,0,0:0:0:0:
224,192,64450,1,0,0:0:0:0:
224,192,64529,1,0,0:0:0:0:
224,192,64608,1,8,0:0:0:0:
448,224,64766,1,0,0:0:0:0:
448,224,64845,1,0,0:0:0:0:
448,224,64924,1,0,0:0:0:0:
448,224,65082,1,8,0:0:0:0:
448,224,65240,1,0,0:0:0:0:
238,93,65319,1,0,0:0:0:0:
448,224,65398,1,0,0:0:0:0:
320,224,65556,1,12,0:0:0:0:
194,156,65713,1,0,0:0:0:0:
174,85,65792,1,0,0:0:0:0:
231,202,65871,1,8,0:0:0:0:
231,202,66029,1,0,0:0:0:0:
182,81,66187,1,8,0:0:0:0:
182,81,66266,1,8,0:0:0:0:
224,182,66345,1,0,0:0:0:0:
228,184,66503,1,0,0:0:0:0:
218,145,66582,1,0,0:0:0:0:
229,184,66661,1,8,0:0:0:0:
216,137,66740,1,8,0:0:0:0:
229,184,66819,1,8,0:0:0:0:
223,138,66977,1,0,0:0:0:0:
227,149,67056,1,0,0:0:0:0:
234,186,67135,1,8,0:0:0:0:
236,188,67292,1,0,0:0:0:0:
236,188,67450,1,0,0:0:0:0:
228,122,67529,1,8,0:0:0:0:
236,188,67608,1,0,0:0:0:0:
236,188,67766,1,8,0:0:0:0:
234,186,68082,1,0,0:0:0:0:
228,247,68240,1,0,0:0:0:0:
251,167,68319,1,8,0:0:0:0:
228,247,68398,1,0,0:0:0:0:
228,247,68556,1,8,0:0:0:0:
196,71,68713,1,8,0:0:0:0:
195,77,68792,1,8,0:0:0:0:
231,251,68871,1,0,0:0:0:0:
231,252,69029,1,0,0:0:0:0:
235,32,69108,1,0,0:0:0:0:
232,254,69187,1,8,0:0:0:0:
155,187,69266,1,8,0:0:0:0:
155,187,69345,1,8,0:0:0:0:
234,257,69503,1,0,0:0:0:0:
179,147,69582,1,0,0:0:0:0:
234,257,69661,1,8,0:0:0:0:
234,257,69819,1,0,0:0:0:0:
234,257,69977,1,8,0:0:0:0:
128,160,70135,1,0,0:0:0:0:
236,247,70292,1,8,0:0:0:0:
236,247,70608,1,8,0:0:0:0:
383,233,70687,1,0,0:0:0:0:
306,222,70766,1,0,0:0:0:0:
387,237,70924,1,8,0:0:0:0:
387,237,71082,1,0,0:0:0:0:
387,237,71161,1,8,0:0:0:0:
387,237,71240,1,0,0:0:0:0:
387,237,71398,1,0,0:0:0:0:
387,237,71556,1,0,0:0:0:0:
388,240,71635,1,0,0:0:0:0:
391,246,71713,1,8,0:0:0:0:
395,249,71792,1,8,0:0:0:0:
395,247,71871,1,8,0:0:0:0:
333,219,72029,1,0,0:0:0:0:
333,219,72108,1,0,0:0:0:0:
333,219,72187,1,8,0:0:0:0:
333,219,72345,1,0,0:0:0:0:
333,219,72503,1,8,0:0:0:0:
333,219,72582,1,8,0:0:0:0:
333,219,72661,1,0,0:0:0:0:
333,219,72819,1,8,0:0:0:0:
337,218,73135,1,0,0:0:0:0:
338,219,73292,1,8,0:0:0:0:
165,135,73371,1,0,0:0:0:0:
338,224,73450,1,8,0:0:0:0:
338,224,73608,1,8,0:0:0:0:
338,224,73766,1,8,0:0:0:0:
147,113,73845,1,8,0:0:0:0:
338,224,73924,1,0,0:0:0:0:
338,224,74082,1,0,0:0:0:0:
338,224,74161,1,0,0:0:0:0:
338,226,74240,1,8,0:0:0:0:
339,228,74319,1,8,0:0:0:0:
339,228,74398,1,8,0:0:0:0:
339,228,74556,1,0,0:0:0:0:
265,187,74635,1,8,0:0:0:0:
230,153,74713,1,0,0:0:0:0:
235,164,74871,1,0,0:0:0:0:
236,166,75029,1,8,0:0:0:0:
128,96,75187,1,0,0:0:0:0:
236,196,75345,1,8,0:0:0:0:
271,194,75661,1,12,0:0:0:0:
224,192,75819,1,0,0:0:0:0:
192,256,75977,1,8,0:0:0:0:
320,160,76135,1,0,0:0:0:0:
224,192,76292,1,0,0:0:0:0:
224,192,76371,1,0,0:0:0:0:
224,192,76450,1,8,0:0:0:0:
224,192,76608,1,8,0:0:0:0:
224,192,76766,1,0,0:0:0:0:
224,192,76924,1,0,0:0:0:0:
224,192,77240,1,8,0:0:0:0:
224,192,77398,1,0,0:0:0:0:
224,192,77477,1,0,0:0:0:0:
224,192,77556,1,0,0:0:0:0:
224,192,77713,1,8,0:0:0:0:
224,192,77871,1,8,0:0:0:0:
224,224,77950,1,8,0:0:0:0:
224,192,78029,1,0,0:0:0:0:
320,160,78187,1,0,0:0:0:0:
256,160,78503,1,8,0:0:0:0:
256,160,78582,1,8,0:0:0:0:
256,160,78661,1,0,0:0:0:0:
256,128,78819,1,0,0:0:0:0:
320,160,78977,1,8,0:0:0:0:
256,128,79135,1,0,0:0:0:0:
64,128,79292,1,0,0:0:0:0:
256,128,79450,1,0,0:0:0:0:
256,128,79529,1,0,0:0:0:0:
256,128,79608,1,0,0:0:0:0:
256,160,79687,1,0,0:0:0:0:
288,160,79766,1,8,0:0:0:0:
288,160,79924,1,0,0:0:0:0:
256,160,80003,1,0,0:0:0:0:
256,160,80082,1,0,0:0:0:0:
256,160,80240,1,8,0:0:0:0:
256,160,80398,1,0,0:0:0:0:
155,82,80477,1,0,0:0:0:0:
256,160,80556,1,0,0:0:0:0:
96,160,80713,1,0,0:0:0:0:
211,171,81029,1,8,0:0:0:0:
211,171,81187,1,8,0:0:0:0:
211,171,81345,1,0,0:0:0:0:
211,171,81503,1,8,0:0:0:0:
211,171,81661,1,0,0:0:0:0:
211,171,81977,1,0,0:0:0:0:
211,171,82292,1,8,0:0:0:0:
211,171,82450,1,0,0:0:0:0:
211,171,82608,1,0,0:0:0:0:
211,171,82766,1,8,0:0:0:0:
250,145,82924,1,0,0:0:0:0:
250,145,83240,1,0,0:0:0:0:
250,145,83556,1,8,0:0:0:0:
250,145,83713,1,0,0:0:0:0:
250,145,84029,1,8,0:0:0:0:
250,145,84187,1,0,0:0:0:0:
250,145,84503,1,8,0:0:0:0:
64,160,85135,1,8,0:0:0:0:
274,184,85766,1,12,0:0:0:0:
189,221,85924,1,0,0:0:0:0:
256,224,86082,1,8,0:0:0:0:
256,224,86240,1,0,0:0:0:0:
192,192,86319,1,0,0:0:0:0:
256,224,86398,1,8,0:0:0:0:
192,192,86556,1,0,0:0:0:0:
192,192,86713,1,8,0:0:0:0:
192,192,86871,1,8,0:0:0:0:
224,192,86950,1,0,0:0:0:0:
170,148,87029,1,8,0:0:0:0:
156,15,87108,1,8,0:0:0:0:
224,192,87187,1,0,0:0:0:0:
224,192,87345,1,8,0:0:0:0:
224,192,87503,1,0,0:0:0:0:
329,168,87582,1,0,0:0:0:0:
224,192,87661,1,8,0:0:0:0:
224,192,87819,1,0,0:0:0:0:
224,192,87898,1,0,0:0:0:0:
224,192,87977,1,8,0:0:0:0:
224,192,88135,1,0,0:0:0:0:
224,192,88292,1,8,0:0:0:0:
196,124,88450,1,0,0:0:0:0:
64,160,88529,1,0,0:0:0:0:
146,164,88608,1,0,0:0:0:0:
142,151,88766,1,8,0:0:0:0:
320,224,88845,1,0,0:0:0:0:
320,224,88924,1,8,0:0:0:0:
32,32,89003,1,0,0:0:0:0:
320,224,89082,1,0,0:0:0:0:
160,128,89240,1,0,0:0:0:0:
160,128,89398,1,8,0:0:0:0:
160,160,89556,1,8,0:0:0:0:
156,59,89635,1,0,0:0:0:0:
196,186,89713,1,8,0:0:0:0:
268,167,89792,1,8,0:0:0:0:
160,160,89871,1,0,0:0:0:0:
320,224,90029,1,8,0:0:0:0:
320,224,90108,1,8,0:0:0:0:
320,224,90187,1,0,0:0:0:0:
320,224,90345,1,8,0:0:0:0:
320,224,90503,1,0,0:0:0:0:
320,224,90661,1,8,0:0:0:0:
320,224,90819,1,8,0:0:0:0:
256,224,91135,1,8,0:0:0:0:
256,224,91292,1,0,0:0:0:0:
192,192,91371,1,0,0:0:0:0:
256,224,91450,1,8,0:0:0:0:
192,192,91608,1,0,0:0:0:0:
192,192,91766,1,8,0:0:0:0:
192,192,91924,1,8,0:0:0:0:
224,192,92003,1,0,0:0:0:0:
224,192,92082,1,8,0:0:0:0:
224,192,92240,1,0,0:0:0:0:
224,192,92319,1,0,0:0:0:0:
224,192,92398,1,8,0:0:0:0:
224,192,92556,1,0,0:0:0:0:
224,192,92713,1,8,0:0:0:0:
288,224,92792,1,8,0:0:0:0:
224,192,92871,1,0,0:0:0:0:
224,192,92950,1,0,0:0:0:0:
224,192,93029,1,8,0:0:0:0:
224,192,93187,1,0,0:0:0:0:
224,192,93345,1,8,0:0:0:0:
200,123,93503,1,0,0:0:0:0:
256,224,93661,1,0,0:0:0:0:
128,160,93740,1,0,0:0:0:0:
320,224,93819,1,8,0:0:0:0:
320,224,93977,1,8,0:0:0:0:
320,224,94135,1,0,0:0:0:0:
160,128,94292,1,0,0:0:0:0:
111,93,94371,1,0,0:0:0:0:
160,128,94450,1,8,0:0:0:0:
160,160,94608,1,8,0:0:0:0:
96,192,94687,1,8,0:0:0:0:
160,160,94766,1,8,0:0:0:0:
160,160,94845,1,8,0:0:0:0:
160,160,94924,1,0,0:0:0:0:
320,224,95082,1,8,0:0:0:0:
320,224,95161,1,8,0:0:0:0:
320,224,95240,1,0,0:0:0:0:
320,224,95398,1,8,0:0:0:0:
320,224,95556,1,8,0:0:0:0:
320,224,95713,1,8,0:0:0:0:
320,224,95871,1,12,0:0:0:0:
256,224,96187,1,8,0:0:0:0:
256,224,96345,1,0,0:0:0:0:
192,192,96424,1,0,0:0:0:0:
256,224,96503,1,8,0:0:0:0:
192,192,96661,1,0,0:0:0:0:
192,192,96819,1,0,0:0:0:0:
208,160,96898,1,0,0:0:0:0:
192,192,96977,1,8,0:0:0:0:
224,192,97056,1,0,0:0:0:0:
224,192,97135,1,8,0:0:0:0:
224,192,97292,1,0,0:0:0:0:
224,192,97371,1,0,0:0:0:0:
224,192,97450,1,8,0:0:0:0:
325,156,97529,1,8,0:0:0:0:
224,192,97608,1,0,0:0:0:0:
224,192,97766,1,8,0:0:0:0:
288,224,97845,1,8,0:0:0:0:
224,192,97924,1,0,0:0:0:0:
224,192,98082,1,8,0:0:0:0:
224,192,98240,1,0,0:0:0:0:
224,192,98398,1,8,0:0:0:0:
137,133,98556,1,0,0:0:0:0:
256,224,98713,1,0,0:0:0:0:
128,0,98792,1,0,0:0:0:0:
128,32,98871,1,8,0:0:0:0:
320,224,98950,1,0,0:0:0:0:
320,224,99029,1,8,0:0:0:0:
320,224,99187,1,0,0:0:0:0:
160,128,99345,1,0,0:0:0:0:
192,128,99424,1,0,0:0:0:0:
160,128,99503,1,8,0:0:0:0:
160,160,99661,1,8,0:0:0:0:
241,101,99740,1,0,0:0:0:0:
128,160,99819,1,8,0:0:0:0:
96,128,99898,1,8,0:0:0:0:
160,160,99977,1,0,0:0:0:0:
320,224,100135,1,8,0:0:0:0:
320,224,100213,1,8,0:0:0:0:
320,224,100292,1,0,0:0:0:0:
320,224,100450,1,8,0:0:0:0:
320,224,100608,1,0,0:0:0:0:
172,69,100766,1,8,0:0:0:0:
320,224,100924,1,8,0:0:0:0:
256,224,101240,1,8,0:0:0:0:
256,224,101398,1,0,0:0:0:0:
192,192,101477,1,0,0:0:0:0:
256,224,101556,1,8,0:0:0:0:
172,69,101635,1,8,0:0:0:0:
192,192,101713,1,0,0:0:0:0:
192,192,101871,1,8,0:0:0:0:
192,192,102029,1,8,0:0:0:0:
224,192,102108,1,0,0:0:0:0:
224,192,102187,1,8,0:0:0:0:
224,192,102345,1,0,0:0:0:0:
224,192,102424,1,0,0:0:0:0:
224,192,102503,1,8,0:0:0:0:
224,192,102661,1,0,0:0:0:0:
224,192,102819,1,8,0:0:0:0:
288,224,102898,1,8,0:0:0:0:
224,192,102977,1,0,0:0:0:0:
224,192,103056,1,0,0:0:0:0:
224,192,103135,1,8,0:0:0:0:
224,192,103292,1,0,0:0:0:0:
224,192,103450,1,8,0:0:0:0:
163,139,103608,1,0,0:0:0:0:
224,128,103687,1,0,0:0:0:0:
242,130,103766,1,0,0:0:0:0:
242,130,103924,1,8,0:0:0:0:
242,130,104003,1,0,0:0:0:0:
249,130,104082,1,8,0:0:0:0:
145,44,104161,1,0,0:0:0:0:
249,130,104240,1,0,0:0:0:0:
248,131,104398,1,0,0:0:0:0:
247,136,104556,1,8,0:0:0:0:
191,94,104713,1,8,0:0:0:0:
191,94,104792,1,0,0:0:0:0:
163,161,104871,1,8,0:0:0:0:
163,161,104950,1,8,0:0:0:0:
163,161,105029,1,0,0:0:0:0:
163,161,105108,1,0,0:0:0:0:
163,161,105187,1,8,0:0:0:0:
163,161,105345,1,0,0:0:0:0:
163,161,105424,1,0,0:0:0:0:
163,161,105503,1,8,0:0:0:0:
163,161,105582,1,8,0:0:0:0:
163,161,105661,1,8,0:0:0:0:
163,161,105740,1,8,0:0:0:0:
71,102,105819,1,0,0:0:0:0:
163,161,105977,1,12,0:0:0:0:
256,224,106292,1,8,0:0:0:0:
256,224,106450,1,0,0:0:0:0:
192,192,106529,1,0,0:0:0:0:
256,224,106608,1,8,0:0:0:0:
192,192,106766,1,0,0:0:0:0:
192,192,106924,1,8,0:0:0:0:
192,192,107082,1,0,0:0:0:0:
224,192,107161,1,0,0:0:0:0:
224,192,107240,1,8,0:0:0:0:
224,192,107398,1,0,0:0:0:0:
224,192,107477,1,0,0:0:0:0:
224,192,107556,1,8,0:0:0:0:
224,192,107713,1,0,0:0:0:0:
224,192,107871,1,8,0:0:0:0:
288,224,107950,1,8,0:0:0:0:
224,192,108029,1,0,0:0:0:0:
224,192,108108,1,0,0:0:0:0:
224,192,108187,1,8,0:0:0:0:
224,192,108345,1,0,0:0:0:0:
224,192,108503,1,8,0:0:0:0:
256,224,108819,1,8,0:0:0:0:
320,224,108977,1,0,0:0:0:0:
320,224,109056,1,0,0:0:0:0:
320,224,109135,1,8,0:0:0:0:
320,224,109292,1,0,0:0:0:0:
160,128,109450,1,8,0:0:0:0:
160,128,109608,1,8,0:0:0:0:
192,64,109687,1,0,0:0:0:0:
160,160,109766,1,8,0:0:0:0:
160,160,109924,1,0,0:0:0:0:
160,160,110003,1,0,0:0:0:0:
160,160,110082,1,8,0:0:0:0:
320,224,110240,1,0,0:0:0:0:
320,224,110319,1,0,0:0:0:0:
320,224,110398,1,8,0:0:0:0:
320,224,110556,1,0,0:0:0:0:
320,224,110713,1,8,0:0:0:0:
320,224,110871,1,8,0:0:0:0:
320,224,111029,1,0,0:0:0:0:
256,224,111345,1,8,0:0:0:0:
256,224,111503,1,0,0:0:0:0:
192,192,111582,1,0,0:0:0:0:
256,224,111661,1,8,0:0:0:0:
192,192,111819,1,0,0:0:0:0:
192,192,111977,1,8,0:0:0:0:
192,192,112135,1,0,0:0:0:0:
224,192,112213,1,0,0:0:0:0:
224,192,112292,1,8,0:0:0:0:
224,192,112450,1,0,0:0:0:0:
224,192,112529,1,0,0:0:0:0:
224,192,112608,1,8,0:0:0:0:
224,192,112766,1,0,0:0:0:0:
224,192,112924,1,8,0:0:0:0:
288,224,113003,1,8,0:0:0:0:
224,192,113082,1,0,0:0:0:0:
224,192,113161,1,0,0:0:0:0:
224,192,113240,1,8,0:0:0:0:
224,192,113398,1,0,0:0:0:0:
224,192,113556,1,8,0:0:0:0:
256,224,113871,1,8,0:0:0:0:
320,224,114029,1,0,0:0:0:0:
320,224,114108,1,0,0:0:0:0:
320,224,114187,1,8,0:0:0:0:
320,224,114345,1,0,0:0:0:0:
160,128,114503,1,8,0:0:0:0:
160,128,114661,1,8,0:0:0:0:
192,64,114740,1,0,0:0:0:0:
160,160,114819,1,8,0:0:0:0:
160,160,114977,1,0,0:0:0:0:
160,160,115056,1,0,0:0:0:0:
160,160,115135,1,8,0:0:0:0:
320,224,115292,1,0,0:0:0:0:
320,224,115371,1,0,0:0:0:0:
320,224,115450,1,8,0:0:0:0:
320,224,115608,1,0,0:0:0:0:
320,224,115766,1,4,0:0:0:0:
320,224,116082,1,12,0:0:0:0:
256,224,116398,1,8,0:0:0:0:
256,224,116556,1,0,0:0:0:0:
192,192,116635,1,0,0:0:0:0:
256,224,116713,1,8,0:0:0:0:
192,192,116871,1,0,0:0:0:0:
192,192,117029,1,8,0:0:0:0:
192,192,117187,1,0,0:0:0:0:
224,192,117266,1,0,0:0:0:0:
224,192,117345,1,8,0:0:0:0:
224,192,117503,1,0,0:0:0:0:
224,192,117582,1,0,0:0:0:0:
224,192,117661,1,8,0:0:0:0:
325,156,117740,1,8,0:0:0:0:
224,192,117819,1,0,0:0:0:0:
224,192,117977,1,8,0:0:0:0:
288,224,118056,1,8,0:0:0:0:
224,192,118135,1,0,0:0:0:0:
224,192,118292,1,8,0:0:0:0:
224,192,118450,1,0,0:0:0:0:
224,192,118608,1,8,0:0:0:0:
256,224,118924,1,8,0:0:0:0:
320,224,119082,1,0,0:0:0:0:
320,224,119161,1,0,0:0:0:0:
320,224,119240,1,8,0:0:0:0:
320,224,119398,1,0,0:0:0:0:
160,128,119556,1,8,0:0:0:0:
160,128,119713,1,8,0:0:0:0:
192,64,119792,1,0,0:0:0:0:
160,160,119871,1,8,0:0:0:0:
160,160,120029,1,0,0:0:0:0:
160,160,120108,1,0,0:0:0:0:
160,160,120187,1,8,0:0:0:0:
320,224,120345,1,0,0:0:0:0:
320,224,120424,1,0,0:0:0:0:
320,224,120503,1,8,0:0:0:0:
320,224,120661,1,0,0:0:0:0:
41,103,120740,1,0,0:0:0:0:
320,224,120819,1,8,0:0:0:0:
172,69,120977,1,8,0:0:0:0:
320,224,121135,1,0,0:0:0:0:
256,224,121450,1,8,0:0:0:0:
256,224,121608,1,0,0:0:0:0:
192,192,121687,1,0,0:0:0:0:
256,224,121766,1,8,0:0:0:0:
172,69,121845,1,8,0:0:0:0:
192,192,121924,1,0,0:0:0:0:
192,192,122082,1,8,0:0:0:0:
192,192,122240,1,8,0:0:0:0:
224,192,122319,1,0,0:0:0:0:
224,192,122398,1,8,0:0:0:0:
224,192,122556,1,0,0:0:0:0:
224,192,122635,1,0,0:0:0:0:
224,192,122713,1,8,0:0:0:0:
224,192,122871,1,0,0:0:0:0:
224,192,123029,1,8,0:0:0:0:
288,224,123108,1,8,0:0:0:0:
224,192,123187,1,0,0:0:0:0:
224,192,123266,1,0,0:0:0:0:
224,192,123345,1,8,0:0:0:0:
224,192,123503,1,0,0:0:0:0:
224,192,123661,1,8,0:0:0:0:
242,130,123977,1,8,0:0:0:0:
242,130,124135,1,0,0:0:0:0:
242,130,124213,1,0,0:0:0:0:
249,130,124292,1,8,0:0:0:0:
249,130,124450,1,0,0:0:0:0:
248,131,124608,1,0,0:0:0:0:
247,136,124766,1,8,0:0:0:0:
247,136,124924,1,8,0:0:0:0:
248,137,125003,1,8,0:0:0:0:
250,137,125082,1,0,0:0:0:0:
250,138,125161,1,0,0:0:0:0:
250,139,125240,1,8,0:0:0:0:
252,139,125319,1,8,0:0:0:0:
254,133,125398,1,0,0:0:0:0:
263,131,125556,1,8,0:0:0:0:
266,127,125635,1,0,0:0:0:0:
268,124,125713,1,0,0:0:0:0:
268,124,125792,1,0,0:0:0:0:
269,113,125871,1,8,0:0:0:0:
269,113,125950,1,8,0:0:0:0:
279,106,126029,1,0,0:0:0:0:
276,90,126187,1,12,0:0:0:0:
352,160,126503,1,8,0:0:0:0:
352,160,126661,1,0,0:0:0:0:
192,96,126819,5,0,0:0:0:0:
352,160,126977,1,8,0:0:0:0:
352,160,127135,1,8,0:0:0:0:
352,160,127292,1,0,0:0:0:0:
352,160,127450,1,0,0:0:0:0:
352,160,127608,1,8,0:0:0:0:
352,160,127766,1,8,0:0:0:0:
352,160,127924,1,0,0:0:0:0:
352,160,128082,1,8,0:0:0:0:
352,160,128240,1,0,0:0:0:0:
352,160,128398,1,8,0:0:0:0:
160,64,128477,1,8,0:0:0:0:
256,160,128556,1,0,0:0:0:0:
352,160,128713,1,0,0:0:0:0:
224,224,129029,1,8,0:0:0:0:
224,224,129187,1,0,0:0:0:0:
224,224,129345,1,0,0:0:0:0:
224,224,129503,1,8,0:0:0:0:
224,224,129661,1,0,0:0:0:0:
224,224,129819,1,0,0:0:0:0:
288,192,129977,1,0,0:0:0:0:
288,192,130056,1,0,0:0:0:0:
288,192,130135,1,0,0:0:0:0:
288,192,130213,1,0,0:0:0:0:
288,192,130292,1,8,0:0:0:0:
288,192,130450,1,0,0:0:0:0:
288,192,130608,1,0,0:0:0:0:
320,64,130766,1,8,0:0:0:0:
352,160,130924,5,0,0:0:0:0:
309,251,131240,5,0,0:0:0:0:
288,256,131398,1,0,0:0:0:0:
314,181,131556,1,8,0:0:0:0:
314,181,131713,1,0,0:0:0:0:
314,181,131871,1,0,0:0:0:0:
314,181,131950,1,0,0:0:0:0:
314,181,132029,1,8,0:0:0:0:
314,181,132187,1,8,0:0:0:0:
314,181,132345,1,0,0:0:0:0:
314,181,132503,1,0,0:0:0:0:
314,181,132661,1,0,0:0:0:0:
149,101,132740,1,0,0:0:0:0:
319,189,132819,1,8,0:0:0:0:
319,187,132977,1,0,0:0:0:0:
318,187,133135,1,0,0:0:0:0:
318,187,133292,1,8,0:0:0:0:
160,32,133371,1,8,0:0:0:0:
128,160,133450,1,0,0:0:0:0:
318,187,133608,1,8,0:0:0:0:
317,185,133766,1,0,0:0:0:0:
319,187,133924,5,0,0:0:0:0:
149,101,134003,1,0,0:0:0:0:
318,187,134082,1,8,0:0:0:0:
318,187,134240,1,0,0:0:0:0:
318,187,134398,1,0,0:0:0:0:
318,187,134477,1,0,0:0:0:0:
318,187,134556,1,8,0:0:0:0:
319,188,134713,1,8,0:0:0:0:
319,187,134871,1,0,0:0:0:0:
118,122,135029,1,0,0:0:0:0:
185,117,135108,1,0,0:0:0:0:
185,117,135187,1,0,0:0:0:0:
185,117,135503,1,8,0:0:0:0:
185,117,135661,1,0,0:0:0:0:
185,117,135740,1,0,0:0:0:0:
185,117,135819,1,0,0:0:0:0:
185,117,135977,1,8,0:0:0:0:
297,157,136292,1,0,0:0:0:0:
160,224,136608,1,12,0:0:0:0:
160,224,136766,1,0,0:0:0:0:
160,224,136924,1,0,0:0:0:0:
160,224,137003,1,8,0:0:0:0:
192,224,137082,1,0,0:0:0:0:
192,224,137240,1,0,0:0:0:0:
192,224,137398,1,8,0:0:0:0:
320,224,137477,1,8,0:0:0:0:
224,224,137556,1,0,0:0:0:0:
106,203,137635,1,0,0:0:0:0:
224,224,137713,1,8,0:0:0:0:
109,126,137871,1,8,0:0:0:0:
224,224,138029,1,0,0:0:0:0:
320,224,138187,1,0,0:0:0:0:
320,224,138266,1,8,0:0:0:0:
320,224,138345,1,0,0:0:0:0:
320,224,138503,1,8,0:0:0:0:
224,256,138819,1,0,0:0:0:0:
256,224,138977,1,0,0:0:0:0:
297,191,139056,1,0,0:0:0:0:
320,192,139135,1,8,0:0:0:0:
320,192,139292,1,0,0:0:0:0:
320,192,139450,1,8,0:0:0:0:
297,191,139529,1,8,0:0:0:0:
224,192,139608,1,0,0:0:0:0:
224,192,139766,1,0,0:0:0:0:
224,192,139845,1,0,0:0:0:0:
224,192,139924,1,8,0:0:0:0:
256,128,140003,1,8,0:0:0:0:
224,192,140082,1,0,0:0:0:0:
224,224,140240,1,8,0:0:0:0:
224,224,140398,1,0,0:0:0:0:
251,168,140477,1,8,0:0:0:0:
224,224,140556,1,0,0:0:0:0:
224,224,140713,1,8,0:0:0:0:
224,224,140871,1,0,0:0:0:0:
160,32,140950,1,0,0:0:0:0:
224,224,141029,1,8,0:0:0:0:
256,224,141345,1,0,0:0:0:0:
196,160,141424,1,0,0:0:0:0:
416,192,141503,1,0,0:0:0:0:
416,192,141661,1,8,0:0:0:0:
416,192,141819,1,0,0:0:0:0:
416,192,141898,1,0,0:0:0:0:
416,192,141977,1,8,0:0:0:0:
224,64,142135,1,0,0:0:0:0:
224,64,142292,1,0,0:0:0:0:
224,64,142450,1,8,0:0:0:0:
224,64,142529,1,8,0:0:0:0:
224,64,142608,1,8,0:0:0:0:
196,160,142687,1,8,0:0:0:0:
256,96,142766,1,0,0:0:0:0:
256,96,142924,1,8,0:0:0:0:
256,96,143082,1,0,0:0:0:0:
256,96,143240,1,8,0:0:0:0:
256,96,143398,1,0,0:0:0:0:
256,96,143477,1,0,0:0:0:0:
256,96,143556,1,8,0:0:0:0:
256,96,143871,1,0,0:0:0:0:
320,96,144029,1,0,0:0:0:0:
320,96,144108,1,0,0:0:0:0:
320,96,144187,1,8,0:0:0:0:
320,96,144345,1,0,0:0:0:0:
320,96,144424,1,0,0:0:0:0:
320,96,144503,1,8,0:0:0:0:
164,138,144582,1,8,0:0:0:0:
320,96,144661,1,0,0:0:0:0:
320,96,144819,1,8,0:0:0:0:
320,96,144977,1,8,0:0:0:0:
320,96,145056,1,8,0:0:0:0:
320,96,145135,1,0,0:0:0:0:
224,64,145292,1,8,0:0:0:0:
224,64,145450,1,0,0:0:0:0:
225,124,145529,1,0,0:0:0:0:
192,128,145608,1,0,0:0:0:0:
192,128,145766,1,8,0:0:0:0:
127,149,145924,1,0,0:0:0:0:
192,128,146082,1,8,0:0:0:0:
150,74,146398,1,12,0:0:0:0:
224,192,146556,1,0,0:0:0:0:
154,178,146635,1,0,0:0:0:0:
192,256,146713,1,8,0:0:0:0:
320,160,146871,1,0,0:0:0:0:
224,192,147029,1,0,0:0:0:0:
224,192,147108,1,0,0:0:0:0:
224,192,147187,1,8,0:0:0:0:
224,192,147345,1,8,0:0:0:0:
224,192,147503,1,0,0:0:0:0:
224,192,147661,1,0,0:0:0:0:
224,192,147977,1,8,0:0:0:0:
224,192,148135,1,0,0:0:0:0:
224,192,148213,1,0,0:0:0:0:
224,192,148292,1,0,0:0:0:0:
224,192,148450,1,8,0:0:0:0:
224,192,148608,1,8,0:0:0:0:
224,224,148687,1,8,0:0:0:0:
224,192,148766,1,0,0:0:0:0:
320,160,148924,1,0,0:0:0:0:
256,160,149240,1,8,0:0:0:0:
256,160,149319,1,8,0:0:0:0:
256,160,149398,1,0,0:0:0:0:
256,128,149556,1,0,0:0:0:0:
320,160,149713,1,8,0:0:0:0:
256,128,149871,1,0,0:0:0:0:
64,128,150029,1,0,0:0:0:0:
256,128,150187,1,0,0:0:0:0:
256,128,150266,1,0,0:0:0:0:
256,128,150345,1,0,0:0:0:0:
256,160,150424,1,0,0:0:0:0:
288,160,150503,1,8,0:0:0:0:
288,160,150661,1,0,0:0:0:0:
256,160,150740,1,0,0:0:0:0:
256,160,150819,1,0,0:0:0:0:
256,160,150977,1,8,0:0:0:0:
256,160,151135,1,0,0:0:0:0:
155,82,151213,1,0,0:0:0:0:
256,160,151292,1,0,0:0:0:0:
96,160,151450,1,0,0:0:0:0:
211,171,151766,1,8,0:0:0:0:
211,171,151924,1,8,0:0:0:0:
211,171,152082,1,0,0:0:0:0:
211,171,152240,1,8,0:0:0:0:
211,171,152398,1,0,0:0:0:0:
211,171,152713,1,0,0:0:0:0:
211,171,153029,1,8,0:0:0:0:
211,171,153187,1,0,0:0:0:0:
211,171,153345,1,0,0:0:0:0:
211,171,153503,1,8,0:0:0:0:
250,145,153661,1,0,0:0:0:0:
250,145,153977,1,0,0:0:0:0:
250,145,154292,1,8,0:0:0:0:
250,145,154450,1,0,0:0:0:0:
250,145,154766,1,8,0:0:0:0:
250,145,154924,1,0,0:0:0:0:
250,145,155240,1,8,0:0:0:0:
250,145,155871,1,8,0:0:0:0:
274,184,156503,1,12,0:0:0:0:
183,168,157135,1,8,0:0:0:0:
183,168,157766,1,0,0:0:0:0:
183,168,158398,1,8,0:0:0:0:
274,141,158713,1,0,0:0:0:0:
183,168,159029,1,0,0:0:0:0:
274,141,159661,1,8,0:0:0:0:
274,141,160292,1,0,0:0:0:0:
192,192,160924,1,8,0:0:0:0:
274,141,161556,1,0,0:0:0:0:
151,228,162187,1,8,0:0:0:0:
164,232,162819,1,0,0:0:0:0:
164,232,163450,1,8,0:0:0:0:
248,135,163766,1,0,0:0:0:0:
164,232,164082,1,0,0:0:0:0:
248,135,164713,1,8,0:0:0:0:
248,135,165345,1,0,0:0:0:0:
248,135,165819,1,0,0:0:0:0:
248,135,166292,1,0,0:0:0:0:
248,135,166608,1,8,0:0:0:0:
248,135,166924,1,0,0:0:0:0:
248,135,167240,1,8,0:0:0:0:
248,135,167556,1,0,0:0:0:0:
248,135,167871,1,0,0:0:0:0:
248,135,168187,1,0,0:0:0:0:
250,142,168503,1,8,0:0:0:0:
250,142,168819,1,0,0:0:0:0:
252,145,168977,1,0,0:0:0:0:
253,147,169135,1,0,0:0:0:0:
250,142,169450,1,0,0:0:0:0:
250,142,169766,1,8,0:0:0:0:
253,147,170082,1,0,0:0:0:0:
250,142,170398,1,0,0:0:0:0:
171,132,170713,1,0,0:0:0:0:
253,147,171029,1,8,0:0:0:0:
171,132,171345,1,0,0:0:0:0:
320,192,171503,1,0,0:0:0:0:
171,132,171661,1,0,0:0:0:0:
215,187,171977,1,0,0:0:0:0:
215,187,172135,1,0,0:0:0:0:
215,187,172292,1,8,0:0:0:0:
215,187,172608,1,0,0:0:0:0:
215,187,172766,1,0,0:0:0:0:
215,187,172924,1,0,0:0:0:0:
215,187,173240,1,0,0:0:0:0:
215,187,173398,1,0,0:0:0:0:
213,196,173556,1,8,0:0:0:0:
213,196,173871,1,0,0:0:0:0:
194,159,174029,1,0,0:0:0:0:
213,196,174187,1,0,0:0:0:0:
186,172,174345,1,0,0:0:0:0:
188,174,174503,1,0,0:0:0:0:
191,174,174661,1,0,0:0:0:0:
194,173,174819,1,8,0:0:0:0:
196,172,174977,1,0,0:0:0:0:
196,170,175135,1,0,0:0:0:0:
196,169,175292,1,0,0:0:0:0:
198,169,175450,1,8,0:0:0:0:
254,143,175529,1,0,0:0:0:0:
254,143,175608,1,0,0:0:0:0:
254,143,175766,1,8,0:0:0:0:
254,143,175845,1,0,0:0:0:0:
254,143,175924,1,0,0:0:0:0:
254,143,176082,1,8,0:0:0:0:
235,151,176161,1,0,0:0:0:0:
235,151,176240,1,0,0:0:0:0:
235,151,176319,1,0,0:0:0:0:
234,149,176398,1,8,0:0:0:0:
234,149,176477,1,0,0:0:0:0:
237,139,176556,1,0,0:0:0:0:
237,140,176713,1,12,0:0:0:0:
189,221,176871,1,0,0:0:0:0:
256,224,177029,1,8,0:0:0:0:
256,224,177187,1,8,0:0:0:0:
192,192,177266,1,0,0:0:0:0:
256,224,177345,1,8,0:0:0:0:
192,192,177503,1,0,0:0:0:0:
192,192,177661,1,8,0:0:0:0:
192,192,177819,1,8,0:0:0:0:
224,192,177898,1,0,0:0:0:0:
170,148,177977,1,8,0:0:0:0:
156,15,178056,1,8,0:0:0:0:
224,192,178135,1,0,0:0:0:0:
224,192,178292,1,8,0:0:0:0:
329,168,178371,1,8,0:0:0:0:
224,192,178450,1,0,0:0:0:0:
224,192,178608,1,8,0:0:0:0:
288,224,178687,1,8,0:0:0:0:
192,128,178766,1,0,0:0:0:0:
192,128,178845,1,0,0:0:0:0:
224,192,178924,1,8,0:0:0:0:
224,192,179082,1,0,0:0:0:0:
224,192,179240,1,8,0:0:0:0:
196,124,179398,1,0,0:0:0:0:
146,164,179556,1,0,0:0:0:0:
120,99,179635,1,0,0:0:0:0:
142,151,179713,1,8,0:0:0:0:
320,224,179792,1,0,0:0:0:0:
320,224,179871,1,8,0:0:0:0:
320,224,180029,1,0,0:0:0:0:
160,128,180187,1,0,0:0:0:0:
178,198,180266,1,0,0:0:0:0:
160,128,180345,1,8,0:0:0:0:
160,160,180503,1,8,0:0:0:0:
128,64,180582,1,0,0:0:0:0:
203,65,180661,1,8,0:0:0:0:
192,128,180740,1,8,0:0:0:0:
160,160,180819,1,0,0:0:0:0:
320,224,180977,1,8,0:0:0:0:
320,224,181056,1,8,0:0:0:0:
320,224,181135,1,0,0:0:0:0:
256,192,181292,1,8,0:0:0:0:
256,192,181450,1,0,0:0:0:0:
256,192,181608,1,8,0:0:0:0:
224,128,181766,1,8,0:0:0:0:
256,224,182082,1,8,0:0:0:0:
256,224,182240,1,0,0:0:0:0:
192,192,182319,1,0,0:0:0:0:
256,224,182398,1,8,0:0:0:0:
207,199,182477,1,8,0:0:0:0:
192,192,182556,1,0,0:0:0:0:
192,192,182713,1,8,0:0:0:0:
192,192,182871,1,0,0:0:0:0:
224,192,182950,1,0,0:0:0:0:
224,192,183029,1,8,0:0:0:0:
224,192,183187,1,0,0:0:0:0:
224,192,183266,1,0,0:0:0:0:
224,192,183345,1,8,0:0:0:0:
224,192,183503,1,0,0:0:0:0:
224,192,183661,1,8,0:0:0:0:
160,64,183740,1,8,0:0:0:0:
224,192,183819,1,0,0:0:0:0:
224,192,183977,1,8,0:0:0:0:
224,192,184135,1,0,0:0:0:0:
182,199,184213,1,0,0:0:0:0:
224,192,184292,1,8,0:0:0:0:
200,123,184450,1,0,0:0:0:0:
256,224,184608,1,0,0:0:0:0:
320,224,184766,1,8,0:0:0:0:
160,64,184845,1,0,0:0:0:0:
320,224,184924,1,8,0:0:0:0:
101,48,185003,1,8,0:0:0:0:
320,224,185082,1,0,0:0:0:0:
160,128,185240,1,0,0:0:0:0:
111,93,185319,1,0,0:0:0:0:
160,128,185398,1,8,0:0:0:0:
160,160,185556,1,8,0:0:0:0:
160,160,185635,1,8,0:0:0:0:
160,160,185713,1,8,0:0:0:0:
160,160,185792,1,8,0:0:0:0:
160,160,185871,1,0,0:0:0:0:
320,224,186029,1,8,0:0:0:0:
320,224,186108,1,8,0:0:0:0:
320,224,186187,1,0,0:0:0:0:
320,224,186345,1,8,0:0:0:0:
320,224,186503,1,8,0:0:0:0:
320,224,186661,1,8,0:0:0:0:
320,224,186819,1,12,0:0:0:0:
256,224,187135,1,8,0:0:0:0:
256,224,187292,1,0,0:0:0:0:
192,192,187371,1,0,0:0:0:0:
256,224,187450,1,8,0:0:0:0:
192,192,187608,1,0,0:0:0:0:
192,192,187766,1,0,0:0:0:0:
208,160,187845,1,0,0:0:0:0:
192,192,187924,1,8,0:0:0:0:
224,192,188003,1,0,0:0:0:0:
224,192,188082,1,8,0:0:0:0:
224,192,188240,1,0,0:0:0:0:
224,192,188319,1,0,0:0:0:0:
224,192,188398,1,8,0:0:0:0:
325,156,188477,1,8,0:0:0:0:
224,192,188556,1,0,0:0:0:0:
224,192,188713,1,8,0:0:0:0:
224,192,188871,1,0,0:0:0:0:
64,64,188950,1,0,0:0:0:0:
224,192,189029,1,8,0:0:0:0:
224,192,189187,1,0,0:0:0:0:
244,107,189266,1,0,0:0:0:0:
224,192,189345,1,8,0:0:0:0:
137,133,189503,1,0,0:0:0:0:
256,224,189661,1,0,0:0:0:0:
226,134,189740,1,0,0:0:0:0:
320,224,189819,1,8,0:0:0:0:
320,224,189898,1,0,0:0:0:0:
320,224,189977,1,8,0:0:0:0:
320,224,190135,1,0,0:0:0:0:
160,128,190292,1,0,0:0:0:0:
256,160,190371,1,0,0:0:0:0:
160,128,190450,1,8,0:0:0:0:
160,160,190608,1,8,0:0:0:0:
64,96,190687,1,0,0:0:0:0:
191,9,190766,1,8,0:0:0:0:
96,64,190845,1,8,0:0:0:0:
160,160,190924,1,0,0:0:0:0:
320,224,191082,1,8,0:0:0:0:
320,224,191161,1,8,0:0:0:0:
320,224,191240,1,0,0:0:0:0:
320,224,191398,1,8,0:0:0:0:
320,224,191556,1,0,0:0:0:0:
172,69,191713,1,8,0:0:0:0:
320,224,191871,1,8,0:0:0:0:
256,224,192187,1,8,0:0:0:0:
256,224,192345,1,0,0:0:0:0:
192,192,192424,1,0,0:0:0:0:
256,224,192503,1,8,0:0:0:0:
172,69,192582,1,8,0:0:0:0:
192,192,192661,1,0,0:0:0:0:
192,192,192819,1,8,0:0:0:0:
192,192,192977,1,8,0:0:0:0:
224,192,193056,1,0,0:0:0:0:
224,192,193135,1,8,0:0:0:0:
224,192,193292,1,0,0:0:0:0:
224,192,193371,1,0,0:0:0:0:
224,192,193450,1,8,0:0:0:0:
224,192,193608,1,0,0:0:0:0:
224,192,193766,1,8,0:0:0:0:
288,224,193845,1,8,0:0:0:0:
224,192,193924,1,0,0:0:0:0:
224,192,194003,1,0,0:0:0:0:
224,192,194082,1,8,0:0:0:0:
224,192,194240,1,0,0:0:0:0:
224,192,194398,1,8,0:0:0:0:
273,165,194477,1,8,0:0:0:0:
163,139,194556,1,0,0:0:0:0:
128,128,194635,1,0,0:0:0:0:
242,130,194713,1,0,0:0:0:0:
192,64,194792,1,0,0:0:0:0:
242,130,194871,1,8,0:0:0:0:
249,130,195029,1,8,0:0:0:0:
145,44,195108,1,8,0:0:0:0:
249,130,195187,1,0,0:0:0:0:
160,32,195266,1,0,0:0:0:0:
248,131,195345,1,0,0:0:0:0:
160,32,195424,1,0,0:0:0:0:
247,136,195503,1,8,0:0:0:0:
191,94,195661,1,8,0:0:0:0:
224,184,195819,1,0,0:0:0:0:
224,184,196135,1,0,0:0:0:0:
207,78,196450,2,0,L|362:175,1,167.999994873047
163,161,196924,1,12,0:0:0:0:
391,134,197082,1,0,0:0:0:0:
391,134,197161,1,0,0:0:0:0:
391,134,197240,1,8,0:0:0:0:
391,134,197398,1,0,0:0:0:0:
391,134,197477,1,0,0:0:0:0:
391,134,197556,1,0,0:0:0:0:
391,134,197635,1,0,0:0:0:0:
380,162,197713,1,8,0:0:0:0:
376,170,197871,1,0,0:0:0:0:
376,170,197950,1,8,0:0:0:0:
319,106,198029,1,0,0:0:0:0:
319,106,198187,1,0,0:0:0:0:
319,106,198345,1,0,0:0:0:0:
327,109,198424,1,0,0:0:0:0:
327,109,198503,1,8,0:0:0:0:
328,109,198582,1,8,0:0:0:0:
333,111,198661,1,0,0:0:0:0:
333,106,198819,1,0,0:0:0:0:
333,106,198898,1,0,0:0:0:0:
333,106,198977,1,8,0:0:0:0:
333,106,199135,1,8,0:0:0:0:
374,198,199213,1,8,0:0:0:0:
374,198,199292,1,0,0:0:0:0:
374,198,199450,1,8,0:0:0:0:
369,192,199529,1,0,0:0:0:0:
369,192,199608,1,0,0:0:0:0:
369,192,199766,1,0,0:0:0:0:
250,117,199924,1,8,0:0:0:0:
250,117,200003,1,8,0:0:0:0:
250,117,200082,1,8,0:0:0:0:
250,117,200161,1,8,0:0:0:0:
250,117,200240,1,0,0:0:0:0:
198,221,200398,1,8,0:0:0:0:
198,221,200477,1,0,0:0:0:0:
198,221,200556,1,0,0:0:0:0:
191,234,200713,1,0,0:0:0:0:
191,228,200792,1,0,0:0:0:0:
193,233,200871,1,0,0:0:0:0:
192,231,201029,1,8,0:0:0:0:
191,228,201108,1,8,0:0:0:0:
191,228,201187,1,0,0:0:0:0:
191,228,201345,1,8,0:0:0:0:
191,229,201424,1,0,0:0:0:0:
191,229,201503,1,0,0:0:0:0:
191,234,201661,1,8,0:0:0:0:
191,234,201740,1,8,0:0:0:0:
191,228,201819,1,0,0:0:0:0:
191,228,201977,1,8,0:0:0:0:
192,231,202056,1,8,0:0:0:0:
191,228,202135,1,0,0:0:0:0:
191,228,202213,1,0,0:0:0:0:
191,228,202292,1,0,0:0:0:0:
154,88,202450,1,8,0:0:0:0:
154,88,202529,1,0,0:0:0:0:
154,88,202608,1,0,0:0:0:0:
154,88,202687,1,0,0:0:0:0:
115,49,202766,1,0,0:0:0:0:
234,169,202924,1,8,0:0:0:0:
234,169,203003,1,8,0:0:0:0:
234,169,203082,1,0,0:0:0:0:
234,169,203240,1,8,0:0:0:0:
234,169,203319,1,8,0:0:0:0:
234,169,203398,1,0,0:0:0:0:
237,175,203477,1,0,0:0:0:0:
236,178,203556,1,0,0:0:0:0:
236,178,203713,1,0,0:0:0:0:
236,178,203871,1,8,0:0:0:0:
236,178,203950,1,8,0:0:0:0:
204,59,204029,1,8,0:0:0:0:
174,7,204108,1,8,0:0:0:0:
204,59,204187,1,0,0:0:0:0:
112,92,204345,1,0,0:0:0:0:
314,191,204503,5,8,0:0:0:0:
314,191,204582,1,8,0:0:0:0:
314,191,204661,1,8,0:0:0:0:
314,191,204740,1,0,0:0:0:0:
314,191,204819,1,0,0:0:0:0:
314,191,204977,1,8,0:0:0:0:
315,197,205056,1,8,0:0:0:0:
316,202,205135,1,0,0:0:0:0:
325,203,205213,1,0,0:0:0:0:
326,202,205292,1,0,0:0:0:0:
328,202,205450,1,8,0:0:0:0:
329,202,205529,1,8,0:0:0:0:
328,202,205608,1,0,0:0:0:0:
353,204,205766,1,0,0:0:0:0:
139,69,205845,1,0,0:0:0:0:
350,201,205924,1,8,0:0:0:0:
269,152,206082,1,0,0:0:0:0:
216,35,206161,1,0,0:0:0:0:
356,235,206240,1,8,0:0:0:0:
356,235,206398,1,0,0:0:0:0:
356,235,206477,1,8,0:0:0:0:
356,235,206556,1,8,0:0:0:0:
356,235,206713,1,0,0:0:0:0:
119,25,206792,1,8,0:0:0:0:
356,235,206871,1,8,0:0:0:0:
356,235,207029,1,12,0:0:0:0:
258,126,207187,1,0,0:0:0:0:
258,126,207266,1,0,0:0:0:0:
258,126,207345,1,8,0:0:0:0:
258,126,207503,1,0,0:0:0:0:
258,126,207582,1,0,0:0:0:0:
258,126,207661,1,0,0:0:0:0:
264,153,207740,1,0,0:0:0:0:
263,158,207819,1,8,0:0:0:0:
263,158,207977,1,0,0:0:0:0:
263,158,208056,1,8,0:0:0:0:
263,158,208135,1,0,0:0:0:0:
263,160,208292,1,0,0:0:0:0:
263,161,208450,1,0,0:0:0:0:
263,162,208529,1,0,0:0:0:0:
241,55,208608,1,8,0:0:0:0:
241,55,208687,1,8,0:0:0:0:
263,163,208766,1,0,0:0:0:0:
241,55,208924,1,8,0:0:0:0:
241,55,209003,1,8,0:0:0:0:
241,55,209082,1,0,0:0:0:0:
241,55,209240,1,8,0:0:0:0:
254,77,209319,1,0,0:0:0:0:
254,77,209398,1,0,0:0:0:0:
254,77,209556,1,8,0:0:0:0:
254,77,209635,1,0,0:0:0:0:
254,77,209713,1,0,0:0:0:0:
254,77,209792,1,0,0:0:0:0:
255,77,209871,1,0,0:0:0:0:
255,77,210029,1,8,0:0:0:0:
256,78,210108,1,8,0:0:0:0:
256,77,210187,1,0,0:0:0:0:
256,77,210266,1,0,0:0:0:0:
254,77,210345,1,0,0:0:0:0:
268,243,210503,1,8,0:0:0:0:
268,243,210582,1,8,0:0:0:0:
268,243,210661,1,8,0:0:0:0:
270,252,210740,1,0,0:0:0:0:
270,252,210819,1,0,0:0:0:0:
268,243,210977,1,8,0:0:0:0:
268,243,211056,1,8,0:0:0:0:
268,243,211135,1,8,0:0:0:0:
268,243,211213,1,8,0:0:0:0:
268,243,211292,1,0,0:0:0:0:
268,243,211450,1,8,0:0:0:0:
268,243,211529,1,8,0:0:0:0:
268,243,211608,1,8,0:0:0:0:
268,243,211687,1,8,0:0:0:0:
269,243,211766,1,0,0:0:0:0:
269,244,211845,1,8,0:0:0:0:
268,243,211924,1,8,0:0:0:0:
281,244,212082,1,12,0:0:0:0:
343,218,212240,1,0,0:0:0:0:
183,11,212319,1,0,0:0:0:0:
375,228,212398,1,8,0:0:0:0:
375,228,212556,1,8,0:0:0:0:
355,156,212635,1,8,0:0:0:0:
355,156,212713,1,8,0:0:0:0:
355,156,212792,1,0,0:0:0:0:
355,156,212871,1,0,0:0:0:0:
355,156,213029,1,8,0:0:0:0:
355,156,213108,1,0,0:0:0:0:
355,156,213187,1,0,0:0:0:0:
201,114,213345,1,8,0:0:0:0:
197,105,213424,1,8,0:0:0:0:
201,114,213503,1,0,0:0:0:0:
196,104,213661,1,0,0:0:0:0:
196,104,213819,1,8,0:0:0:0:
196,104,213898,1,8,0:0:0:0:
196,104,213977,1,0,0:0:0:0:
196,104,214056,1,0,0:0:0:0:
198,105,214135,1,0,0:0:0:0:
199,106,214292,1,8,0:0:0:0:
199,106,214371,1,8,0:0:0:0:
197,105,214450,1,0,0:0:0:0:
202,108,214608,1,8,0:0:0:0:
137,113,214687,1,8,0:0:0:0:
164,52,214766,1,0,0:0:0:0:
164,52,214924,1,0,0:0:0:0:
164,52,215082,1,8,0:0:0:0:
164,52,215161,1,8,0:0:0:0:
164,52,215240,1,0,0:0:0:0:
363,214,215398,1,0,0:0:0:0:
162,38,215556,1,8,0:0:0:0:
222,40,215635,1,8,0:0:0:0:
160,46,215713,1,0,0:0:0:0:
77,4,215871,1,0,0:0:0:0:
363,214,215950,1,0,0:0:0:0:
363,214,216029,1,8,0:0:0:0:
224,160,216108,1,8,0:0:0:0:
363,214,216187,1,0,0:0:0:0:
363,214,216266,1,0,0:0:0:0:
363,214,216345,1,8,0:0:0:0:
363,214,216503,1,0,0:0:0:0:
363,214,216582,1,8,0:0:0:0:
363,214,216661,1,8,0:0:0:0:
224,160,216740,1,8,0:0:0:0:
363,214,216819,1,0,0:0:0:0:
363,214,216898,1,8,0:0:0:0:
363,214,216977,1,8,0:0:0:0:
363,214,217135,1,12,0:0:0:0:
256,224,217450,1,8,0:0:0:0:
256,224,217608,1,0,0:0:0:0:
192,192,217687,1,0,0:0:0:0:
256,224,217766,1,8,0:0:0:0:
192,192,217924,1,0,0:0:0:0:
192,192,218082,1,8,0:0:0:0:
192,192,218240,1,0,0:0:0:0:
224,192,218319,1,0,0:0:0:0:
224,192,218398,1,8,0:0:0:0:
224,192,218556,1,0,0:0:0:0:
224,192,218635,1,0,0:0:0:0:
224,192,218713,1,8,0:0:0:0:
224,192,218871,1,0,0:0:0:0:
224,192,219029,1,8,0:0:0:0:
288,224,219108,1,8,0:0:0:0:
224,192,219187,1,0,0:0:0:0:
224,192,219266,1,0,0:0:0:0:
224,192,219345,1,8,0:0:0:0:
224,192,219503,1,0,0:0:0:0:
224,192,219661,1,8,0:0:0:0:
256,224,219977,1,8,0:0:0:0:
320,224,220135,1,0,0:0:0:0:
320,224,220213,1,0,0:0:0:0:
320,224,220292,1,8,0:0:0:0:
320,224,220450,1,0,0:0:0:0:
160,128,220608,1,8,0:0:0:0:
160,128,220766,1,8,0:0:0:0:
192,64,220845,1,0,0:0:0:0:
160,160,220924,1,8,0:0:0:0:
160,160,221082,1,0,0:0:0:0:
160,160,221161,1,0,0:0:0:0:
160,160,221240,1,8,0:0:0:0:
320,224,221398,1,0,0:0:0:0:
320,224,221477,1,0,0:0:0:0:
320,224,221556,1,8,0:0:0:0:
320,224,221713,1,0,0:0:0:0:
320,224,221871,1,8,0:0:0:0:
320,224,222029,1,8,0:0:0:0:
320,224,222187,1,0,0:0:0:0:
256,224,222503,1,8,0:0:0:0:
256,224,222661,1,0,0:0:0:0:
192,192,222740,1,0,0:0:0:0:
256,224,222819,1,8,0:0:0:0:
192,192,222977,1,0,0:0:0:0:
192,192,223135,1,8,0:0:0:0:
192,192,223292,1,0,0:0:0:0:
224,192,223371,1,0,0:0:0:0:
224,192,223450,1,8,0:0:0:0:
224,192,223608,1,0,0:0:0:0:
224,192,223687,1,0,0:0:0:0:
224,192,223766,1,8,0:0:0:0:
224,192,223924,1,0,0:0:0:0:
224,192,224082,1,8,0:0:0:0:
288,224,224161,1,8,0:0:0:0:
224,192,224240,1,0,0:0:0:0:
224,192,224319,1,0,0:0:0:0:
224,192,224398,1,8,0:0:0:0:
224,192,224556,1,0,0:0:0:0:
224,192,224713,1,8,0:0:0:0:
256,224,225029,1,8,0:0:0:0:
320,224,225187,1,0,0:0:0:0:
320,224,225266,1,0,0:0:0:0:
320,224,225345,1,8,0:0:0:0:
320,224,225503,1,0,0:0:0:0:
160,128,225661,1,8,0:0:0:0:
160,128,225819,1,8,0:0:0:0:
192,64,225898,1,0,0:0:0:0:
160,160,225977,1,8,0:0:0:0:
160,160,226135,1,0,0:0:0:0:
160,160,226213,1,0,0:0:0:0:
160,160,226292,1,8,0:0:0:0:
320,224,226450,1,0,0:0:0:0:
320,224,226529,1,0,0:0:0:0:
320,224,226608,1,8,0:0:0:0:
320,224,226766,1,0,0:0:0:0:
320,224,226924,1,4,0:0:0:0:
256,192,227082,1,0,0:0:0:0:
320,224,227240,1,12,0:0:0:0:
256,224,227556,1,8,0:0:0:0:
256,224,227713,1,0,0:0:0:0:
192,192,227792,1,0,0:0:0:0:
256,224,227871,1,8,0:0:0:0:
192,192,228029,1,0,0:0:0:0:
192,192,228187,1,8,0:0:0:0:
192,192,228345,1,0,0:0:0:0:
224,192,228424,1,0,0:0:0:0:
224,192,228503,1,8,0:0:0:0:
224,192,228661,1,0,0:0:0:0:
224,192,228740,1,0,0:0:0:0:
224,192,228819,1,8,0:0:0:0:
325,156,228898,1,8,0:0:0:0:
224,192,228977,1,0,0:0:0:0:
224,192,229135,1,8,0:0:0:0:
288,224,229213,1,8,0:0:0:0:
224,192,229292,1,0,0:0:0:0:
224,192,229450,1,8,0:0:0:0:
224,192,229608,1,0,0:0:0:0:
224,192,229766,1,8,0:0:0:0:
256,224,230082,1,8,0:0:0:0:
320,224,230240,1,0,0:0:0:0:
320,224,230319,1,0,0:0:0:0:
320,224,230398,1,8,0:0:0:0:
320,224,230556,1,0,0:0:0:0:
160,128,230713,1,8,0:0:0:0:
160,128,230871,1,8,0:0:0:0:
192,64,230950,1,0,0:0:0:0:
160,160,231029,1,8,0:0:0:0:
160,160,231187,1,0,0:0:0:0:
160,160,231266,1,0,0:0:0:0:
160,160,231345,1,8,0:0:0:0:
320,224,231503,1,0,0:0:0:0:
320,224,231582,1,0,0:0:0:0:
320,224,231661,1,8,0:0:0:0:
320,224,231819,1,0,0:0:0:0:
41,103,231898,1,0,0:0:0:0:
320,224,231977,1,8,0:0:0:0:
172,69,232135,1,8,0:0:0:0:
320,224,232292,1,0,0:0:0:0:
256,224,232608,1,8,0:0:0:0:
256,224,232766,1,0,0:0:0:0:
192,192,232845,1,0,0:0:0:0:
256,224,232924,1,8,0:0:0:0:
172,69,233003,1,8,0:0:0:0:
192,192,233082,1,0,0:0:0:0:
192,192,233240,1,8,0:0:0:0:
192,192,233398,1,8,0:0:0:0:
224,192,233477,1,0,0:0:0:0:
224,192,233556,1,8,0:0:0:0:
224,192,233713,1,0,0:0:0:0:
224,192,233792,1,0,0:0:0:0:
224,192,233871,1,8,0:0:0:0:
224,192,234029,1,0,0:0:0:0:
224,192,234187,1,8,0:0:0:0:
288,224,234266,1,8,0:0:0:0:
224,192,234345,1,0,0:0:0:0:
224,192,234424,1,0,0:0:0:0:
224,192,234503,1,8,0:0:0:0:
224,192,234661,1,0,0:0:0:0:
224,192,234819,1,8,0:0:0:0:
242,130,235135,1,8,0:0:0:0:
242,130,235292,1,0,0:0:0:0:
242,130,235371,1,0,0:0:0:0:
249,130,235450,1,8,0:0:0:0:
249,130,235608,1,0,0:0:0:0:
248,131,235766,1,0,0:0:0:0:
247,136,235924,1,8,0:0:0:0:
247,136,236082,1,8,0:0:0:0:
248,137,236161,1,8,0:0:0:0:
250,137,236240,1,0,0:0:0:0:
250,138,236319,1,0,0:0:0:0:
250,139,236398,1,8,0:0:0:0:
252,139,236477,1,8,0:0:0:0:
254,133,236556,1,0,0:0:0:0:
263,131,236713,1,8,0:0:0:0:
266,127,236792,1,0,0:0:0:0:
268,124,236871,1,0,0:0:0:0:
268,124,236950,1,0,0:0:0:0:
269,113,237029,1,8,0:0:0:0:
269,113,237108,1,8,0:0:0:0:
279,106,237187,1,0,0:0:0:0:
281,97,237345,1,12,0:0:0:0:
448,224,237582,1,0,0:0:0:0:
448,224,237661,1,8,0:0:0:0:
448,224,237819,1,0,0:0:0:0:
448,224,237977,1,0,0:0:0:0:
448,224,238056,1,0,0:0:0:0:
448,224,238135,1,8,0:0:0:0:
448,224,238292,1,8,0:0:0:0:
448,224,238450,1,0,0:0:0:0:
384,256,238608,1,0,0:0:0:0:
384,256,238766,1,0,0:0:0:0:
384,256,238845,1,0,0:0:0:0:
384,256,238924,1,8,0:0:0:0:
384,256,239082,1,0,0:0:0:0:
384,256,239240,1,0,0:0:0:0:
384,256,239319,1,0,0:0:0:0:
384,256,239398,1,8,0:0:0:0:
384,256,239556,1,8,0:0:0:0:
384,256,239713,1,0,0:0:0:0:
384,256,239871,1,0,0:0:0:0:
384,256,240108,1,0,0:0:0:0:
384,256,240187,1,8,0:0:0:0:
384,256,240345,1,0,0:0:0:0:
160,224,240503,1,0,0:0:0:0:
160,192,240582,1,0,0:0:0:0:
160,192,240661,1,8,0:0:0:0:
160,192,240819,1,8,0:0:0:0:
160,192,240977,1,0,0:0:0:0:
160,192,241135,1,0,0:0:0:0:
160,192,241213,1,0,0:0:0:0:
160,192,241292,1,0,0:0:0:0:
160,192,241371,1,0,0:0:0:0:
160,192,241450,1,8,0:0:0:0:
160,64,241608,1,0,0:0:0:0:
160,64,241687,1,0,0:0:0:0:
160,64,241766,1,0,0:0:0:0:
160,64,241924,1,8,0:0:0:0:
160,64,242082,1,0,0:0:0:0:
160,64,242240,1,0,0:0:0:0:
160,64,242398,1,12,0:0:0:0:
448,224,242635,1,0,0:0:0:0:
448,224,242713,1,8,0:0:0:0:
448,224,242871,1,0,0:0:0:0:
448,224,243029,1,0,0:0:0:0:
448,224,243108,1,0,0:0:0:0:
448,224,243187,1,8,0:0:0:0:
448,224,243345,1,8,0:0:0:0:
448,224,243503,1,0,0:0:0:0:
384,256,243661,1,0,0:0:0:0:
384,256,243819,1,0,0:0:0:0:
384,256,243898,1,0,0:0:0:0:
384,256,243977,1,8,0:0:0:0:
384,256,244135,1,0,0:0:0:0:
384,256,244292,1,0,0:0:0:0:
384,256,244371,1,0,0:0:0:0:
384,256,244450,1,8,0:0:0:0:
384,256,244608,1,8,0:0:0:0:
384,256,244766,1,0,0:0:0:0:
384,256,244924,1,0,0:0:0:0:
224,160,245161,1,0,0:0:0:0:
224,160,245240,1,8,0:0:0:0:
224,160,245398,1,0,0:0:0:0:
160,96,245556,1,0,0:0:0:0:
192,160,245635,1,0,0:0:0:0:
256,192,245713,1,8,0:0:0:0:
256,192,245871,1,8,0:0:0:0:
256,192,246029,1,0,0:0:0:0:
256,192,246187,1,8,0:0:0:0:
288,224,246424,1,0,0:0:0:0:
288,224,246503,1,0,0:0:0:0:
288,224,246661,1,8,0:0:0:0:
288,224,246740,1,0,0:0:0:0:
288,224,246819,1,8,0:0:0:0:
288,224,246898,1,8,0:0:0:0:
288,224,246977,1,0,0:0:0:0:
288,224,247135,1,8,0:0:0:0:
288,224,247213,1,0,0:0:0:0:
288,224,247292,1,0,0:0:0:0:
256,224,247371,1,0,0:0:0:0:
