osu file format v14

[General]
AudioFilename: audio.mp3
AudioLeadIn: 0
PreviewTime: 43135
Countdown: 1
SampleSet: Normal
StackLeniency: 0.7
Mode: 1
LetterboxInBreaks: 0
WidescreenStoryboard: 1

[Editor]
Bookmarks: 1090,12470,32680,42774,55405,65511,75616,80668,85721,105932,126142,136247,146353,151405,156458,176668,196879,217090,237300,247405
DistanceSpacing: 1
BeatDivisor: 4
GridSize: 32
TimelineZoom: 0.6799999

[Metadata]
Title:Aimless Voyage
TitleUnicode:Aimless Voyage
Artist:LiLA'c Records
ArtistUnicode:LiLA'c Records
Creator:Nepuri
Version:Kantan
Source:東方永夜抄 ~ Imperishable Night.
Tags:Irus Yuuki Aihara Neeshe Eternize LLAC-0011 RTS9 Reitaisai Voyage 1969 Final Stage Kathayaka
BeatmapID:1450906
BeatmapSetID:679686

[Difficulty]
HPDrainRate:6
CircleSize:2
OverallDifficulty:3.5
ApproachRate:10
SliderMultiplier:1.4
SliderTickRate:1

[Events]
//Background and Video events
0,0,"yag.png",0,30
//Break Periods
//Storyboard Layer 0 (Background)
//Storyboard Layer 1 (Fail)
//Storyboard Layer 2 (Pass)
//Storyboard Layer 3 (Foreground)
//Storyboard Sound Samples

[TimingPoints]
1135,315.789473684211,4,1,0,65,1,0
42819,-100,4,1,0,65,0,1
52924,-100,4,1,0,65,0,0
65556,-100,4,1,0,65,0,1
75661,-100,4,1,0,65,0,0
136608,-100,4,1,0,65,0,1
146398,-100,4,1,0,65,0,0
196924,-100,4,1,0,65,0,1
217135,-100,4,1,0,65,0,0

[HitObjects]
256,224,1135,5,8,0:0:0:0:
176,190,2082,1,0,0:0:0:0:
192,192,2398,1,12,0:0:0:0:
192,192,3661,1,0,0:0:0:0:
192,192,4924,1,0,0:0:0:0:
160,128,6187,1,0,0:0:0:0:
160,128,6503,1,8,0:0:0:0:
261,157,7135,1,8,0:0:0:0:
160,128,7450,1,12,0:0:0:0:
96,96,8713,1,0,0:0:0:0:
96,96,9977,1,8,0:0:0:0:
96,96,11240,1,0,0:0:0:0:
96,96,11871,1,8,0:0:0:0:
96,96,12187,1,8,0:0:0:0:
96,96,12503,1,12,0:0:0:0:
192,160,13135,1,8,0:0:0:0:
192,160,13766,1,0,0:0:0:0:
192,160,14398,1,8,0:0:0:0:
192,160,14713,1,0,0:0:0:0:
224,160,15029,1,0,0:0:0:0:
224,160,15661,1,0,0:0:0:0:
224,160,16292,1,8,0:0:0:0:
96,160,17556,1,0,0:0:0:0:
224,192,18187,1,0,0:0:0:0:
192,192,18819,1,8,0:0:0:0:
192,192,19135,1,8,0:0:0:0:
192,192,19450,1,0,0:0:0:0:
192,192,20082,1,8,0:0:0:0:
192,192,20713,1,8,0:0:0:0:
192,192,21345,1,0,0:0:0:0:
192,192,22608,1,12,0:0:0:0:
256,160,23240,5,0,0:0:0:0:
288,224,23871,1,8,0:0:0:0:
288,224,24187,1,8,0:0:0:0:
288,224,24503,1,0,0:0:0:0:
288,224,25135,1,8,0:0:0:0:
288,224,25766,1,8,0:0:0:0:
288,224,26398,1,0,0:0:0:0:
256,128,27661,1,0,0:0:0:0:
224,128,28292,1,0,0:0:0:0:
224,128,28924,1,8,0:0:0:0:
192,160,29556,1,8,0:0:0:0:
192,160,29871,1,0,0:0:0:0:
192,160,30187,1,0,0:0:0:0:
128,128,30819,1,8,0:0:0:0:
192,160,31450,1,0,0:0:0:0:
96,96,31766,1,8,0:0:0:0:
192,160,32082,1,0,0:0:0:0:
192,160,32713,1,12,0:0:0:0:
160,160,33977,1,0,0:0:0:0:
96,192,34608,1,0,0:0:0:0:
224,224,34924,1,8,0:0:0:0:
224,224,35240,1,0,0:0:0:0:
224,224,36503,1,0,0:0:0:0:
192,160,36819,1,8,0:0:0:0:
192,160,37450,1,8,0:0:0:0:
192,160,37766,1,0,0:0:0:0:
128,96,39029,1,0,0:0:0:0:
128,96,39661,1,0,0:0:0:0:
128,96,39977,1,8,0:0:0:0:
128,96,40292,1,0,0:0:0:0:
128,96,41556,1,0,0:0:0:0:
128,96,41871,1,8,0:0:0:0:
128,96,42503,1,8,0:0:0:0:
128,96,42819,1,12,0:0:0:0:
128,96,44082,1,0,0:0:0:0:
128,96,44713,1,0,0:0:0:0:
128,96,45029,1,8,0:0:0:0:
128,96,45661,1,8,0:0:0:0:
128,96,45977,1,0,0:0:0:0:
160,224,47240,1,0,0:0:0:0:
224,160,47871,1,0,0:0:0:0:
192,128,48187,1,8,0:0:0:0:
128,128,48503,1,8,0:0:0:0:
128,128,49135,1,0,0:0:0:0:
128,128,49766,1,8,0:0:0:0:
128,128,51029,1,8,0:0:0:0:
192,160,51661,1,0,0:0:0:0:
192,160,52292,1,0,0:0:0:0:
192,160,52608,1,0,0:0:0:0:
192,160,52924,1,12,0:0:0:0:
192,96,54187,1,8,0:0:0:0:
160,192,55450,1,12,0:0:0:0:
160,192,56713,1,0,0:0:0:0:
160,192,57345,1,0,0:0:0:0:
160,192,57661,1,8,0:0:0:0:
160,192,57977,1,0,0:0:0:0:
160,160,59240,1,0,0:0:0:0:
160,160,59556,1,8,0:0:0:0:
160,160,60187,1,8,0:0:0:0:
160,160,60503,1,0,0:0:0:0:
160,160,61766,1,0,0:0:0:0:
160,160,62398,1,0,0:0:0:0:
160,160,62713,1,8,0:0:0:0:
160,160,63029,1,0,0:0:0:0:
160,160,64292,1,8,0:0:0:0:
160,160,64924,1,0,0:0:0:0:
160,160,65240,1,8,0:0:0:0:
160,160,65556,1,12,0:0:0:0:
128,96,66819,1,0,0:0:0:0:
128,96,67450,1,8,0:0:0:0:
128,96,67766,1,0,0:0:0:0:
128,96,68398,1,8,0:0:0:0:
128,96,68713,1,0,0:0:0:0:
160,224,69977,1,8,0:0:0:0:
224,160,70608,1,0,0:0:0:0:
192,128,70924,1,8,0:0:0:0:
128,128,71240,1,0,0:0:0:0:
128,128,71871,1,0,0:0:0:0:
128,128,72503,1,8,0:0:0:0:
128,128,73766,1,8,0:0:0:0:
192,160,74398,1,0,0:0:0:0:
192,160,75029,1,0,0:0:0:0:
192,160,75345,1,8,0:0:0:0:
192,160,75661,1,12,0:0:0:0:
224,160,76924,1,0,0:0:0:0:
128,128,77240,1,8,0:0:0:0:
224,160,78187,1,0,0:0:0:0:
224,160,79450,1,0,0:0:0:0:
128,128,79766,1,8,0:0:0:0:
128,128,80398,1,8,0:0:0:0:
128,128,80713,1,0,0:0:0:0:
224,128,81977,1,0,0:0:0:0:
224,128,83240,1,8,0:0:0:0:
224,128,85766,1,12,0:0:0:0:
192,160,86398,1,0,0:0:0:0:
192,160,87029,1,0,0:0:0:0:
192,160,87661,1,8,0:0:0:0:
192,160,87977,1,0,0:0:0:0:
192,160,88292,1,8,0:0:0:0:
192,160,88924,1,8,0:0:0:0:
192,160,89556,1,0,0:0:0:0:
192,160,90819,1,0,0:0:0:0:
192,160,91450,1,8,0:0:0:0:
192,160,92082,1,8,0:0:0:0:
192,160,92398,1,8,0:0:0:0:
192,160,92713,1,0,0:0:0:0:
192,160,93345,1,8,0:0:0:0:
192,160,93977,1,0,0:0:0:0:
192,160,94608,1,0,0:0:0:0:
192,160,95871,1,12,0:0:0:0:
241,227,96503,1,0,0:0:0:0:
192,160,97135,1,0,0:0:0:0:
192,160,97450,1,8,0:0:0:0:
192,160,97766,1,8,0:0:0:0:
192,160,98398,1,8,0:0:0:0:
192,160,99029,1,8,0:0:0:0:
192,160,99661,1,0,0:0:0:0:
192,160,100924,1,0,0:0:0:0:
192,160,101556,1,8,0:0:0:0:
192,160,102187,1,0,0:0:0:0:
192,160,102503,1,8,0:0:0:0:
192,160,102819,1,0,0:0:0:0:
192,160,103450,1,8,0:0:0:0:
192,192,104082,1,0,0:0:0:0:
192,160,104713,1,0,0:0:0:0:
160,64,105345,1,0,0:0:0:0:
160,64,105661,1,8,0:0:0:0:
96,96,105977,1,12,0:0:0:0:
192,160,107240,1,0,0:0:0:0:
192,160,107871,1,8,0:0:0:0:
192,160,108187,1,0,0:0:0:0:
224,160,108503,1,0,0:0:0:0:
224,160,109135,1,0,0:0:0:0:
224,160,109766,1,8,0:0:0:0:
96,160,111029,1,0,0:0:0:0:
224,192,111661,1,0,0:0:0:0:
192,192,112292,1,0,0:0:0:0:
192,192,112608,1,8,0:0:0:0:
192,192,112924,1,0,0:0:0:0:
192,192,113556,1,8,0:0:0:0:
160,256,114187,1,8,0:0:0:0:
192,192,114819,1,0,0:0:0:0:
224,64,115766,1,0,0:0:0:0:
192,192,116082,1,12,0:0:0:0:
288,224,117345,1,8,0:0:0:0:
288,224,117661,1,8,0:0:0:0:
288,224,117977,1,0,0:0:0:0:
288,224,118608,1,8,0:0:0:0:
288,224,119240,1,8,0:0:0:0:
288,224,119871,1,0,0:0:0:0:
256,128,121135,1,0,0:0:0:0:
224,128,121766,1,0,0:0:0:0:
224,128,122398,1,8,0:0:0:0:
192,160,123029,1,8,0:0:0:0:
192,160,123345,1,0,0:0:0:0:
192,160,123661,1,0,0:0:0:0:
128,128,124292,1,8,0:0:0:0:
192,160,124924,1,0,0:0:0:0:
96,96,125240,1,8,0:0:0:0:
192,160,125556,1,0,0:0:0:0:
224,160,126187,1,12,0:0:0:0:
160,192,127450,1,0,0:0:0:0:
160,192,128713,1,8,0:0:0:0:
128,160,129977,1,0,0:0:0:0:
128,160,130924,1,0,0:0:0:0:
96,128,131240,1,0,0:0:0:0:
224,128,132503,1,0,0:0:0:0:
224,128,132819,1,8,0:0:0:0:
224,128,133450,1,8,0:0:0:0:
224,128,133766,1,0,0:0:0:0:
160,128,135029,1,0,0:0:0:0:
192,128,136608,1,12,0:0:0:0:
128,96,137556,1,0,0:0:0:0:
128,96,138187,1,8,0:0:0:0:
128,96,138503,1,0,0:0:0:0:
128,96,139135,1,8,0:0:0:0:
128,96,139450,1,0,0:0:0:0:
160,224,140713,1,8,0:0:0:0:
224,160,141345,1,0,0:0:0:0:
192,128,141661,1,8,0:0:0:0:
128,128,141977,1,8,0:0:0:0:
128,128,142608,1,8,0:0:0:0:
128,128,143240,1,0,0:0:0:0:
128,128,144503,1,8,0:0:0:0:
192,160,145135,1,0,0:0:0:0:
192,160,145766,1,0,0:0:0:0:
192,160,146082,1,0,0:0:0:0:
192,160,146398,1,12,0:0:0:0:
224,160,147661,1,0,0:0:0:0:
128,128,147977,1,8,0:0:0:0:
224,160,148924,1,0,0:0:0:0:
224,160,150187,1,0,0:0:0:0:
128,128,150503,1,8,0:0:0:0:
128,128,151135,1,8,0:0:0:0:
128,128,151450,1,0,0:0:0:0:
224,128,152713,1,0,0:0:0:0:
224,128,153977,1,8,0:0:0:0:
224,128,156503,1,12,0:0:0:0:
160,160,159029,1,0,0:0:0:0:
160,160,161556,1,0,0:0:0:0:
192,160,164082,1,8,0:0:0:0:
224,160,165345,1,0,0:0:0:0:
224,160,166608,1,8,0:0:0:0:
224,160,167871,1,0,0:0:0:0:
224,160,168503,1,0,0:0:0:0:
224,160,169135,1,0,0:0:0:0:
224,160,170398,1,0,0:0:0:0:
224,160,171029,1,8,0:0:0:0:
224,160,171661,1,0,0:0:0:0:
192,128,172924,1,8,0:0:0:0:
192,128,173556,1,0,0:0:0:0:
192,128,174187,1,8,0:0:0:0:
192,128,175450,1,8,0:0:0:0:
192,128,175766,1,8,0:0:0:0:
192,128,176082,1,8,0:0:0:0:
192,128,176713,1,12,0:0:0:0:
192,160,177345,1,8,0:0:0:0:
192,160,177977,1,8,0:0:0:0:
55,134,178292,1,0,0:0:0:0:
192,160,178608,1,8,0:0:0:0:
192,160,179240,1,0,0:0:0:0:
192,160,179871,1,8,0:0:0:0:
192,160,180503,1,0,0:0:0:0:
192,160,181766,1,0,0:0:0:0:
192,160,182398,1,8,0:0:0:0:
192,160,183029,1,8,0:0:0:0:
192,160,183345,1,8,0:0:0:0:
192,160,183661,1,0,0:0:0:0:
192,160,184292,1,8,0:0:0:0:
192,160,184924,1,0,0:0:0:0:
192,160,185556,1,0,0:0:0:0:
192,160,186819,1,12,0:0:0:0:
160,128,187450,1,0,0:0:0:0:
192,160,188082,1,0,0:0:0:0:
192,160,188398,1,8,0:0:0:0:
192,160,188713,1,8,0:0:0:0:
192,160,189345,1,8,0:0:0:0:
192,160,189977,1,8,0:0:0:0:
192,160,190608,1,0,0:0:0:0:
192,160,191871,1,0,0:0:0:0:
192,160,192503,1,8,0:0:0:0:
192,160,193135,1,0,0:0:0:0:
192,160,193450,1,8,0:0:0:0:
192,160,193766,1,0,0:0:0:0:
192,160,194398,1,8,0:0:0:0:
192,192,195029,1,8,0:0:0:0:
192,160,195661,1,0,0:0:0:0:
320,96,196924,1,12,0:0:0:0:
192,128,197240,1,8,0:0:0:0:
192,128,197871,1,8,0:0:0:0:
192,128,198187,1,0,0:0:0:0:
213,178,199450,1,8,0:0:0:0:
213,56,200082,1,0,0:0:0:0:
196,62,200713,1,0,0:0:0:0:
211,126,201029,1,8,0:0:0:0:
192,160,201345,1,0,0:0:0:0:
192,192,201977,1,8,0:0:0:0:
192,192,202608,1,0,0:0:0:0:
192,192,202924,1,8,0:0:0:0:
192,192,203240,1,8,0:0:0:0:
192,192,203871,1,8,0:0:0:0:
184,143,204503,1,0,0:0:0:0:
213,55,205450,1,0,0:0:0:0:
184,143,205766,1,8,0:0:0:0:
184,143,206398,1,8,0:0:0:0:
224,128,207029,1,12,0:0:0:0:
288,128,207345,1,8,0:0:0:0:
288,128,207977,1,8,0:0:0:0:
288,128,208292,1,0,0:0:0:0:
189,167,209556,1,0,0:0:0:0:
189,167,210503,1,8,0:0:0:0:
189,167,211450,1,0,0:0:0:0:
150,145,211766,1,0,0:0:0:0:
160,64,212082,1,12,0:0:0:0:
208,127,213029,1,0,0:0:0:0:
207,185,213345,1,8,0:0:0:0:
207,127,214292,1,0,0:0:0:0:
207,185,214608,1,8,0:0:0:0:
217,95,215556,1,8,0:0:0:0:
223,147,215871,1,0,0:0:0:0:
212,162,216503,1,8,0:0:0:0:
214,166,216819,1,0,0:0:0:0:
192,128,217135,5,12,0:0:0:0:
192,160,217766,1,8,0:0:0:0:
192,160,218398,1,0,0:0:0:0:
192,160,219029,1,8,0:0:0:0:
192,160,219345,1,0,0:0:0:0:
224,160,219661,1,8,0:0:0:0:
224,160,220292,1,0,0:0:0:0:
224,160,220924,1,8,0:0:0:0:
96,160,222187,1,0,0:0:0:0:
224,192,222819,1,0,0:0:0:0:
192,192,223450,1,0,0:0:0:0:
192,192,223766,1,8,0:0:0:0:
192,192,224082,1,8,0:0:0:0:
192,192,224713,1,0,0:0:0:0:
96,128,225345,1,0,0:0:0:0:
192,192,225977,1,8,0:0:0:0:
288,96,226924,1,0,0:0:0:0:
192,192,227240,1,12,0:0:0:0:
224,160,227871,1,0,0:0:0:0:
288,224,228503,1,8,0:0:0:0:
288,224,228819,1,0,0:0:0:0:
288,224,229135,1,8,0:0:0:0:
288,224,229766,1,8,0:0:0:0:
288,224,230398,1,8,0:0:0:0:
288,224,231029,1,0,0:0:0:0:
256,128,232292,1,0,0:0:0:0:
224,128,232924,1,0,0:0:0:0:
224,128,233556,1,8,0:0:0:0:
192,160,234187,1,8,0:0:0:0:
192,160,234503,1,0,0:0:0:0:
192,160,234819,1,0,0:0:0:0:
128,128,235450,1,8,0:0:0:0:
192,160,236082,1,0,0:0:0:0:
96,96,236398,1,8,0:0:0:0:
192,160,236713,1,0,0:0:0:0:
192,192,237345,1,12,0:0:0:0:
192,192,238608,1,0,0:0:0:0:
192,192,239871,1,0,0:0:0:0:
160,128,241135,1,0,0:0:0:0:
160,128,241766,1,8,0:0:0:0:
160,128,242398,1,12,0:0:0:0:
96,96,243661,1,0,0:0:0:0:
96,96,244924,1,0,0:0:0:0:
96,96,246187,1,8,0:0:0:0:
96,96,247135,1,0,0:0:0:0:
