osu file format v14

[General]
AudioFilename: audio.mp3
AudioLeadIn: 0
PreviewTime: 118624
Countdown: 0
SampleSet: Soft
StackLeniency: 0.3
Mode: 0
LetterboxInBreaks: 0
WidescreenStoryboard: 0

[Editor]
Bookmarks: 481,7865,15250,30019,44788,59557,74327,89096,96481,103865,118634,140327,142634
DistanceSpacing: 1.6
BeatDivisor: 4
GridSize: 4
TimelineZoom: 1.8

[Metadata]
Title:popotnik ~ The Traveller of Ljubljana
TitleUnicode:popotnik ~ 류블랴나의 여행자
Artist:LhoU
ArtistUnicode:LhoU
Creator:Niva
Version:Ryo's Insane
Source:VOEZ
Tags:traveler lhoustudio RyoKazuka
BeatmapID:1620017
BeatmapSetID:712388

[Difficulty]
HPDrainRate:6
CircleSize:3.5
OverallDifficulty:7
ApproachRate:9
SliderMultiplier:1.9
SliderTickRate:2

[Events]
//Background and Video events
0,0,"bg.jpg",0,0
//Break Periods
//Storyboard Layer 0 (Background)
//Storyboard Layer 1 (Fail)
//Storyboard Layer 2 (Pass)
//Storyboard Layer 3 (Foreground)
//Storyboard Sound Samples

[TimingPoints]
481,461.538461538462,4,2,0,55,1,0
481,-142.857142857143,4,2,0,55,0,0
7634,-100,4,2,0,55,0,0
7865,-90.9090909090909,4,2,0,55,0,0
14788,-83.3333333333333,4,2,0,55,0,0
15250,-76.9230769230769,4,2,0,60,0,0
22173,-71.4285714285714,4,2,0,60,0,0
22634,-76.9230769230769,4,2,0,60,0,0
29557,-71.4285714285714,4,2,0,60,0,0
30019,-83.3333333333333,4,2,0,55,0,1
30134,-83.3333333333333,4,2,0,55,0,0
36942,-76.9230769230769,4,2,0,55,0,0
37404,-83.3333333333333,4,2,0,55,0,1
37519,-83.3333333333333,4,2,0,55,0,0
44327,-76.9230769230769,4,2,0,55,0,0
44788,-76.9230769230769,4,2,0,60,0,0
51711,-71.4285714285714,4,2,0,60,0,0
52173,-76.9230769230769,4,2,0,60,0,0
59096,-71.4285714285714,4,2,0,60,0,0
59557,-83.3333333333333,4,2,0,55,0,0
66481,-76.9230769230769,4,2,0,55,0,0
66942,-83.3333333333333,4,2,0,55,0,0
73865,-76.9230769230769,4,2,0,55,0,0
74327,-83.3333333333333,4,2,0,55,0,0
81250,-76.9230769230769,4,2,0,55,0,0
81711,-83.3333333333333,4,2,0,55,0,0
88634,-76.9230769230769,4,2,0,55,0,0
89096,-142.857142857143,4,2,0,40,0,0
96250,-90.9090909090909,4,2,0,55,0,0
96481,-83.3333333333334,4,2,0,55,0,0
103865,-76.9230769230769,4,2,0,60,0,1
103981,-76.9230769230769,4,2,0,60,0,0
110788,-71.4285714285714,4,2,0,60,0,0
111250,-76.9230769230769,4,2,0,60,0,0
118634,-71.4285714285714,4,2,0,65,0,1
133404,-66.6666666666667,4,2,0,65,0,1
140327,-71.4285714285714,4,2,0,65,0,0

[Colours]
Combo1 : 255,253,174
Combo2 : 151,255,255
Combo3 : 43,253,190

[HitObjects]
83,45,481,5,2,0:0:0:0:
83,45,596,2,0,L|74:134,1,66.4999979705811,0|2,0:0|0:0,0:0:0:0:
183,66,1173,1,2,0:0:0:0:
183,66,1288,2,0,L|174:155,1,66.4999979705811,0|2,0:0|0:0,0:0:0:0:
283,87,1866,1,2,0:0:0:0:
283,87,1981,2,0,L|274:176,1,66.4999979705811
329,246,2327,5,2,0:0:0:0:
329,246,2442,2,0,P|373:245|417:218,1,66.4999979705811,0|2,0:0|0:0,0:0:0:0:
229,284,3019,1,2,0:0:0:0:
229,284,3134,2,0,P|251:321|297:346,1,66.4999979705811,0|2,0:0|0:0,0:0:0:0:
146,216,3712,1,2,0:0:0:0:
146,216,3827,2,0,P|124:254|126:306,1,66.4999979705811
227,147,4173,5,2,0:0:0:0:
227,147,4288,2,0,P|220:114|202:86,1,66.4999979705811,0|2,0:0|0:0,0:0:0:0:
361,149,4866,1,2,0:0:0:0:
361,149,4981,2,0,P|336:170|320:200,1,66.4999979705811,0|2,0:0|0:0,0:0:0:0:
296,32,5557,1,2,0:0:0:0:
296,32,5673,2,0,P|327:42|360:41,1,66.4999979705811,0|0,0:0|0:0,0:0:0:0:
463,25,6019,6,0,L|457:71,3,33.2499989852906,2|0|0|0,0:0|0:0|0:0|0:0,0:0:0:0:
441,140,6481,2,0,L|445:172,3,33.2499989852906,2|0|0|0,0:0|0:0|0:0|0:0,0:0:0:0:
490,243,6942,2,0,L|484:288,1,33.2499989852906,2|0,0:0|0:0,0:0:0:0:
396,331,7173,2,0,L|391:298,1,33.2499989852906,0|0,0:0|0:0,0:0:0:0:
299,235,7404,1,2,0:0:0:0:
271,237,7519,1,0,0:0:0:0:
243,239,7634,6,0,L|237:299,1,47.5,0|0,1:2|0:0,0:0:0:0:
133,368,7865,6,0,P|107:307|125:227,1,104.500003189087,6|0,1:2|0:0,0:0:0:0:
62,187,8211,1,2,0:0:0:0:
62,187,8327,2,0,P|88:126|70:46,1,104.500003189087,0|2,1:2|0:0,0:0:0:0:
230,17,8788,1,0,1:2:0:0:
234,48,8904,1,2,0:0:0:0:
238,79,9019,1,0,0:0:0:0:
242,110,9134,1,0,0:0:0:0:
246,141,9250,2,0,B|295:122|295:122|385:140,1,104.500003189087,2|0,1:2|0:2,0:0:0:0:
400,209,9596,1,0,0:0:0:0:
400,209,9711,6,0,B|449:228|449:228|539:210,1,104.500003189087,2|0,1:2|0:0,0:0:0:0:
497,312,10057,1,2,0:0:0:0:
497,312,10173,2,0,L|375:339,1,104.500003189087,0|2,1:2|0:0,0:0:0:0:
242,283,10634,1,0,1:2:0:0:
213,269,10749,1,2,0:0:0:0:
183,260,10864,1,0,0:0:0:0:
152,257,10980,1,0,0:0:0:0:
121,259,11096,2,0,P|139:191|132:133,1,104.500003189087,2|0,1:2|0:0,0:0:0:0:
82,80,11442,1,0,0:0:0:0:
82,80,11557,6,0,L|224:71,1,104.500003189087,6|0,1:2|0:0,0:0:0:0:
274,109,11904,1,2,0:0:0:0:
274,109,12019,2,0,L|378:115,1,104.500003189087,0|2,1:2|0:0,0:0:0:0:
481,223,12481,1,0,1:2:0:0:
457,243,12596,1,2,0:0:0:0:
430,258,12711,1,0,0:0:0:0:
399,266,12827,1,0,0:0:0:0:
368,267,12942,2,0,P|307:258|255:260,1,104.500003189087,2|0,1:2|0:2,0:0:0:0:
188,314,13288,1,0,0:0:0:0:
188,314,13404,6,0,L|121:321,3,52.2500015945435,6|0|0|0,1:2|0:0|0:0|0:0,0:0:0:0:
51,369,13865,2,0,L|0:363,3,52.2500015945435,2|0|0|0,1:2|0:0|0:0|0:0,0:0:0:0:
20,223,14327,1,0,1:0:0:0:
44,203,14442,1,0,0:0:0:0:
73,190,14557,1,0,1:0:0:0:
103,183,14673,1,0,0:0:0:0:
134,183,14788,6,0,L|208:193,1,56.9999982604981,2|0,1:2|0:0,0:0:0:0:
392,118,15019,1,0,1:2:0:0:
384,84,15134,1,0,0:0:0:0:
376,50,15250,6,0,P|289:55|230:117,1,123.499994346619,6|0,1:2|0:0,0:0:0:0:
172,42,15596,1,0,0:0:0:0:
172,42,15711,2,0,P|85:37|26:-25,1,123.499994346619,8|0,0:0|0:0,0:0:0:0:
106,185,16173,1,0,1:2:0:0:
119,205,16288,2,0,L|294:190,1,123.499994346619,0|0,0:0|0:0,0:0:0:0:
268,177,16634,2,0,P|261:224|263:254,1,61.7499971733095,8|0,0:0|0:0,0:0:0:0:
309,324,16865,1,0,0:0:0:0:
494,344,17096,6,0,P|503:284|483:226,1,123.499994346619,0|0,1:2|0:0,0:0:0:0:
425,145,17442,1,0,0:0:0:0:
425,145,17557,2,0,P|415:84|435:26,1,123.499994346619,8|0,0:0|0:0,0:0:0:0:
169,69,18019,1,0,1:2:0:0:
183,90,18134,2,0,L|321:74,1,123.499994346619,0|0,0:0|0:0,0:0:0:0:
324,101,18481,2,0,P|319:148|303:183,1,61.7499971733095,10|0,0:0|0:0,0:0:0:0:
353,251,18711,1,0,0:0:0:0:
200,353,18942,6,0,L|39:341,1,123.499994346619,2|0,1:2|0:0,0:0:0:0:
9,270,19288,1,8,0:0:0:0:
106,250,19404,2,0,P|132:186|113:91,1,123.499994346619,0|8,1:2|0:0,0:0:0:0:
326,28,19865,1,0,1:2:0:0:
301,30,19981,2,0,P|275:94|294:189,1,123.499994346619,8|0,0:0|0:0,0:0:0:0:
296,171,20327,2,0,L|376:165,1,61.7499971733095,8|0,0:0|0:0,0:0:0:0:
443,213,20557,1,8,0:0:0:0:
358,367,20788,6,0,L|278:361,3,61.7499971733095,2|0|0|8,1:2|0:0|0:0|0:0,0:0:0:0:
199,312,21250,2,0,P|162:313|123:323,3,61.7499971733095,2|0|8|0,1:2|0:0|0:0|0:0,0:0:0:0:
47,239,21711,1,2,1:2:0:0:
50,202,21826,1,8,0:0:0:0:
54,165,21941,1,0,0:0:0:0:
57,128,22057,1,0,1:2:0:0:
61,91,22173,6,0,B|94:79|94:79|142:90,1,66.4999979705811,10|0,0:0|0:0,0:0:0:0:
287,172,22404,2,0,B|254:184|254:184|206:173,1,66.4999979705811,8|8,0:0|0:0,0:0:0:0:
339,51,22634,6,0,L|496:67,1,123.499994346619,6|0,1:2|0:0,0:0:0:0:
417,153,22981,1,0,0:0:0:0:
417,153,23096,2,0,P|398:213|403:287,1,123.499994346619,8|0,0:0|0:0,0:0:0:0:
175,340,23557,1,0,1:2:0:0:
189,361,23673,2,0,L|360:350,1,123.499994346619,0|0,0:0|0:0,0:0:0:0:
342,347,24019,2,0,P|391:365|425:364,1,61.7499971733095,8|0,0:0|0:0,0:0:0:0:
496,340,24250,1,0,0:0:0:0:
291,210,24481,6,0,P|208:210|139:258,1,123.499994346619,0|0,1:2|0:0,0:0:0:0:
75,246,24827,1,0,0:0:0:0:
75,246,24942,2,0,B|96:188|96:188|78:93,1,123.499994346619,8|0,0:0|0:0,0:0:0:0:
246,24,25404,1,0,1:2:0:0:
261,43,25519,2,0,L|428:52,1,123.499994346619,0|0,0:0|0:0,0:0:0:0:
411,33,25865,2,0,P|423:84|421:122,1,61.7499971733095,10|0,0:0|0:0,0:0:0:0:
404,190,26096,1,0,0:0:0:0:
283,331,26327,6,0,P|277:276|326:186,1,123.499994346619,2|0,1:2|0:0,0:0:0:0:
316,115,26673,1,8,0:0:0:0:
219,132,26788,2,0,P|152:147|69:121,1,123.499994346619,0|8,1:2|0:0,0:0:0:0:
36,352,27250,1,0,1:2:0:0:
56,365,27365,2,0,L|231:347,1,123.499994346619,8|0,0:2|0:2,0:0:0:0:
201,331,27711,2,0,L|279:345,1,61.7499971733095,8|0,0:0|0:0,0:0:0:0:
356,311,27942,1,8,0:0:0:0:
472,174,28173,6,0,P|471:130|454:94,3,61.7499971733095,6|0|0|0,1:2|0:0|0:0|0:0,0:0:0:0:
366,68,28634,2,0,P|367:24|384:-12,3,61.7499971733095,2|0|0|0,0:0|0:0|0:0|0:0,0:0:0:0:
284,149,29096,1,2,0:0:0:0:
252,168,29211,1,0,0:0:0:0:
217,180,29326,1,0,0:0:0:0:
180,183,29442,1,0,0:0:0:0:
144,177,29557,6,0,P|105:167|46:167,1,66.4999979705811,2|0,1:2|0:0,0:0:0:0:
214,41,29788,1,0,1:2:0:0:
253,38,29904,1,0,1:2:0:0:
292,35,30019,6,0,L|280:193,1,113.999996520996,6|0,1:2|0:0,0:0:0:0:
328,228,30365,1,0,0:0:0:0:
328,228,30481,2,0,P|358:216|393:211,1,56.9999982604981,2|0,1:2|0:0,0:0:0:0:
439,282,30711,2,0,L|430:352,1,56.9999982604981,0|0,0:0|0:0,0:0:0:0:
292,358,30942,2,0,P|235:364|156:329,1,113.999996520996,2|0,1:2|0:0,0:0:0:0:
118,281,31288,1,0,0:0:0:0:
118,281,31404,2,0,L|40:291,1,56.9999982604981,2|0,1:2|0:0,0:0:0:0:
53,197,31634,2,0,L|109:189,1,56.9999982604981,0|0,0:0|0:0,0:0:0:0:
310,71,31865,6,0,B|260:48|260:48|163:60,1,113.999996520996,2|0,1:2|0:0,0:0:0:0:
120,97,32211,1,0,0:0:0:0:
120,97,32327,2,0,P|110:70|110:41,1,56.9999982604981,2|0,1:2|0:0,0:0:0:0:
197,144,32557,2,0,P|196:172|187:199,1,56.9999982604981,2|0,0:0|0:0,0:0:0:0:
269,299,32788,1,2,1:2:0:0:
303,295,32904,1,0,0:0:0:0:
337,291,33019,1,2,0:0:0:0:
371,287,33134,1,0,0:0:0:0:
405,283,33250,2,0,P|422:229|414:155,1,113.999996520996,2|0,1:2|0:0,0:0:0:0:
284,12,33711,6,0,P|267:66|275:140,1,113.999996520996,2|0,1:2|0:0,0:0:0:0:
283,213,34057,1,8,0:0:0:0:
283,213,34173,2,0,L|186:201,1,56.9999982604981,2|0,1:2|0:0,0:0:0:0:
152,260,34404,2,0,L|144:349,1,56.9999982604981,8|0,0:0|0:0,0:0:0:0:
21,358,34634,2,0,P|0:304|-3:204,1,113.999996520996,2|0,1:2|0:0,0:0:0:0:
24,161,34981,1,0,0:0:0:0:
24,161,35096,2,0,P|33:111|31:80,1,56.9999982604981,10|0,1:2|0:0,0:0:0:0:
116,67,35327,2,0,P|118:95|125:123,1,56.9999982604981,8|0,0:0|0:0,0:0:0:0:
347,81,35557,6,0,L|234:72,1,113.999996520996,2|0,1:2|0:0,0:0:0:0:
255,162,35904,1,8,0:0:0:0:
255,162,36019,2,0,L|311:166,1,56.9999982604981,2|0,1:2|0:0,0:0:0:0:
205,239,36250,2,0,L|148:243,1,56.9999982604981,10|0,0:0|0:0,0:0:0:0:
276,329,36481,1,2,1:2:0:0:
310,332,36596,1,8,0:0:0:0:
344,335,36711,1,2,0:0:0:0:
378,338,36827,1,0,0:0:0:0:
412,341,36942,6,0,B|428:315|428:315|412:251,1,61.7499971733095,6|0,1:2|0:0,0:0:0:0:
320,109,37173,2,0,B|304:135|304:135|320:199,1,61.7499971733095,8|0,0:0|0:0,0:0:0:0:
411,65,37404,6,0,P|365:19|279:16,1,113.999996520996,6|0,1:2|0:0,0:0:0:0:
240,55,37750,1,0,0:0:0:0:
240,55,37865,2,0,P|195:67|164:71,1,56.9999982604981,2|0,1:2|0:0,0:0:0:0:
96,45,38096,2,0,P|51:33|20:29,1,56.9999982604981,0|0,0:0|0:0,0:0:0:0:
0,178,38327,2,0,B|3:219|3:219|20:244|20:244|24:305,1,113.999996520996,2|0,1:2|0:0,0:0:0:0:
86,352,38673,1,0,0:0:0:0:
86,352,38788,2,0,P|128:336|161:336,1,56.9999982604981,2|0,1:2|0:0,0:0:0:0:
188,257,39019,2,0,L|116:244,1,56.9999982604981,0|0,0:0|0:0,0:0:0:0:
278,175,39250,6,0,L|426:159,1,113.999996520996,2|0,1:2|0:0,0:0:0:0:
444,237,39596,1,0,0:0:0:0:
443,237,39711,2,0,P|434:263|431:292,1,56.9999982604981,2|0,1:2|0:0,0:0:0:0:
483,154,39942,2,0,P|495:113|495:81,1,56.9999982604981,2|0,0:0|0:0,0:0:0:0:
376,13,40173,1,2,1:2:0:0:
342,7,40288,1,0,0:0:0:0:
308,10,40403,1,2,0:0:0:0:
275,20,40519,1,0,0:0:0:0:
246,38,40634,2,0,P|188:63|124:65,1,113.999996520996,2|0,1:2|0:0,0:0:0:0:
195,209,41096,6,0,P|251:214|303:237,1,113.999996520996,2|0,1:2|0:0,0:0:0:0:
375,293,41442,1,8,0:0:0:0:
375,293,41557,2,0,L|363:356,1,56.9999982604981,2|0,1:2|0:0,0:0:0:0:
275,371,41788,2,0,L|212:359,1,56.9999982604981,8|0,0:0|0:0,0:0:0:0:
108,312,42019,2,0,P|56:335|0:340,1,113.999996520996,2|0,1:2|0:0,0:0:0:0:
0,248,42365,1,0,0:0:0:0:
0,248,42481,2,0,P|35:232|66:230,1,56.9999982604981,10|0,1:2|0:0,0:0:0:0:
100,152,42711,2,0,P|58:144|24:131,1,56.9999982604981,8|0,0:0|0:0,0:0:0:0:
206,77,42942,6,0,B|243:59|243:59|364:86,1,113.999996520996,2|0,1:2|0:0,0:0:0:0:
403,97,43288,1,0,0:0:0:0:
403,96,43404,2,0,P|413:70|416:42,1,56.9999982604981,2|0,1:2|0:0,0:0:0:0:
339,162,43634,2,0,P|342:190|352:216,1,56.9999982604981,2|0,0:0|0:0,0:0:0:0:
321,332,43865,1,2,1:2:0:0:
292,313,43980,1,0,0:0:0:0:
260,301,44095,1,2,0:0:0:0:
226,295,44211,1,0,0:0:0:0:
192,296,44327,6,0,L|109:313,1,61.7499971733095,6|0,1:2|0:0,0:0:0:0:
21,181,44557,2,0,L|32:241,1,61.7499971733095,0|0,1:2|0:0,0:0:0:0:
164,169,44788,6,0,L|152:102,3,61.7499971733095,6|0|0|0,1:2|0:0|0:0|0:0,0:0:0:0:
265,133,45250,2,0,L|277:66,3,61.7499971733095,8|0|0|0,0:2|0:0|0:0|0:0,0:0:0:0:
402,40,45711,1,2,1:2:0:0:
426,67,45826,1,0,0:0:0:0:
444,100,45941,1,0,0:0:0:0:
452,135,46057,1,0,0:0:0:0:
452,172,46173,2,0,P|439:241|447:302,1,123.499994346619,8|0,0:2|0:0,0:0:0:0:
266,363,46634,6,0,L|187:357,3,61.7499971733095,2|0|0|0,1:2|0:0|0:0|0:0,0:0:0:0:
163,262,47096,2,0,L|101:266,3,61.7499971733095,8|0|0|0,0:2|0:0|0:0|0:0,0:0:0:0:
263,192,47557,1,2,1:2:0:0:
282,160,47672,1,0,0:0:0:0:
292,125,47787,1,0,0:0:0:0:
295,88,47903,1,0,0:0:0:0:
288,51,48019,2,0,L|425:39,1,123.499994346619,8|0,0:2|0:0,0:0:0:0:
171,105,48481,6,0,P|123:101|81:79,3,61.7499971733095,6|0|0|0,1:2|0:0|0:0|0:0,0:0:0:0:
69,195,48942,2,0,P|21:199|-21:221,3,61.7499971733095,0|0|10|0,1:2|0:0|0:0|0:0,0:0:0:0:
59,322,49404,1,2,1:2:0:0:
96,323,49519,1,0,0:0:0:0:
133,324,49634,1,8,0:0:0:0:
170,325,49750,1,0,0:0:0:0:
207,326,49865,1,10,0:2:0:0:
314,238,50096,1,10,0:0:0:0:
221,93,50327,6,0,P|208:122|207:152,3,61.7499971733095,2|0|2|8,1:2|0:2|0:0|0:0,0:0:0:0:
305,25,50788,2,0,P|342:13|398:20,3,61.7499971733095,2|0|10|0,1:2|0:0|0:0|0:0,0:0:0:0:
451,118,51250,1,2,1:2:0:0:
448,154,51365,1,8,0:0:0:0:
446,191,51480,1,2,0:0:0:0:
444,228,51596,1,0,0:0:0:0:
441,265,51711,6,0,L|352:268,1,66.4999979705811,6|0,1:2|0:0,0:0:0:0:
231,371,51942,2,0,L|320:373,1,66.4999979705811,2|0,1:2|0:0,0:0:0:0:
259,183,52173,6,0,P|209:189|182:204,3,61.7499971733095,6|0|0|0,1:2|0:0|0:0|0:0,0:0:0:0:
138,281,52634,2,0,P|88:275|61:260,3,61.7499971733095,8|0|0|0,0:2|0:0|0:0|0:0,0:0:0:0:
21,143,53096,1,2,1:2:0:0:
19,106,53211,1,0,0:0:0:0:
30,70,53326,1,0,0:0:0:0:
51,40,53442,1,0,0:0:0:0:
80,18,53557,2,0,L|220:33,1,123.499994346619,8|0,0:2|0:0,0:0:0:0:
353,161,54019,6,0,L|430:155,3,61.7499971733095,2|0|0|0,1:2|0:0|0:0|0:0,0:0:0:0:
387,258,54481,2,0,L|464:252,3,61.7499971733095,8|0|0|0,0:2|0:0|0:0|0:0,0:0:0:0:
281,340,54942,1,2,1:2:0:0:
244,348,55057,1,0,0:0:0:0:
208,346,55172,1,0,0:0:0:0:
173,334,55288,1,0,0:0:0:0:
142,313,55404,2,0,P|75:292|15:293,1,123.499994346619,8|0,0:2|0:0,0:0:0:0:
91,84,55865,6,0,L|101:166,3,61.7499971733095,6|0|0|0,1:2|0:0|0:0|0:0,0:0:0:0:
201,81,56327,2,0,L|208:19,3,61.7499971733095,8|0|10|0,1:2|0:0|0:0|0:0,0:0:0:0:
293,169,56788,1,2,1:2:0:0:
329,173,56903,1,0,0:0:0:0:
365,166,57018,1,0,0:0:0:0:
397,147,57134,1,0,0:0:0:0:
420,118,57249,1,10,0:2:0:0:
325,50,57481,1,8,0:0:0:0:
214,184,57711,6,0,P|207:220|206:270,3,61.7499971733095,6|0|0|0,1:2|0:0|0:0|0:0,0:0:0:0:
301,297,58173,2,0,L|391:284,3,61.7499971733095,8|0|8|0,0:2|0:0|0:0|0:0,0:0:0:0:
194,363,58634,1,4,1:2:0:0:
157,360,58749,1,0,0:0:0:0:
120,357,58864,1,0,0:0:0:0:
83,355,58980,1,0,0:0:0:0:
46,352,59096,6,0,L|36:264,1,66.4999979705811,8|0,1:2|0:0,0:0:0:0:
175,160,59327,2,0,L|167:226,1,66.4999979705811,8|0,0:0|0:0,0:0:0:0:
31,89,59557,6,0,P|69:52|162:58,1,113.999996520996,4|0,1:2|0:0,0:0:0:0:
216,66,59904,1,0,0:0:0:0:
216,66,60019,2,0,L|377:58,1,113.999996520996,8|0,0:2|0:0,0:0:0:0:
436,217,60481,1,0,1:2:0:0:
420,233,60596,2,0,L|306:227,1,113.999996520996
282,212,60942,2,0,L|287:271,1,56.9999982604981,8|0,0:2|0:0,0:0:0:0:
248,352,61173,1,0,0:0:0:0:
45,283,61404,6,0,B|36:227|36:227|74:139,1,113.999996520996,0|0,1:2|0:0,0:0:0:0:
103,94,61750,1,0,0:0:0:0:
103,94,61865,2,0,P|164:127|241:110,1,113.999996520996,8|0,0:0|0:0,0:0:0:0:
201,314,62327,1,0,1:2:0:0:
213,295,62442,2,0,P|274:262|351:279,1,113.999996520996,0|0,0:0|0:0,0:0:0:0:
340,280,62788,2,0,P|380:298|422:296,1,56.9999982604981,8|0,0:0|0:0,0:0:0:0:
482,279,63019,1,0,0:0:0:0:
416,54,63250,6,0,L|407:186,1,113.999996520996,8|0,0:2|0:0,0:0:0:0:
321,136,63596,1,8,0:0:0:0:
246,187,63711,2,0,P|188:218|112:199,1,113.999996520996,0|8,1:2|0:0,0:0:0:0:
48,370,64173,1,0,1:2:0:0:
66,356,64288,2,0,P|126:343|210:338,1,113.999996520996,8|0,0:0|0:0,0:0:0:0:
207,344,64634,2,0,P|240:352|282:352,1,56.9999982604981,8|0,0:0|0:0,0:0:0:0:
350,336,64865,1,8,0:0:0:0:
317,189,65096,6,0,L|237:199,3,56.9999982604981,8|0|0|8,0:2|0:0|0:0|0:0,0:0:0:0:
154,218,65557,2,0,L|97:210,3,56.9999982604981,0|0|8|0,1:2|0:0|0:0|0:0,0:0:0:0:
31,88,66019,1,0,1:2:0:0:
52,69,66134,1,8,0:0:0:0:
76,54,66249,1,0,0:0:0:0:
103,44,66365,1,0,0:0:0:0:
131,40,66481,6,0,L|212:49,1,61.7499971733095,8|0,0:0|0:0,0:0:0:0:
381,40,66711,2,0,L|300:49,1,61.7499971733095,8|0,0:0|0:0,0:0:0:0:
281,173,66942,6,0,P|350:173|418:126,1,113.999996520996,4|0,1:2|0:0,0:0:0:0:
482,172,67288,1,0,0:0:0:0:
482,172,67404,2,0,L|469:314,1,113.999996520996,8|0,0:0|0:0,0:0:0:0:
306,359,67865,1,0,1:2:0:0:
283,362,67981,2,0,B|238:358|238:358|215:367|215:367|153:361,1,113.999996520996
150,344,68327,2,0,L|153:273,1,56.9999982604981,8|0,0:0|0:0,0:0:0:0:
92,218,68557,1,0,0:0:0:0:
171,50,68788,6,0,P|232:74|297:56,1,113.999996520996,0|0,1:2|0:0,0:0:0:0:
366,39,69134,1,0,0:0:0:0:
366,39,69250,2,0,L|520:33,1,113.999996520996,8|0,0:0|0:0,0:0:0:0:
321,179,69711,1,0,1:2:0:0:
339,193,69827,2,0,L|493:187,1,113.999996520996,0|0,0:0|0:0,0:0:0:0:
476,172,70173,2,0,P|466:213|467:251,1,56.9999982604981,8|0,0:0|0:0,0:0:0:0:
496,313,70404,1,0,0:0:0:0:
294,343,70634,6,0,B|254:328|254:328|162:351,1,113.999996520996,8|0,0:0|0:0,0:0:0:0:
93,361,70981,1,8,0:0:0:0:
125,276,71096,2,0,P|142:206|111:121,1,113.999996520996,0|8,1:2|0:0,0:0:0:0:
311,68,71557,1,0,1:2:0:0:
294,83,71673,2,0,L|317:238,1,113.999996520996,8|0,0:0|0:0,0:0:0:0:
302,223,72019,2,0,P|337:207|381:210,1,56.9999982604981,8|0,0:0|0:0,0:0:0:0:
446,211,72250,1,8,0:0:0:0:
468,366,72481,6,0,L|401:358,3,56.9999982604981,8|0|0|8,0:0|0:0|0:0|0:0,0:0:0:0:
307,332,72942,2,0,P|268:349|235:352,3,56.9999982604981,0|0|8|0,1:2|0:0|0:0|0:0,0:0:0:0:
122,294,73404,1,0,1:2:0:0:
116,260,73519,1,8,0:0:0:0:
120,226,73634,1,0,0:0:0:0:
132,194,73750,1,0,0:0:0:0:
153,167,73865,6,0,P|184:142|224:122,1,61.7499971733095,8|0,0:0|0:0,0:0:0:0:
349,234,74096,2,0,P|311:220|275:197,1,61.7499971733095,8|0,0:0|0:0,0:0:0:0:
309,31,74327,6,0,P|315:70|315:112,3,56.9999982604981,4|0|0|0,1:2|0:0|0:0|0:0,0:0:0:0:
426,74,74788,2,0,P|427:45|433:17,3,56.9999982604981,8|0|0|0,0:0|0:0|0:0|0:0,0:0:0:0:
489,187,75250,1,0,1:2:0:0:
487,221,75365,1,0,0:0:0:0:
485,255,75480,1,0,0:0:0:0:
483,289,75596,1,0,0:0:0:0:
482,323,75711,2,0,B|424:313|424:313|355:350,1,113.999996520996,8|0,0:0|0:0,0:0:0:0:
240,194,76173,6,0,L|228:274,3,56.9999982604981,0|0|0|0,1:2|0:0|0:0|0:0,0:0:0:0:
133,295,76634,2,0,L|141:351,3,56.9999982604981,8|0|0|0,0:0|0:0|0:0|0:0,0:0:0:0:
43,193,77096,1,0,1:2:0:0:
39,159,77211,1,0,0:0:0:0:
45,125,77326,1,0,0:0:0:0:
62,95,77442,1,0,0:0:0:0:
86,71,77557,2,0,L|215:63,1,113.999996520996,8|0,0:0|0:0,0:0:0:0:
372,143,78019,6,0,L|311:137,3,56.9999982604981,4|0|0|0,1:2|0:0|0:0|0:0,0:0:0:0:
435,236,78481,2,0,L|496:230,3,56.9999982604981,0|0|8|0,1:2|0:0|0:0|0:0,0:0:0:0:
333,311,78942,1,0,1:2:0:0:
298,308,79057,1,8,0:0:0:0:
264,305,79172,1,0,0:0:0:0:
230,302,79288,1,0,0:0:0:0:
196,300,79403,1,8,0:0:0:0:
51,200,79634,1,8,0:0:0:0:
208,123,79865,6,0,P|217:151|217:179,3,56.9999982604981,8|0|0|8,0:2|0:0|0:0|0:0,0:0:0:0:
153,32,80327,2,0,L|76:41,3,56.9999982604981,0|0|8|0,1:2|0:0|0:0|0:0,0:0:0:0:
287,61,80788,1,0,1:2:0:0:
314,80,80903,1,8,0:0:0:0:
346,93,81018,1,0,0:0:0:0:
380,97,81134,1,0,0:0:0:0:
414,93,81250,6,0,L|419:30,1,61.7499971733095,8|0,0:2|0:0,0:0:0:0:
330,188,81481,2,0,L|334:249,1,61.7499971733095,8|0,0:0|0:0,0:0:0:0:
467,313,81711,6,0,L|469:256,3,56.9999982604981,4|0|0|0,1:2|0:0|0:0|0:0,0:0:0:0:
372,366,82173,2,0,L|315:363,3,56.9999982604981,8|0|0|0,0:0|0:0|0:0|0:0,0:0:0:0:
205,301,82634,1,0,1:2:0:0:
173,288,82749,1,0,0:0:0:0:
139,285,82864,1,0,0:0:0:0:
106,291,82980,1,0,0:0:0:0:
75,307,83096,2,0,P|101:212|77:160,1,113.999996520996,8|0,0:0|0:0,0:0:0:0:
46,49,83557,6,0,P|81:41|118:41,3,56.9999982604981,0|0|0|0,1:2|0:0|0:0|0:0,0:0:0:0:
196,95,84019,2,0,P|231:102|268:103,3,56.9999982604981,8|0|0|0,0:0|0:0|0:0|0:0,0:0:0:0:
367,35,84481,1,0,1:2:0:0:
381,65,84596,1,0,0:0:0:0:
388,99,84711,1,0,0:0:0:0:
386,133,84827,1,0,0:0:0:0:
376,165,84942,2,0,P|362:224|366:294,1,113.999996520996,8|0,0:0|0:0,0:0:0:0:
146,255,85404,6,0,L|202:245,3,56.9999982604981,4|0|0|0,1:2|0:0|0:0|0:0,0:0:0:0:
39,219,85865,2,0,P|35:265|42:300,3,56.9999982604981,8|0|8|0,0:0|0:0|0:0|0:0,0:0:0:0:
150,149,86327,1,4,1:2:0:0:
165,118,86442,1,8,0:0:0:0:
171,85,86557,1,0,0:0:0:0:
168,51,86673,1,0,0:0:0:0:
156,19,86788,1,8,0:0:0:0:
48,81,87019,1,8,0:0:0:0:
283,137,87250,6,0,L|361:127,3,56.9999982604981,4|0|0|8,0:0|0:0|0:0|0:0,0:0:0:0:
437,77,87711,2,0,P|469:79|493:84,3,56.9999982604981,0|0|8|0,0:0|0:0|0:0|0:0,0:0:0:0:
420,205,88173,1,0,0:0:0:0:
436,234,88288,1,8,0:0:0:0:
445,267,88403,1,0,0:0:0:0:
444,301,88519,1,0,0:0:0:0:
435,334,88634,6,0,B|409:350|409:350|346:347,1,61.7499971733095,8|0,0:0|0:0,0:0:0:0:
189,203,88865,1,2,1:2:0:0:
220,199,88981,1,0,1:2:0:0:
251,195,89096,6,0,P|267:267|148:311,1,199.499993911743,6|0,0:2|0:0,0:0:0:0:
194,104,90019,2,0,B|262:97|262:97|321:122|321:122|387:114,1,199.499993911743,2|0,0:0|0:0,0:0:0:0:
479,267,90942,2,0,B|488:322|457:361|457:361|398:354|374:311,1,199.499993911743,2|0,0:0|0:0,0:0:0:0:
219,232,91865,2,0,B|173:224|139:245|139:245|111:236|111:236|78:260|28:254,1,199.499993911743,2|0,0:0|0:0,0:0:0:0:
113,51,92788,6,0,L|327:69,1,199.499993911743,2|2,0:0|0:0,0:0:0:0:
465,243,93711,2,0,P|409:251|328:201,1,132.999995941162,2|2,0:0|0:0,0:0:0:0:
419,146,94404,1,2,0:0:0:0:
297,292,94634,2,0,P|291:234|263:145,1,132.999995941162,2|2,0:0|0:0,0:0:0:0:
198,85,95327,1,2,0:0:0:0:
124,162,95557,2,0,L|45:155,1,66.4999979705811,2|2,0:0|0:0,0:0:0:0:
188,248,96019,1,2,0:0:0:0:
119,330,96250,6,0,L|46:324,1,52.2500015945435,2|0,1:2|0:0,0:0:0:0:
236,367,96481,6,0,P|315:369|382:298,1,170.999994781494,6|0,1:2|0:0,0:0:0:0:
391,283,96942,2,0,L|374:167,1,113.999996520996,0|0,1:2|0:0,0:0:0:0:
391,80,97288,1,2,0:0:0:0:
391,79,97404,2,0,P|417:70|445:66,1,56.9999982604981,0|0,1:2|0:0,0:0:0:0:
305,110,97634,2,0,P|276:106|250:96,1,56.9999982604981,0|0,0:0|0:0,0:0:0:0:
130,35,97865,2,0,P|152:87|148:151,1,113.999996520996,0|0,1:2|0:0,0:0:0:0:
79,202,98211,1,2,0:0:0:0:
79,202,98327,6,0,P|55:273|106:356,1,170.999994781494,0|0,1:2|0:0,0:0:0:0:
127,361,98788,2,0,L|260:346,1,113.999996520996,0|0,1:2|0:0,0:0:0:0:
323,309,99134,1,2,0:0:0:0:
323,309,99250,2,0,L|327:238,1,56.9999982604981,0|0,1:2|0:0,0:0:0:0:
232,176,99481,2,0,L|236:233,1,56.9999982604981,0|0,0:0|0:0,0:0:0:0:
322,109,99711,2,0,P|264:69|198:68,1,113.999996520996,0|0,1:2|0:0,0:0:0:0:
131,52,100057,1,0,0:0:0:0:
131,52,100173,6,0,P|196:50|309:24,1,170.999994781494,6|0,1:2|0:0,0:0:0:0:
327,19,100634,2,0,P|379:7|447:7,1,113.999996520996,0|2,1:0|0:0,0:0:0:0:
503,73,100981,1,0,0:0:0:0:
503,73,101096,2,0,L|505:147,1,56.9999982604981,2|0,1:2|0:0,0:0:0:0:
356,143,101327,2,0,L|413:142,1,56.9999982604981,0|0,0:0|0:0,0:0:0:0:
464,260,101557,2,0,L|329:264,1,113.999996520996,2|0,1:2|0:0,0:0:0:0:
276,319,101904,1,0,0:0:0:0:
276,319,102019,6,0,P|205:319|112:257,1,170.999994781494,6|0,1:2|0:0,0:0:0:0:
92,266,102481,2,0,P|120:215|130:133,1,113.999996520996,0|0,0:0|0:0,0:0:0:0:
86,80,102827,1,0,0:0:0:0:
86,80,102942,2,0,L|151:72,1,56.9999982604981,4|0,0:0|0:0,0:0:0:0:
215,128,103173,2,0,L|271:134,1,56.9999982604981,0|0,0:0|0:0,0:0:0:0:
359,62,103404,6,0,L|352:25,2,28.4999991302491,2|2|2,1:2|0:0|0:0,0:0:0:0:
459,119,103634,2,0,L|471:83,2,28.4999991302491,2|2|2,1:2|0:0|1:2,0:0:0:0:
376,197,103865,6,0,P|364:232|361:281,3,61.7499971733095,6|0|0|0,1:2|0:0|0:0|0:0,0:0:0:0:
266,312,104327,2,0,P|278:347|281:396,3,61.7499971733095,8|0|0|0,0:2|0:0|0:0|0:0,0:0:0:0:
158,247,104788,1,2,1:2:0:0:
121,249,104903,1,0,0:0:0:0:
84,251,105018,1,0,0:0:0:0:
47,254,105134,1,0,0:0:0:0:
10,256,105250,2,0,P|40:186|32:124,1,123.499994346619,8|0,0:2|0:0,0:0:0:0:
192,41,105711,6,0,L|205:120,3,61.7499971733095,2|0|0|0,1:2|0:0|0:0|0:0,0:0:0:0:
309,136,106173,2,0,L|319:75,3,61.7499971733095,8|0|0|0,0:2|0:0|0:0|0:0,0:0:0:0:
445,32,106634,1,2,1:2:0:0:
464,63,106749,1,0,0:0:0:0:
476,98,106864,1,0,0:0:0:0:
479,135,106980,1,0,0:0:0:0:
474,171,107096,2,0,B|453:210|453:210|467:319,1,123.499994346619,8|0,0:2|0:0,0:0:0:0:
275,262,107557,6,0,P|304:252|335:251,3,61.7499971733095,6|0|0|0,1:2|0:0|0:0|0:0,0:0:0:0:
185,325,108019,2,0,P|154:324|124:314,3,61.7499971733095,0|0|10|0,1:2|0:0|0:0|0:0,0:0:0:0:
190,187,108481,1,2,1:2:0:0:
155,175,108596,1,0,0:0:0:0:
118,172,108711,1,8,0:0:0:0:
81,178,108827,1,0,0:0:0:0:
48,193,108942,1,10,0:0:0:0:
98,72,109173,1,10,0:0:0:0:
124,288,109404,6,0,L|112:348,3,61.7499971733095,2|0|2|8,1:2|0:0|0:0|0:0,0:0:0:0:
236,286,109865,2,0,L|223:357,3,61.7499971733095,2|0|10|0,1:2|0:0|0:0|0:0,0:0:0:0:
354,318,110327,1,2,1:2:0:0:
389,328,110442,1,8,0:0:0:0:
426,327,110557,1,2,0:0:0:0:
460,314,110673,1,0,0:0:0:0:
488,290,110788,6,0,B|505:259|505:259|501:213,1,66.4999979705811,6|0,1:2|0:0,0:0:0:0:
358,131,111019,2,0,B|341:162|341:162|345:208,1,66.4999979705811,2|0,0:0|0:0,0:0:0:0:
481,62,111250,6,0,L|476:0,3,61.7499971733095,6|0|0|0,1:2|0:0|0:0|0:0,0:0:0:0:
372,35,111711,2,0,L|310:40,3,61.7499971733095,8|0|0|0,0:0|0:0|0:0|0:0,0:0:0:0:
211,116,112173,1,2,1:2:0:0:
174,113,112288,1,0,0:0:0:0:
137,110,112403,1,0,0:0:0:0:
100,107,112519,1,0,0:0:0:0:
63,104,112634,2,0,P|59:182|119:253,1,123.499994346619,8|0,0:0|0:0,0:0:0:0:
275,307,113096,6,0,P|291:262|292:219,3,61.7499971733095,2|0|0|0,1:2|0:0|0:0|0:0,0:0:0:0:
393,201,113557,2,0,L|385:132,3,61.7499971733095,8|0|0|0,0:0|0:0|0:0|0:0,0:0:0:0:
389,23,114019,1,2,1:2:0:0:
358,44,114134,1,0,0:0:0:0:
325,59,114249,1,0,0:0:0:0:
289,68,114365,1,0,0:0:0:0:
252,69,114481,2,0,P|185:53|118:56,1,123.499994346619,8|0,0:0|0:0,0:0:0:0:
178,225,114942,6,0,L|253:215,3,61.7499971733095,6|0|0|0,1:2|0:0|0:0|0:0,0:0:0:0:
314,299,115404,2,0,L|375:307,3,61.7499971733095,8|0|10|0,1:2|0:0|0:0|0:0,0:0:0:0:
471,248,115865,1,6,1:2:0:0:
467,211,115980,1,0,0:0:0:0:
463,174,116095,1,0,0:0:0:0:
459,137,116211,1,0,0:0:0:0:
455,100,116326,1,10,0:0:0:0:
317,19,116557,1,8,0:0:0:0:
207,143,116788,6,0,L|268:147,3,61.7499971733095,6|0|0|0,1:2|0:0|0:0|0:0,0:0:0:0:
111,200,117250,2,0,P|77:211|31:212,3,61.7499971733095,8|0|8|0,0:0|0:0|0:0|0:0,0:0:0:0:
192,289,117711,1,4,1:2:0:0:
228,281,117826,1,0,0:0:0:0:
265,283,117941,1,0,0:0:0:0:
300,294,118057,1,0,0:0:0:0:
332,313,118173,6,0,L|329:351,2,30.8749985866547,2|2|2,1:2|0:2|0:2,0:0:0:0:
432,345,118404,2,0,L|440:377,2,30.8749985866547,2|2|2,1:2|0:2|1:2,0:0:0:0:
500,268,118634,6,0,L|486:105,1,132.999995941162,6|0,1:2|0:0,0:0:0:0:
409,62,118981,1,0,0:0:0:0:
409,62,119096,2,0,P|355:74|316:97,1,66.4999979705811,2|0,1:2|0:0,0:0:0:0:
243,112,119327,2,0,P|189:100|150:77,1,66.4999979705811,0|0,0:0|0:0,0:0:0:0:
50,61,119557,2,0,P|86:142|59:216,1,132.999995941162,2|0,1:2|0:0,0:0:0:0:
26,277,119904,1,0,0:0:0:0:
26,277,120019,2,0,L|111:273,1,66.4999979705811,2|0,1:2|0:0,0:0:0:0:
193,309,120250,2,0,L|197:394,1,66.4999979705811,0|0,0:2|0:0,0:0:0:0:
289,259,120481,6,0,L|467:250,1,132.999995941162,2|0,1:2|0:0,0:0:0:0:
485,166,120827,1,0,0:0:0:0:
485,166,120942,2,0,P|429:150|398:152,1,66.4999979705811,2|0,1:2|0:0,0:0:0:0:
296,77,121173,2,0,P|329:73|360:61,1,66.4999979705811,2|0,0:0|0:0,0:0:0:0:
185,38,121404,1,2,1:2:0:0:
147,25,121519,1,0,0:0:0:0:
107,26,121634,1,2,0:0:0:0:
70,40,121750,1,0,0:0:0:0:
39,65,121865,2,0,L|28:209,1,132.999995941162,2|0,1:2|0:0,0:0:0:0:
190,343,122327,6,0,L|179:210,1,132.999995941162,2|0,1:2|0:0,0:0:0:0:
257,136,122673,1,8,0:0:0:0:
257,136,122788,2,0,P|299:168|353:173,1,66.4999979705811,2|0,1:2|0:0,0:0:0:0:
340,68,123019,2,0,P|388:47|420:3,1,66.4999979705811,8|0,0:0|0:0,0:0:0:0:
479,148,123250,2,0,P|466:215|470:314,1,132.999995941162,2|0,1:2|0:0,0:0:0:0:
395,360,123596,1,8,0:0:0:0:
395,360,123711,2,0,P|346:341|304:338,1,66.4999979705811,2|0,1:2|0:0,0:0:0:0:
224,328,123942,2,0,P|163:332|127:348,1,66.4999979705811,8|0,0:0|0:0,0:0:0:0:
36,207,124173,6,0,P|113:235|180:221,1,132.999995941162,2|0,1:2|0:0,0:0:0:0:
228,144,124519,1,0,0:0:0:0:
228,144,124634,2,0,L|216:78,1,66.4999979705811,2|0,1:2|0:0,0:0:0:0:
333,164,124865,2,0,L|321:229,1,66.4999979705811,2|0,0:0|0:0,0:0:0:0:
432,326,125096,1,2,1:2:0:0:
454,293,125211,1,0,0:0:0:0:
467,255,125326,1,2,0:0:0:0:
470,215,125442,1,0,0:0:0:0:
462,176,125557,2,0,B|441:112|441:112|466:37,1,132.999995941162,6|0,1:2|0:0,0:0:0:0:
277,74,126019,6,0,P|205:96|136:96,1,132.999995941162,6|0,1:2|0:0,0:0:0:0:
44,67,126365,1,0,0:0:0:0:
44,67,126481,2,0,L|56:166,1,66.4999979705811,2|0,1:2|0:0,0:0:0:0:
131,203,126711,2,0,L|119:302,1,66.4999979705811,0|0,0:0|0:0,0:0:0:0:
256,231,126942,2,0,P|269:301|329:349,1,132.999995941162,2|0,1:2|0:0,0:0:0:0:
407,293,127288,1,0,0:0:0:0:
407,293,127404,2,0,P|386:267|361:246,1,66.4999979705811,2|0,1:2|0:0,0:0:0:0:
417,156,127634,2,0,P|473:167|502:167,1,66.4999979705811,0|0,1:2|0:0,0:0:0:0:
347,51,127865,6,0,L|163:64,1,132.999995941162,2|0,1:2|0:0,0:0:0:0:
121,113,128211,1,0,0:0:0:0:
121,113,128327,2,0,P|109:81|107:48,1,66.4999979705811,2|0,1:2|0:0,0:0:0:0:
212,166,128557,2,0,P|209:199|198:230,1,66.4999979705811,2|0,0:0|0:0,0:0:0:0:
117,336,128788,1,2,1:2:0:0:
153,320,128903,1,0,0:0:0:0:
193,317,129018,1,2,0:0:0:0:
231,326,129134,1,0,0:0:0:0:
265,347,129250,2,0,B|314:343|314:343|349:356|349:356|395:352,1,132.999995941162,6|0,1:2|0:0,0:0:0:0:
342,161,129711,6,0,B|293:157|293:157|258:170|258:170|212:166,1,132.999995941162,6|0,1:2|0:0,0:0:0:0:
122,225,130057,1,0,0:0:0:0:
122,225,130173,2,0,P|79:238|43:235,1,66.4999979705811,2|0,1:2|0:0,0:0:0:0:
7,143,130404,2,0,P|50:130|86:133,1,66.4999979705811,0|0,0:0|0:0,0:0:0:0:
161,37,130634,2,0,P|231:55|354:55,1,132.999995941162,2|0,1:2|0:0,0:0:0:0:
393,25,130981,1,0,0:0:0:0:
393,25,131096,2,0,L|382:107,1,66.4999979705811,2|0,1:2|0:0,0:0:0:0:
417,192,131327,2,0,P|476:186|516:162,1,66.4999979705811,0|0,0:0|0:0,0:0:0:0:
294,199,131557,6,0,P|296:278|356:360,1,132.999995941162,6|0,1:2|0:0,0:0:0:0:
216,357,131904,1,0,0:0:0:0:
216,357,132019,2,0,L|129:346,1,66.4999979705811,2|0,1:2|0:0,0:0:0:0:
27,265,132250,2,0,L|93:257,1,66.4999979705811,2|0,0:0|0:0,0:0:0:0:
193,162,132481,1,6,1:2:0:0:
161,137,132596,1,0,0:0:0:0:
125,121,132711,1,2,0:0:0:0:
85,117,132827,1,0,1:2:0:0:
46,124,132942,2,0,P|117:87|151:11,1,132.999995941162,6|0,1:2|0:0,0:0:0:0:
246,12,133288,1,0,0:0:0:0:
313,94,133404,6,0,L|297:263,1,142.500005435944,6|0,1:2|0:0,0:0:0:0:
365,329,133750,1,0,0:0:0:0:
364,328,133865,2,0,P|397:312|432:307,1,71.2500027179719,2|0,1:2|0:0,0:0:0:0:
251,341,134096,2,0,P|218:334|180:316,1,71.2500027179719
0,234,134327,2,0,P|59:198|130:196,1,142.500005435944,2|0,1:2|0:0,0:0:0:0:
240,228,134673,1,0,0:0:0:0:
240,228,134788,2,0,B|231:195|231:195|239:141,1,71.2500027179719,2|0,1:2|0:0,0:0:0:0:
342,51,135019,2,0,B|351:84|351:84|345:121,1,71.2500027179719
383,239,135250,6,0,B|423:220|423:220|531:235,1,142.500005435944,2|0,1:2|0:0,0:0:0:0:
509,119,135596,1,0,0:0:0:0:
509,119,135711,2,0,L|419:108,1,71.2500027179719,2|0,1:2|0:0,0:0:0:0:
342,51,135942,2,0,L|258:41,1,71.2500027179719
109,97,136173,2,0,B|96:166|138:162|121:236,1,142.500005435944,2|0,1:2|0:0,0:0:0:0:
10,264,136519,1,0,0:0:0:0:
10,264,136634,2,0,P|5:228|13:194,1,71.2500027179719,2|0,1:2|0:0,0:0:0:0:
91,345,136865,2,0,P|66:367|20:377,1,71.2500027179719,0|0,1:2|0:0,0:0:0:0:
213,293,137096,6,0,P|303:270|394:272,1,142.500005435944,6|0,1:2|0:0,0:0:0:0:
465,288,137442,1,0,0:0:0:0:
464,287,137557,2,0,L|457:358,1,71.2500027179719,2|0,1:2|0:0,0:0:0:0:
426,180,137788,2,0,L|435:109,1,71.2500027179719
296,27,138019,2,0,P|220:32|171:95,1,142.500005435944,2|0,1:2|0:0,0:0:0:0:
116,175,138365,1,0,0:0:0:0:
116,175,138481,2,0,P|60:171|19:155,1,71.2500027179719,2|0,1:2|0:0,0:0:0:0:
203,251,138711,2,0,P|171:297|135:325,1,71.2500027179719,0|0,1:2|0:0,0:0:0:0:
315,229,138942,6,0,P|339:281|357:363,1,142.500005435944,6|0,1:2|0:0,0:0:0:0:
446,292,139288,1,0,0:0:0:0:
446,292,139404,2,0,P|472:261|507:245,1,71.2500027179719,2|0,1:2|0:0,0:0:0:0:
465,138,139634,2,0,L|376:123,1,71.2500027179719,2|0,0:0|0:0,0:0:0:0:
279,21,139865,1,6,1:2:0:0:
318,17,139980,1,0,0:0:0:0:
358,14,140095,1,2,1:2:0:0:
398,11,140211,1,0,0:0:0:0:
438,8,140326,5,6,1:2:0:0:
