osu file format v14

[General]
AudioFilename: audio.mp3
AudioLeadIn: 0
PreviewTime: 118624
Countdown: 0
SampleSet: Soft
StackLeniency: 0.3
Mode: 0
LetterboxInBreaks: 0
WidescreenStoryboard: 0

[Editor]
Bookmarks: 28624
DistanceSpacing: 1.2
BeatDivisor: 4
GridSize: 4
TimelineZoom: 1.8

[Metadata]
Title:popotnik ~ The Traveller of Ljubljana
TitleUnicode:popotnik ~ 류블랴나의 여행자
Artist:LhoU
ArtistUnicode:LhoU
Creator:Niva
Version:Normal
Source:VOEZ
Tags:traveler lhoustudio RyoKazuka
BeatmapID:1621195
BeatmapSetID:712388

[Difficulty]
HPDrainRate:4
CircleSize:4
OverallDifficulty:4
ApproachRate:5
SliderMultiplier:0.98
SliderTickRate:1

[Events]
//Background and Video events
0,0,"bg.jpg",0,0
//Break Periods
//Storyboard Layer 0 (Background)
//Storyboard Layer 1 (Fail)
//Storyboard Layer 2 (Pass)
//Storyboard Layer 3 (Foreground)
//Storyboard Sound Samples

[TimingPoints]
481,461.538461538462,4,2,0,60,1,0
7865,-100,4,2,0,70,0,0
28173,-100,4,2,0,60,0,0
30019,-100,4,2,0,70,0,0
44788,-100,4,2,0,75,0,1
59557,-100,4,2,0,70,0,0
87250,-100,4,2,0,60,0,0
88634,-100,4,2,0,70,0,0
89096,-100,4,2,0,60,0,0
96481,-100,4,2,0,70,0,0
103865,-100,4,2,0,75,0,1
118057,-100,4,2,0,75,0,0
118173,-100,4,2,0,80,0,1
118288,-100,4,2,0,75,0,0
118634,-100,4,2,0,75,0,1
140327,-100,4,2,0,75,0,0

[Colours]
Combo1 : 255,253,174
Combo2 : 151,255,255
Combo3 : 43,253,190

[HitObjects]
93,113,481,6,0,P|96:76|98:40,2,73.5,0|2|0,0:0|0:0|0:0,0:0:0:0:
5,266,1865,1,2,0:0:0:0:
86,351,2327,2,0,P|118:344|173:337,2,73.5,0|2|0,0:0|0:0|0:0,0:0:0:0:
164,193,3711,1,2,0:0:0:0:
221,90,4173,6,0,P|206:57|193:23,2,73.5,0|2|0,0:0|0:0|0:0,0:0:0:0:
278,257,5558,1,2,0:0:0:0:
213,354,6019,2,0,P|165:340|117:342,1,98,2|2,0:0|0:0,0:0:0:0:
40,253,6942,2,0,P|28:207|43:158,1,98,0|2,0:0|0:0,0:0:0:0:
154,193,7865,6,0,P|202:189|256:182,1,98,4|2,1:2|1:2,0:0:0:0:
362,216,8788,1,0,1:2:0:0:
393,102,9250,1,2,1:2:0:0:
279,72,9711,6,0,P|239:93|183:92,1,98,0|2,1:2|1:2,0:0:0:0:
152,205,10634,1,0,1:2:0:0:
113,316,11096,1,2,1:2:0:0:
229,298,11558,2,0,B|252:303|275:312|275:312|296:303|323:299,1,98,4|2,1:2|1:2,0:0:0:0:
437,316,12481,1,0,1:2:0:0:
485,208,12942,1,2,1:2:0:0:
398,127,13404,6,0,P|389:77|382:31,1,98,6|2,1:2|0:0,0:0:0:0:
283,95,14327,2,0,B|264:96|247:100|247:100|223:93|223:93|204:96|187:98,1,98,0|2,0:0|1:2,0:0:0:0:
102,180,15250,6,0,P|85:223|102:270,1,98,6|8,1:2|0:0,0:0:0:0:
72,383,16173,1,0,1:2:0:0:
186,355,16634,1,8,0:0:0:0:
302,373,17096,2,0,P|350:368|403:364,1,98,0|8,1:2|0:0,0:0:0:0:
478,277,18019,1,0,1:2:0:0:
413,178,18481,1,10,0:0:0:0:
302,217,18942,6,0,P|253:224|206:204,1,98,2|0,1:2|1:2,0:0:0:0:
152,103,19865,1,0,1:2:0:0:
221,7,20327,1,8,0:0:0:0:
336,29,20788,2,0,P|383:25|437:21,1,98,10|2,1:2|1:2,0:0:0:0:
501,117,21711,2,0,P|512:167|481:210,1,98,2|10,1:2|0:0,0:0:0:0:
504,321,22634,6,0,P|460:301|403:304,1,98,6|8,1:2|0:0,0:0:0:0:
296,272,23558,1,0,1:2:0:0:
181,303,24019,1,8,0:0:0:0:
67,272,24481,2,0,B|57:249|49:227|49:227|57:201|65:181,1,98,0|8,1:2|0:0,0:0:0:0:
42,64,25404,1,0,1:2:0:0:
153,100,25865,1,10,0:0:0:0:
257,45,26327,6,0,P|306:46|348:22,1,98,2|0,1:2|1:2,0:0:0:0:
385,133,27250,1,0,1:2:0:0:
465,47,27711,1,8,0:0:0:0:
505,157,28173,2,0,P|500:207|497:266,1,98,6|2,1:2|0:0,0:0:0:0:
512,371,29096,2,0,P|470:348|410:346,1,98,2|2,0:0|1:2,0:0:0:0:
332,266,30019,6,0,P|280:269|229:272,1,98,6|0,1:2|1:2,0:0:0:0:
141,344,30942,2,0,P|92:347|46:319,1,98,2|0,1:2|1:2,0:0:0:0:
5,215,31865,2,0,B|10:166|13:110,1,98,2|2,1:2|1:2,0:0:0:0:
115,60,32788,1,2,1:2:0:0:
156,101,33019,1,0,0:0:0:0:
210,123,33250,1,2,1:2:0:0:
319,81,33711,6,0,B|341:75|367:81|367:81|390:86|416:80,1,98,2|0,1:2|1:2,0:0:0:0:
494,167,34634,2,0,P|494:220|463:253,1,98,2|0,1:2|1:2,0:0:0:0:
364,313,35558,2,0,P|316:301|261:292,1,98,2|2,1:2|1:2,0:0:0:0:
190,204,36481,1,2,1:2:0:0:
229,161,36711,1,0,0:0:0:0:
245,104,36942,1,6,1:2:0:0:
352,150,37404,6,0,P|400:157|445:136,1,98,6|0,1:2|1:2,0:0:0:0:
509,234,38327,2,0,P|504:284|502:339,1,98,2|0,1:2|1:2,0:0:0:0:
395,378,39250,2,0,B|362:376|362:376|334:384|334:384|299:380,1,98,2|2,1:2|1:2,0:0:0:0:
185,346,40173,1,2,1:2:0:0:
127,356,40404,1,0,0:0:0:0:
69,367,40634,1,2,1:2:0:0:
106,255,41096,6,0,P|121:210|107:163,1,98,2|0,1:2|1:2,0:0:0:0:
69,51,42019,2,0,B|100:51|100:51|133:60|133:60|169:60,1,98,2|0,1:2|1:2,0:0:0:0:
273,107,42942,2,0,P|317:112|366:75,1,98,2|2,1:2|1:2,0:0:0:0:
457,150,43865,1,2,1:2:0:0:
443,207,44096,1,0,0:0:0:0:
429,264,44327,1,6,1:2:0:0:
468,374,44788,6,0,P|421:361|369:366,1,98,6|8,1:2|0:2,0:0:0:0:
288,282,45711,2,0,P|237:287|178:292,1,98,2|8,1:2|0:2,0:0:0:0:
79,252,46634,2,0,P|51:211|47:149,1,98,2|8,1:2|0:2,0:0:0:0:
94,57,47558,2,0,P|141:61|194:64,1,98,2|8,1:2|0:2,0:0:0:0:
290,128,48481,6,0,P|363:140|426:106,1,147,6|2,1:2|0:0,0:0:0:0:
476,78,49404,2,0,P|470:129|473:195,1,98,2|10,1:2|0:2,0:0:0:0:
480,233,50096,1,0,0:0:0:0:
489,291,50327,1,2,1:2:0:0:
388,351,50788,1,2,1:2:0:0:
302,270,51250,1,2,1:2:0:0:
354,164,51711,1,6,1:2:0:0:
419,261,52173,6,0,P|414:305|410:359,1,98,6|8,1:2|0:2,0:0:0:0:
294,379,53096,2,0,B|257:375|257:375|230:381|230:381|192:377,1,98,2|8,1:2|0:2,0:0:0:0:
94,319,54019,2,0,P|69:282|74:225,1,98,2|8,1:2|0:2,0:0:0:0:
138,132,54942,2,0,B|144:108|152:84|152:84|141:57|134:35,1,98,2|8,1:2|0:2,0:0:0:0:
243,86,55865,6,0,P|308:84|403:77,1,147,6|2,1:2|0:0,0:0:0:0:
447,68,56788,2,0,P|426:114|409:167,1,98,2|10,1:2|0:2,0:0:0:0:
373,270,57711,1,6,1:2:0:0:
296,180,58173,1,8,0:2:0:0:
411,159,58634,1,4,1:2:0:0:
373,270,59096,1,8,1:2:0:0:
296,180,59558,6,0,P|245:177|194:173,1,98,4|8,1:2|0:2,0:0:0:0:
109,250,60481,1,0,1:2:0:0:
150,359,60942,1,8,0:2:0:0:
265,336,61404,2,0,P|310:333|360:353,1,98,0|8,1:2|0:0,0:0:0:0:
446,274,62327,1,0,1:2:0:0:
394,168,62788,1,8,0:0:0:0:
278,189,63250,6,0,P|227:184|164:176,1,98,8|0,0:2|1:2,0:0:0:0:
63,165,64173,1,0,1:2:0:0:
112,271,64634,1,8,0:0:0:0:
180,178,65096,2,0,B|174:143|174:143|169:113|197:88,1,98,8|0,0:2|1:2,0:0:0:0:
314,88,66019,2,0,B|342:113|337:143|337:143|332:178,1,98,0|8,1:2|0:0,0:0:0:0:
400,271,66942,6,0,P|449:266|499:263,1,98,4|8,1:2|0:0,0:0:0:0:
504,145,67865,1,0,1:2:0:0:
512,37,68327,1,8,0:0:0:0:
402,78,68788,2,0,P|355:86|308:69,1,98,0|8,1:2|0:0,0:0:0:0:
196,106,69711,1,0,1:2:0:0:
83,72,70173,1,8,0:0:0:0:
106,187,70634,6,0,P|115:233|128:296,1,98,8|0,0:0|1:2,0:0:0:0:
209,365,71558,1,0,1:2:0:0:
308,302,72019,1,8,0:0:0:0:
397,378,72481,2,0,P|446:383|492:366,1,98,8|0,0:0|1:2,0:0:0:0:
511,250,73404,2,0,P|505:202|499:144,1,98,0|8,1:2|0:0,0:0:0:0:
512,31,74327,6,0,P|472:57|419:59,1,98,4|8,1:2|0:0,0:0:0:0:
321,118,75250,1,0,1:2:0:0:
248,25,75711,1,8,0:0:0:0:
142,78,76173,2,0,P|90:76|44:72,1,98,0|8,1:2|0:0,0:0:0:0:
24,188,77096,1,0,1:2:0:0:
2,303,77558,1,8,0:0:0:0:
97,370,78019,6,0,P|147:378|192:347,1,98,8|0,0:2|1:2,0:0:0:0:
301,377,78942,1,0,1:2:0:0:
328,262,79404,1,8,0:0:0:0:
212,241,79865,2,0,P|216:193|221:133,1,98,8|0,0:2|1:2,0:0:0:0:
200,27,80788,2,0,P|240:51|295:49,1,98,0|8,1:2|0:2,0:0:0:0:
364,140,81711,6,0,P|407:118|455:119,1,98,4|8,1:2|0:0,0:0:0:0:
436,235,82634,1,0,1:2:0:0:
417,351,83096,1,8,0:0:0:0:
303,318,83558,2,0,B|281:322|256:329|256:329|232:322|207:318,1,98,0|8,1:2|0:0,0:0:0:0:
95,351,84481,1,0,1:2:0:0:
75,235,84942,1,8,0:0:0:0:
56,119,85404,6,0,P|99:137|152:134,1,98,4|8,1:2|0:0,0:0:0:0:
250,195,86327,2,0,B|285:191|285:191|311:199|311:199|346:196,1,98,4|8,1:2|0:0,0:0:0:0:
435,118,87250,2,0,P|445:71|414:24,1,98,4|0,0:0|0:0,0:0:0:0:
305,52,88173,2,0,B|280:60|256:52|256:52|233:44|206:51,1,98,0|0,0:0|1:2,0:0:0:0:
100,0,89096,6,0,P|170:59|139:154,1,196,6|2,0:2|0:0,0:0:0:0:
1,336,90942,2,0,B|66:329|66:329|127:346|127:346|196:337,1,196,2|2,0:0|0:0,0:0:0:0:
424,381,92788,6,0,P|376:326|388:258,1,147,2|2,0:0|0:0,0:0:0:0:
419,207,93711,2,0,P|372:217|323:214,1,98,2|2,0:0|0:0,0:0:0:0:
277,252,94404,1,0,0:0:0:0:
231,289,94634,1,2,0:0:0:0:
210,172,95096,1,0,0:0:0:0:
322,213,95557,1,2,0:0:0:0:
231,289,96019,1,2,0:0:0:0:
118,254,96481,6,0,P|112:205|105:150,1,98,6|0,1:2|1:2,0:0:0:0:
89,40,97404,2,0,P|127:72|174:77,1,98,2|0,1:2|1:2,0:0:0:0:
202,191,98327,2,0,P|242:173|307:174,1,98,2|0,1:2|1:2,0:0:0:0:
376,86,99250,2,0,P|427:88|485:88,1,98,2|0,1:2|1:2,0:0:0:0:
506,201,100173,6,0,P|514:275|463:327,1,147,6|2,1:2|0:0,0:0:0:0:
493,380,101096,2,0,P|448:362|394:366,1,98,2|2,1:2|1:2,0:0:0:0:
286,329,102019,1,6,1:2:0:0:
175,368,102481,1,0,0:0:0:0:
63,329,102942,1,4,0:0:0:0:
175,368,103404,1,2,1:2:0:0:
230,348,103634,1,2,1:2:0:0:
286,329,103865,6,0,P|335:325|403:318,1,98,6|8,1:2|0:2,0:0:0:0:
471,241,104788,2,0,P|479:194|452:145,1,98,2|8,1:2|0:2,0:0:0:0:
463,32,105711,2,0,P|423:57|371:58,1,98,2|8,1:2|0:2,0:0:0:0:
285,137,106634,2,0,P|232:133|185:131,1,98,2|8,1:2|0:2,0:0:0:0:
90,197,107558,6,0,P|73:272|119:321,1,147,6|2,1:2|0:0,0:0:0:0:
98,376,108481,2,0,P|143:362|195:363,1,98,2|10,1:2|0:0,0:0:0:0:
246,337,109173,1,0,0:0:0:0:
299,312,109404,1,2,1:2:0:0:
400,253,109865,1,2,1:2:0:0:
401,370,110327,1,2,1:2:0:0:
299,312,110788,1,6,1:2:0:0:
196,253,111250,6,0,P|199:201|202:146,1,98,6|8,1:2|0:0,0:0:0:0:
183,38,112173,2,0,P|225:58|282:53,1,98,2|8,1:2|0:0,0:0:0:0:
369,125,113096,2,0,B|393:120|417:114|417:114|439:120|465:124,1,98,2|8,1:2|0:0,0:0:0:0:
512,231,114019,2,0,P|506:279|504:334,1,98,2|8,1:2|0:0,0:0:0:0:
390,296,114942,6,0,B|352:304|316:295|316:295|277:286|243:296,1,147,6|2,1:2|0:0,0:0:0:0:
259,238,115865,2,0,P|213:258|161:254,1,98,6|10,1:2|0:0,0:0:0:0:
69,322,116788,1,6,1:2:0:0:
37,208,117250,1,8,0:0:0:0:
133,141,117711,1,4,1:2:0:0:
166,255,118173,1,6,1:2:0:0:
201,367,118634,6,0,P|249:359|303:353,1,98,6|0,1:2|1:2,0:0:0:0:
415,360,119558,2,0,P|392:322|395:270,1,98,2|0,1:2|1:2,0:0:0:0:
437,160,120481,2,0,B|450:113|450:113|433:65,1,98,2|2,1:2|1:2,0:0:0:0:
316,52,121404,1,2,1:2:0:0:
257,45,121634,1,0,0:0:0:0:
199,37,121865,1,2,1:2:0:0:
82,23,122327,6,0,P|33:28|-20:31,1,98,2|0,1:2|1:2,0:0:0:0:
47,130,123250,2,0,P|53:174|88:217,1,98,2|0,1:2|1:2,0:0:0:0:
77,332,124173,2,0,P|117:310|171:308,1,98,2|2,1:2|1:2,0:0:0:0:
278,264,125096,1,2,1:2:0:0:
229,231,125327,1,0,0:0:0:0:
197,181,125558,1,6,1:2:0:0:
85,215,126019,6,0,P|34:212|-17:209,1,98,6|0,1:2|1:2,0:0:0:0:
34,101,126942,2,0,P|9:62|2:9,1,98,2|0,1:2|1:2,0:0:0:0:
119,22,127865,2,0,B|143:17|167:21|167:21|191:25|216:21,1,98,2|2,1:2|1:2,0:0:0:0:
288,113,128788,1,2,1:2:0:0:
315,60,129019,1,0,0:0:0:0:
335,5,129250,1,6,1:2:0:0:
407,97,129711,6,0,P|403:145|402:201,1,98,6|0,1:2|1:2,0:0:0:0:
454,300,130634,2,0,P|422:335|369:341,1,98,2|0,1:2|1:2,0:0:0:0:
262,381,131558,2,0,B|225:381|225:381|199:373|199:373|159:373,1,98,6|2,1:2|1:2,0:0:0:0:
71,301,132481,1,6,1:2:0:0:
87,244,132711,1,0,0:0:0:0:
100,186,132942,1,6,1:2:0:0:
216,203,133404,6,0,P|261:205|311:185,1,98,6|0,1:2|1:2,0:0:0:0:
426,212,134327,2,0,P|418:163|411:98,1,98,2|0,1:2|1:2,0:0:0:0:
304,68,135250,2,0,B|276:72|255:78|255:78|230:71|209:68,1,98,2|0,1:2|1:2,0:0:0:0:
99,114,136173,2,0,P|93:163|86:212,1,98,2|0,1:2|1:2,0:0:0:0:
23,310,137096,6,0,P|68:315|109:347,1,98,6|0,1:2|1:2,0:0:0:0:
215,297,138019,2,0,B|237:303|264:297|264:297|288:291|313:297,1,98,2|0,1:2|1:2,0:0:0:0:
422,337,138942,2,0,P|468:336|507:299,1,98,6|2,1:2|1:2,0:0:0:0:
482,186,139865,1,6,1:2:0:0:
469,128,140096,1,0,0:0:0:0:
458,70,140327,5,6,1:2:0:0:
