osu file format v14

[General]
AudioFilename: audio.mp3
AudioLeadIn: 0
PreviewTime: 118624
Countdown: 0
SampleSet: Soft
StackLeniency: 0.3
Mode: 0
LetterboxInBreaks: 0
WidescreenStoryboard: 0

[Editor]
Bookmarks: 28624
DistanceSpacing: 1.7
BeatDivisor: 4
GridSize: 4
TimelineZoom: 1.8

[Metadata]
Title:popotnik ~ The Traveller of Ljubljana
TitleUnicode:popotnik ~ 류블랴나의 여행자
Artist:LhoU
ArtistUnicode:LhoU
Creator:Niva
Version:Hard
Source:VOEZ
Tags:traveler lhoustudio RyoKazuka
BeatmapID:1610462
BeatmapSetID:712388

[Difficulty]
HPDrainRate:5.5
CircleSize:3.8
OverallDifficulty:7
ApproachRate:8
SliderMultiplier:1.55
SliderTickRate:1

[Events]
//Background and Video events
0,0,"bg.jpg",0,0
//Break Periods
//Storyboard Layer 0 (Background)
//Storyboard Layer 1 (Fail)
//Storyboard Layer 2 (Pass)
//Storyboard Layer 3 (Foreground)
//Storyboard Sound Samples

[TimingPoints]
481,461.538461538462,4,2,0,60,1,0
7865,-100,4,2,0,70,0,0
28173,-100,4,2,0,60,0,0
28634,-107.52688172043,4,2,0,60,0,0
29096,-117.647058823529,4,2,0,60,0,0
29558,-129.87012987013,4,2,0,60,0,0
30019,-100,4,2,0,70,0,0
44788,-100,4,2,0,75,0,1
59557,-100,4,2,0,70,0,0
87250,-100,4,2,0,60,0,0
88865,-100,4,2,0,70,0,0
89096,-117.647058823529,4,2,0,60,0,0
96481,-100,4,2,0,70,0,0
103865,-100,4,2,0,75,0,1
118057,-100,4,2,0,75,0,0
118173,-100,4,2,0,80,0,1
118288,-100,4,2,0,75,0,0
118634,-100,4,2,0,75,0,1
140327,-100,4,2,0,75,0,0

[Colours]
Combo1 : 255,253,174
Combo2 : 151,255,255
Combo3 : 43,253,190

[HitObjects]
128,41,481,6,0,P|131:80|136:142,1,77.5,2|0,0:0|0:0,0:0:0:0:
119,170,827,2,0,P|154:162|204:162,1,77.5,2|0,0:0|0:0,0:0:0:0:
242,133,1173,2,0,P|264:188|313:218,1,116.25,2|2,0:0|0:0,0:0:0:0:
310,217,1865,1,2,0:0:0:0:
341,345,2096,1,0,0:0:0:0:
212,313,2327,6,0,P|170:317|121:322,1,77.5,2|0,0:0|0:0,0:0:0:0:
93,356,2673,2,0,P|80:319|51:291,1,77.5,2|0,0:0|0:0,0:0:0:0:
0,278,3019,2,0,P|31:226|19:173,1,116.25,2|2,0:0|0:0,0:0:0:0:
19,174,3711,1,2,0:0:0:0:
148,149,3942,1,0,0:0:0:0:
277,125,4173,6,0,P|316:128|363:130,1,77.5,2|0,0:0|0:0,0:0:0:0:
408,120,4519,2,0,P|395:164|385:205,1,77.5,2|0,0:0|0:0,0:0:0:0:
366,245,4865,2,0,P|423:228|479:231,1,116.25,2|2,0:0|0:0,0:0:0:0:
479,231,5558,1,2,0:0:0:0:
408,120,5788,1,0,0:0:0:0:
351,244,6019,6,0,B|310:246|310:246|276:237|276:237|236:239,1,116.25,2|0,0:0|0:0,0:0:0:0:
188,215,6481,1,2,0:0:0:0:
77,286,6711,1,0,0:0:0:0:
69,154,6942,2,0,P|72:109|75:64,1,77.5,2|0,0:0|0:0,0:0:0:0:
188,215,7404,2,0,P|185:260|182:305,1,77.5,2|0,0:0|1:2,0:0:0:0:
305,151,7865,6,0,P|362:149|426:145,1,116.25,6|2,1:2|0:0,0:0:0:0:
475,139,8327,2,0,P|464:176|467:225,1,77.5,0|2,1:2|0:0,0:0:0:0:
473,346,8788,2,0,P|446:317|402:296,1,77.5,0|0,1:2|0:0,0:0:0:0:
299,234,9250,2,0,P|336:225|377:197,1,77.5,2|0,1:2|0:2,0:0:0:0:
330,315,9711,6,0,P|283:286|220:276,1,116.25,2|2,1:2|0:0,0:0:0:0:
195,229,10173,2,0,P|160:242|118:248,1,77.5,0|2,1:2|0:2,0:2:0:0:
0,302,10634,1,0,1:2:0:0:
105,381,10865,1,0,0:0:0:0:
120,247,11096,2,0,P|114:208|108:164,1,77.5,2|0,1:2|0:0,0:0:0:0:
88,39,11558,6,0,P|131:76|189:78,1,116.25,6|2,1:2|0:0,0:0:0:0:
206,129,12019,2,0,P|243:124|288:121,1,77.5,0|2,1:2|0:0,0:0:0:0:
424,87,12481,1,0,1:2:0:0:
304,41,12711,1,0,0:0:0:0:
399,171,12942,2,0,P|402:208|407:271,1,77.5,2|0,1:2|0:2,0:0:0:0:
463,367,13404,6,0,P|410:351|330:356,1,116.25,6|0,1:2|0:0,0:0:0:0:
306,321,13865,1,2,0:0:0:0:
185,374,14096,1,0,0:0:0:0:
115,261,14327,2,0,P|119:223|123:171,1,77.5,2|0,0:0|0:0,0:0:0:0:
181,65,14788,2,0,P|140:69|95:71,1,77.5,2|0,1:2|1:2,0:0:0:0:
259,163,15250,6,0,P|313:169|366:135,1,116.25,6|0,1:2|0:0,0:0:0:0:
406,103,15711,2,0,P|442:106|484:109,1,77.5,8|0,0:0|0:0,0:0:0:0:
512,238,16173,1,0,1:2:0:0:
402,311,16404,1,0,0:0:0:0:
297,230,16634,2,0,P|256:232|219:234,1,77.5,8|0,0:0|0:0,0:0:0:0:
169,356,17096,6,0,P|117:327|57:328,1,116.25,0|0,1:2|0:0,0:0:0:0:
8,339,17558,2,0,P|16:300|7:265,1,77.5,8|0,0:0|0:0,0:0:0:0:
62,144,18019,1,0,1:2:0:0:
34,15,18250,1,0,0:0:0:0:
160,53,18481,2,0,P|197:51|257:46,1,77.5,10|0,0:0|0:0,0:0:0:0:
328,142,18942,6,0,B|372:139|372:139|401:149|401:149|444:146,1,116.25,2|8,1:2|0:0,0:0:0:0:
496,136,19404,2,0,P|484:172|485:217,1,77.5,0|8,1:2|0:0,0:0:0:0:
506,341,19865,1,0,1:2:0:0:
506,341,19981,2,0,B|467:341|467:341|427:352,1,77.5,8|0,0:0|0:0,0:0:0:0:
379,371,20327,2,0,B|361:367|341:362|341:362|322:368|303:373,1,77.5,8|8,0:0|0:0,0:0:0:0:
188,309,20788,6,0,P|154:326|115:328,1,77.5,2|0,1:2|0:0,0:0:0:0:
207,210,21250,6,0,P|175:189|154:156,1,77.5,2|8,1:2|0:0,0:0:0:0:
305,210,21711,6,0,P|337:188|357:156,1,77.5,2|0,1:2|0:0,0:0:0:0:
324,309,22173,6,0,P|358:326|397:328,1,77.5,10|8,0:0|0:0,0:0:0:0:
256,377,22634,6,0,B|217:374|217:374|178:380|178:380|139:377,1,116.25,6|0,1:2|0:0,0:0:0:0:
86,384,23096,2,0,P|102:353|103:300,1,77.5,8|0,0:0|0:0,0:0:0:0:
83,180,23558,1,0,1:2:0:0:
212,159,23788,1,0,0:0:0:0:
235,288,24019,2,0,P|271:282|320:273,1,77.5,8|0,0:0|0:0,0:0:0:0:
255,377,24481,6,0,P|215:340|154:332,1,116.25,0|0,1:2|0:0,0:0:0:0:
108,302,24942,2,0,P|70:308|32:314,1,77.5,8|0,0:0|0:0,0:0:0:0:
235,288,25404,1,0,1:2:0:0:
361,271,25634,1,0,0:0:0:0:
491,251,25865,2,0,B|501:213|501:213|486:175,1,77.5,10|0,0:0|0:0,0:0:0:0:
495,45,26327,6,0,P|450:80|391:78,1,116.25,8|8,0:2|0:0,0:0:0:0:
380,131,26788,2,0,P|346:113|301:109,1,77.5,0|8,1:2|0:0,0:0:0:0:
242,20,27250,1,0,1:2:0:0:
242,20,27365,2,0,P|208:38|163:42,1,77.5,8|0,0:2|0:2,0:0:0:0:
119,63,27711,2,0,B|98:60|81:56|81:56|60:61|41:65,1,77.5,8|8,0:0|0:0,0:0:0:0:
84,190,28173,6,0,P|81:227|78:277,1,77.5,6|0,1:2|0:0,0:0:0:0:
179,225,28634,6,0,P|177:261|175:297,1,72.0750022545434,2|0,0:0|0:0,0:0:0:0:
274,256,29096,6,0,P|271:293|270:338,1,65.8750012564659,2|0,0:0|0:0,0:0:0:0:
367,278,29558,6,0,P|364:308|363:338,1,59.6749988162613,2|0,1:2|1:2,0:0:0:0:
418,218,30019,6,0,P|381:221|337:193,1,77.5,6|0,1:2|0:0,0:0:0:0:
306,165,30365,1,0,0:0:0:0:
306,165,30481,2,0,P|268:172|225:176,1,77.5,2|0,1:2|0:0,0:0:0:0:
146,278,30942,2,0,P|112:258|75:257,1,77.5,2|0,1:2|0:0,0:0:0:0:
20,265,31288,1,0,0:0:0:0:
20,265,31404,2,0,P|26:222|30:171,1,77.5,2|0,1:2|0:0,0:0:0:0:
42,56,31865,6,0,B|58:64|76:73|76:73|95:73|116:73,1,77.5,2|0,1:2|0:0,0:0:0:0:
127,126,32211,1,0,0:0:0:0:
127,126,32327,2,0,P|164:115|204:114,1,77.5,2|2,1:2|0:0,0:0:0:0:
349,46,32788,2,0,P|312:54|273:44,1,77.5,2|2,1:2|0:0,0:0:0:0:
428,110,33250,1,2,1:2:0:0:
428,110,33711,6,0,P|431:146|439:204,1,77.5,2|0,1:2|0:0,0:0:0:0:
448,240,34057,1,8,0:0:0:0:
448,240,34173,2,0,P|412:226|364:228,1,77.5,2|8,1:2|0:0,0:0:0:0:
293,330,34634,2,0,P|253:333|219:346,1,77.5,2|0,1:2|0:0,0:0:0:0:
173,314,34981,1,0,0:0:0:0:
173,314,35096,2,0,P|133:321|97:314,1,77.5,10|8,0:2|0:0,0:0:0:0:
31,198,35558,6,0,P|68:198|116:198,1,77.5,2|0,1:2|0:0,0:0:0:0:
162,213,35904,1,8,0:0:0:0:
162,213,36019,2,0,P|151:171|140:110,1,77.5,2|10,1:2|0:0,0:0:0:0:
250,288,36481,2,0,P|216:316|171:358,1,77.5,2|2,1:2|0:0,0:0:0:0:
272,174,36942,1,6,1:2:0:0:
272,174,37404,6,0,P|312:188|375:207,1,77.5,6|0,1:2|0:0,0:0:0:0:
398,183,37750,1,0,0:0:0:0:
398,183,37865,2,0,P|390:224|400:259,1,77.5,2|0,1:2|0:0,0:0:0:0:
331,371,38327,2,0,B|314:367|292:362|292:362|273:367|255:370,1,77.5,2|0,1:2|0:0,0:0:0:0:
220,334,38673,1,0,0:0:0:0:
220,334,38788,2,0,B|203:338|181:343|181:343|162:338|143:334,1,77.5,2|0,1:2|0:0,0:0:0:0:
46,245,39250,6,0,P|55:208|41:166,1,77.5,2|0,1:2|0:0,0:0:0:0:
25,119,39596,1,0,0:0:0:0:
25,119,39711,2,0,P|61:109|115:92,1,77.5,2|2,1:2|0:0,0:0:0:0:
263,173,40173,2,0,P|226:161|188:151,1,77.5,2|2,1:2|0:0,0:0:0:0:
340,101,40634,1,2,1:2:0:0:
340,101,41096,6,0,P|378:104|426:84,1,77.5,2|0,1:2|0:0,0:0:0:0:
455,55,41442,1,8,0:0:0:0:
455,55,41558,2,0,P|469:88|492:133,1,77.5,2|8,1:2|0:0,0:0:0:0:
412,233,42019,2,0,P|435:265|452:320,1,77.5,2|0,1:2|0:0,0:0:0:0:
497,323,42365,1,0,0:0:0:0:
497,323,42481,2,0,P|468:349|453:391,1,77.5,10|8,0:2|0:0,0:0:0:0:
330,314,42942,6,0,P|290:314|221:310,1,77.5,2|0,1:2|0:0,0:0:0:0:
201,330,43288,1,0,0:0:0:0:
201,330,43404,2,0,P|213:295|212:252,1,77.5,2|2,1:2|0:0,0:0:0:0:
77,197,43865,2,0,P|84:232|93:281,1,77.5,2|2,1:2|0:0,0:0:0:0:
54,69,44327,1,6,1:2:0:0:
174,114,44558,1,0,1:2:0:0:
91,273,44788,6,0,P|84:229|69:154,1,116.25,6|0,1:2|0:0,0:0:0:0:
38,114,45250,2,0,P|74:106|106:77,1,77.5,8|0,0:2|0:0,0:0:0:0:
216,149,45711,2,0,B|255:146|255:146|291:156|291:156|336:153,1,116.25,2|0,1:2|0:0,0:0:0:0:
363,196,46173,2,0,P|387:168|423:147,1,77.5,8|0,0:2|0:0,0:0:0:0:
393,287,46634,6,0,P|362:293|288:258,1,116.25,2|0,1:2|0:0,0:0:0:0:
249,296,47096,2,0,B|230:292|210:288|210:288|189:293|168:297,1,77.5,8|0,0:2|0:0,0:0:0:0:
66,374,47558,2,0,P|66:320|31:271,1,116.25,2|0,1:2|0:0,0:0:0:0:
1,225,48020,2,0,P|41:235|88:231,1,77.5,8|0,0:2|0:0,0:0:0:0:
187,305,48481,6,0,P|234:278|301:289,1,116.25,2|8,1:2|0:0,0:0:0:0:
342,308,48942,1,0,1:2:0:0:
468,269,49173,1,10,0:0:0:0:
362,190,49404,2,0,P|334:162|346:88,1,116.25,2|0,1:2|0:0,0:0:0:0:
354,38,49865,2,0,P|314:52|277:49,1,77.5,10|10,0:2|0:0,0:0:0:0:
191,154,50327,6,0,P|151:151|107:148,1,77.5,2|2,1:2|0:0,0:0:0:0:
41,38,50788,1,2,1:2:0:0:
171,74,51019,2,0,L|225:75,2,38.75,10|0|2,0:0|0:0|1:2,0:0:0:0:
0,113,51481,1,2,0:0:0:0:
124,0,51711,1,6,1:2:0:0:
191,154,51942,1,2,1:2:0:0:
71,280,52173,6,0,P|127:289|170:333,1,116.25,6|0,1:2|0:0,0:0:0:0:
195,376,52634,1,8,0:2:0:0:
325,357,52865,2,0,P|354:351|379:349,1,38.75,2|0,0:0|0:0,0:0:0:0:
417,352,53096,2,0,P|366:317|350:259,1,116.25,2|0,1:2|0:0,0:0:0:0:
353,212,53558,1,8,0:2:0:0:
256,122,53788,2,0,P|259:98|262:70,1,38.75,2|0,0:0|0:0,0:0:0:0:
292,38,54019,6,0,B|261:46|235:38|235:38|212:32|177:39,1,116.25,2|0,1:2|0:0,0:0:0:0:
130,10,54481,1,8,0:2:0:0:
66,124,54711,2,0,P|74:146|81:179,1,38.75,2|0,0:0|0:0,0:0:0:0:
129,177,54942,2,0,P|95:224|106:284,1,116.25,2|0,1:2|0:0,0:0:0:0:
132,324,55404,1,8,0:2:0:0:
256,365,55634,1,0,0:0:0:0:
380,324,55865,6,0,B|421:320|421:320|454:330|454:330|495:327,1,116.25,6|0,1:2|0:0,0:0:0:0:
499,272,56327,1,8,0:2:0:0:
506,163,56558,2,0,L|498:107,1,38.75,10|0,0:0|0:0,0:0:0:0:
510,71,56788,2,0,P|472:83|419:76,1,77.5,2|0,1:2|0:0,0:0:0:0:
311,166,57250,2,0,B|330:163|349:158|349:158|367:164|386:166,1,77.5,10|8,0:2|0:0,0:0:0:0:
248,80,57711,6,0,P|194:77|137:40,1,116.25,6|0,1:2|0:0,0:0:0:0:
102,8,58173,1,8,0:2:0:0:
72,136,58404,1,8,0:0:0:0:
41,263,58634,1,4,1:2:0:0:
41,263,58750,2,0,P|32:300|21:340,1,77.5,8|0,0:0|0:0,0:0:0:0:
0,384,59096,2,0,P|39:375|81:377,1,77.5,8|8,0:2|0:0,0:0:0:0:
191,306,59558,6,0,P|246:320|308:322,1,116.25,4|0,1:2|0:0,0:0:0:0:
338,364,60019,2,0,P|379:349|420:343,1,77.5,8|0,0:2|0:0,0:0:0:0:
482,231,60481,1,0,1:2:0:0:
419,115,60711,1,0,0:0:0:0:
289,139,60942,2,0,P|241:136|195:133,1,77.5,8|0,0:2|0:0,0:0:0:0:
109,219,61404,6,0,P|41:220|10:186,1,116.25,0|0,1:2|0:0,0:0:0:0:
0,134,61865,2,0,P|8:88|14:55,1,77.5,8|0,0:0|0:0,0:0:0:0:
28,263,62327,1,0,1:2:0:0:
138,152,62558,1,0,0:0:0:0:
164,291,62788,2,0,P|156:334|150:370,1,77.5,8|0,0:0|0:0,0:0:0:0:
278,335,63250,6,0,B|321:335|321:335|346:342|346:342|393:342,1,116.25,8|8,0:2|0:0,0:0:0:0:
428,382,63711,2,0,P|455:358|498:350,1,77.5,0|8,1:2|0:0,0:0:0:0:
512,219,64173,1,0,1:2:0:0:
512,219,64288,2,0,P|503:175|495:129,1,77.5,8|0,0:0|0:0,0:0:0:0:
501,88,64634,2,0,B|483:91|464:96|464:96|442:91|423:88,1,77.5,8|8,0:0|0:0,0:0:0:0:
349,196,65096,6,0,P|298:168|239:167,1,116.25,8|8,0:2|0:0,0:0:0:0:
213,119,65558,2,0,P|175:129|133:132,1,77.5,0|8,1:2|0:0,0:0:0:0:
74,247,66019,1,0,1:2:0:0:
74,247,66134,2,0,P|77:284|83:342,1,77.5,8|0,0:0|0:0,0:0:0:0:
87,378,66481,2,0,P|51:366|11:365,1,77.5,8|8,0:0|0:0,0:0:0:0:
209,353,66942,6,0,B|250:350|250:350|282:359|282:359|323:356,1,116.25,4|0,1:2|0:0,0:0:0:0:
371,382,67404,2,0,P|406:367|451:366,1,77.5,8|0,0:0|0:0,0:0:0:0:
512,250,67865,1,0,1:2:0:0:
428,148,68096,1,0,0:0:0:0:
307,202,68327,2,0,P|268:198|215:192,1,77.5,8|0,0:0|0:0,0:0:0:0:
125,114,68788,6,0,P|113:175|66:208,1,116.25,0|0,1:2|0:0,0:0:0:0:
23,232,69250,2,0,P|49:259|58:297,1,77.5,8|0,0:0|0:0,0:0:0:0:
163,375,69711,1,0,1:2:0:0:
253,279,69942,1,0,0:0:0:0:
150,194,70173,2,0,P|110:200|67:206,1,77.5,8|0,0:0|0:0,0:0:0:0:
253,279,70634,6,0,P|312:269|378:260,1,116.25,8|8,0:0|0:0,0:0:0:0:
409,225,71096,2,0,P|422:260|446:295,1,77.5,0|8,1:2|0:0,0:0:0:0:
303,167,71558,1,0,1:2:0:0:
303,167,71673,2,0,P|326:138|345:99,1,77.5,8|0,0:0|0:0,0:0:0:0:
396,116,72019,2,0,P|390:76|385:37,1,77.5,8|8,0:0|0:0,0:0:0:0:
486,155,72481,6,0,P|450:200|395:214,1,116.25,8|8,0:0|0:0,0:0:0:0:
406,268,72942,2,0,P|369:258|324:263,1,77.5,0|8,1:2|0:0,0:0:0:0:
217,191,73404,1,0,1:2:0:0:
217,191,73519,2,0,B|199:195|180:199|180:199|160:195|140:192,1,77.5,8|0,0:0|0:0,0:0:0:0:
97,224,73865,2,0,B|79:220|60:216|60:216|40:220|20:223,1,77.5,8|8,0:0|0:0,0:0:0:0:
170,115,74327,6,0,P|215:143|278:127,1,116.25,4|0,1:2|0:0,0:0:0:0:
324,111,74788,2,0,P|322:147|321:205,1,77.5,8|0,0:0|0:0,0:0:0:0:
318,320,75250,1,0,1:2:0:0:
198,376,75481,1,0,0:0:0:0:
69,351,75711,2,0,P|27:355|-13:357,1,77.5,8|0,0:0|0:0,0:0:0:0:
87,264,76173,6,0,P|110:319|161:347,1,116.25,0|0,1:2|0:0,0:0:0:0:
198,376,76634,2,0,P|237:372|292:369,1,77.5,8|0,0:0|0:0,0:0:0:0:
406,383,77096,1,0,1:2:0:0:
418,251,77327,1,0,0:0:0:0:
286,236,77558,2,0,P|288:196|291:146,1,77.5,8|0,0:0|0:0,0:0:0:0:
334,315,78019,6,0,P|282:291|227:306,1,116.25,8|8,0:2|0:0,0:0:0:0:
181,334,78481,2,0,P|141:329|100:326,1,77.5,0|8,1:2|0:0,0:0:0:0:
59,204,78942,1,0,1:2:0:0:
59,204,79058,2,0,P|97:200|136:196,1,77.5,8|0,0:0|0:0,0:0:0:0:
182,167,79404,2,0,P|182:205|199:239,1,77.5,8|8,0:0|0:0,0:0:0:0:
191,371,79865,6,0,P|234:342|296:339,1,116.25,8|8,0:2|0:0,0:0:0:0:
297,284,80327,2,0,P|328:303|378:314,1,77.5,0|8,1:2|0:0,0:0:0:0:
487,259,80788,1,0,1:2:0:0:
487,259,80904,2,0,P|504:225|512:184,1,77.5,8|0,0:0|0:0,0:0:0:0:
504,132,81250,2,0,P|483:94|454:65,1,77.5,8|8,0:2|0:0,0:0:0:0:
329,50,81711,6,0,P|270:57|185:59,1,116.25,4|0,1:2|0:0,0:0:0:0:
158,55,82173,2,0,P|170:96|181:146,1,77.5,8|0,0:0|0:0,0:0:0:0:
212,256,82634,1,0,1:2:0:0:
306,163,82865,1,0,0:0:0:0:
177,129,83096,2,0,P|136:136|94:143,1,77.5,8|0,0:0|0:0,0:0:0:0:
306,163,83558,6,0,B|339:163|362:152|362:152|387:140|419:140,1,116.25,0|0,1:2|0:0,0:0:0:0:
467,117,84019,2,0,P|467:155|487:189,1,77.5,8|0,0:0|0:0,0:0:0:0:
466,319,84481,1,0,1:2:0:0:
336,296,84711,1,0,0:0:0:0:
206,319,84942,2,0,P|163:315|116:313,1,77.5,8|0,0:0|0:0,0:0:0:0:
4,360,85404,6,0,P|28:313|12:245,1,116.25,4|0,1:2|0:0,0:0:0:0:
1,200,85865,2,0,P|7:162|14:118,1,77.5,8|8,0:0|0:0,0:0:0:0:
124,51,86327,1,4,1:2:0:0:
124,51,86442,2,0,P|129:89|136:127,1,77.5,8|0,0:0|0:0,0:0:0:0:
124,180,86788,2,0,P|162:170|208:170,1,77.5,8|8,0:0|0:0,0:0:0:0:
296,78,87250,6,0,P|350:91|439:93,1,116.25,4|8,0:0|0:0,0:0:0:0:
461,77,87711,2,0,P|469:113|484:162,1,77.5,0|8,0:0|0:0,0:0:0:0:
370,225,88173,1,0,0:0:0:0:
370,225,88288,2,0,P|380:261|395:320,1,77.5,8|0,0:0|0:0,0:0:0:0:
402,352,88634,1,8,0:0:0:0:
268,380,88865,1,2,1:2:0:0:
268,380,88981,1,0,1:2:0:0:
268,380,89096,6,0,B|198:371|198:371|138:383|138:383|72:375,1,197.625003769398,6|0,0:2|0:0,0:0:0:0:
20,277,90019,2,0,B|-1:139|-1:139|17:163|48:179,1,197.625003769398,2|0,0:0|0:0,0:0:0:0:
159,217,90942,6,0,B|211:235|260:217|260:217|311:195|364:217,1,197.625003769398,2|0,0:0|0:0,0:0:0:0:
459,244,91865,2,0,P|369:227|333:115,1,197.625003769398,2|0,0:0|0:0,0:0:0:0:
220,183,92788,6,0,B|175:206|126:184|126:184|64:184|44:234,1,197.625003769398,2|2,0:0|0:0,0:0:0:0:
43,344,93711,2,0,P|85:372|138:370,1,98.8125018846989,2|0,0:0|0:0,0:0:0:0:
179,356,94173,2,0,P|222:356|259:355,1,65.8750012564659,2|2,0:0|0:0,0:0:0:0:
353,383,94634,5,2,0:0:0:0:
384,275,94865,1,0,0:0:0:0:
276,242,95096,1,2,0:0:0:0:
244,355,95327,2,0,P|225:356|206:358,2,32.937500628233,2|0|2,0:0|0:0|0:0,0:0:0:0:
353,383,95788,1,2,0:0:0:0:
462,343,96019,1,2,0:0:0:0:
476,221,96250,1,2,1:2:0:0:
436,95,96481,6,0,P|371:89|315:83,1,116.25,6|0,1:2|0:0,0:0:0:0:
267,74,96942,1,0,1:2:0:0:
154,142,97173,2,0,P|130:139|105:136,1,38.75,0|2,0:0|0:0,0:0:0:0:
65,115,97404,2,0,P|99:175|84:224,1,116.25,0|0,1:2|0:0,0:0:0:0:
58,263,97865,1,0,1:2:0:0:
186,290,98096,2,0,P|181:313|174:346,1,38.75,0|2,0:0|0:0,0:0:0:0:
151,375,98327,6,0,B|193:372|193:372|228:381|228:381|270:378,1,116.25,0|0,1:2|0:0,0:0:0:0:
315,357,98788,1,0,1:2:0:0:
445,374,99019,2,0,P|440:350|434:321,1,38.75,0|2,0:0|0:0,0:0:0:0:
476,298,99250,2,0,P|427:266|418:209,1,116.25,0|0,1:2|0:0,0:0:0:0:
430,159,99711,1,0,1:2:0:0:
328,75,99942,1,0,0:0:0:0:
217,146,100173,6,0,B|176:145|176:145|143:154|143:154|103:152,1,116.25,6|0,1:2|0:0,0:0:0:0:
53,129,100634,1,0,1:0:0:0:
0,248,100865,2,0,P|4:272|10:308,1,38.75,2|0,0:0|0:0,0:0:0:0:
1,340,101096,2,0,P|37:329|76:325,1,77.5,2|0,1:2|0:0,0:0:0:0:
198,273,101558,2,0,P|234:284|273:288,1,77.5,2|0,1:2|0:0,0:0:0:0:
366,382,102019,6,0,P|415:333|498:338,1,155,6|0,1:2|0:0,0:0:0:0:
496,337,102711,1,0,0:0:0:0:
390,240,102942,2,0,P|371:164|355:84,1,155,4|2,0:0|1:2,0:0:0:0:
256,0,103634,1,2,1:2:0:0:
156,88,103865,6,0,P|140:164|123:233,1,116.25,6|0,1:2|0:0,0:0:0:0:
145,254,104327,2,0,P|106:246|63:251,1,77.5,8|0,0:2|0:0,0:0:0:0:
260,307,104788,2,0,P|317:308|374:285,1,116.25,2|0,1:2|0:0,0:0:0:0:
419,261,105250,2,0,P|414:311|413:351,1,77.5,8|0,0:2|0:0,0:0:0:0:
476,167,105711,6,0,P|479:108|483:38,1,116.25,2|0,1:2|0:0,0:0:0:0:
504,1,106173,2,0,P|469:9|419:7,1,77.5,8|0,0:2|0:0,0:0:0:0:
330,97,106634,2,0,B|301:105|273:97|273:97|246:90|214:98,1,116.25,2|0,1:2|0:0,0:0:0:0:
161,88,107096,2,0,P|177:121|181:166,1,77.5,8|0,0:2|0:0,0:0:0:0:
145,288,107558,6,0,P|195:267|258:271,1,116.25,8|8,0:2|0:0,0:0:0:0:
305,292,108019,1,0,1:2:0:0:
382,185,108250,1,10,0:0:0:0:
511,233,108481,2,0,P|505:182|499:108,1,116.25,2|0,1:2|0:0,0:0:0:0:
507,63,108942,2,0,P|471:78|429:81,1,77.5,10|10,0:0|0:0,0:0:0:0:
317,146,109404,6,0,P|276:143|239:140,1,77.5,2|2,1:2|0:0,0:0:0:0:
102,210,109865,1,2,1:2:0:0:
174,71,110096,2,0,P|170:42|168:18,2,38.75,10|0|2,0:0|0:0|1:2,0:0:0:0:
195,227,110558,1,2,0:0:0:0:
91,118,110788,1,6,1:2:0:0:
239,140,111019,1,2,0:0:0:0:
387,163,111250,6,0,P|443:158|483:113,1,116.25,6|0,1:2|0:0,0:0:0:0:
478,61,111711,1,8,0:0:0:0:
387,163,111942,2,0,L|393:226,1,38.75,2|0,0:0|0:0,0:0:0:0:
423,245,112173,2,0,B|383:240|352:235|352:235|310:257,1,116.25,2|0,1:2|0:0,0:0:0:0:
269,287,112634,1,8,0:0:0:0:
141,254,112865,2,0,P|119:265|94:278,1,38.75,2|0,0:0|0:0,0:0:0:0:
58,296,113096,6,0,P|81:239|54:197,1,116.25,2|0,1:2|0:0,0:0:0:0:
11,161,113558,1,8,0:0:0:0:
84,52,113788,2,0,P|106:54|135:57,1,38.75,2|0,0:0|0:0,0:0:0:0:
152,102,114019,2,0,P|204:78|263:73,1,116.25,2|0,1:2|0:0,0:0:0:0:
310,46,114481,1,8,0:0:0:0:
435,84,114711,1,0,0:0:0:0:
310,46,114942,6,0,P|245:43|187:40,1,116.25,6|0,1:2|0:0,0:0:0:0:
139,37,115404,1,8,0:2:0:0:
27,106,115634,2,0,P|30:125|34:147,1,38.75,10|0,0:0|0:0,0:0:0:0:
80,172,115865,2,0,P|59:207|54:247,1,77.5,6|0,1:2|0:0,0:0:0:0:
187,319,116327,2,0,P|172:283|173:244,1,77.5,10|8,0:0|0:0,0:0:0:0:
142,384,116788,6,0,P|194:363|256:366,1,116.25,6|0,1:2|0:0,0:0:0:0:
302,342,117250,1,8,0:0:0:0:
427,381,117481,1,8,0:0:0:0:
471,257,117711,1,4,1:2:0:0:
471,257,117827,2,0,P|465:216|461:173,1,77.5,8|0,0:0|1:2,0:0:0:0:
433,133,118173,2,0,P|471:132|513:121,1,77.5,6|0,1:2|1:2,0:0:0:0:
327,171,118634,6,0,P|291:159|245:151,1,77.5,6|0,1:2|0:0,0:0:0:0:
215,110,118981,1,0,0:0:0:0:
215,110,119096,2,0,P|178:122|135:119,1,77.5,2|0,1:2|0:0,0:0:0:0:
72,234,119558,2,0,P|79:276|88:339,1,77.5,2|0,1:2|0:0,0:0:0:0:
74,364,119904,1,0,0:0:0:0:
74,364,120019,2,0,P|110:353|151:352,1,77.5,2|0,1:2|0:2,0:0:0:0:
269,295,120481,6,0,P|306:312|350:311,1,77.5,2|0,1:2|0:0,0:0:0:0:
375,355,120827,1,0,0:0:0:0:
375,355,120942,2,0,P|411:342|454:341,1,77.5,2|2,1:2|0:0,0:0:0:0:
444,184,121404,2,0,P|405:182|369:169,1,77.5,2|2,1:2|0:0,0:0:0:0:
504,263,121865,1,2,1:2:0:0:
504,263,122327,6,0,P|464:263|401:264,1,77.5,2|0,1:2|0:0,0:0:0:0:
384,298,122673,1,8,0:0:0:0:
384,298,122788,2,0,P|349:280|306:276,1,77.5,2|8,1:2|0:0,0:0:0:0:
182,245,123250,2,0,P|141:270|105:273,1,77.5,2|0,1:2|0:0,0:0:0:0:
60,258,123596,1,0,0:0:0:0:
60,258,123711,2,0,P|66:297|74:354,1,77.5,10|8,1:2|0:0,0:0:0:0:
109,170,124173,6,0,P|103:131|97:74,1,77.5,2|0,1:2|0:0,0:0:0:0:
78,42,124519,1,0,0:0:0:0:
78,42,124634,2,0,P|115:55|164:54,1,77.5,2|2,1:2|0:0,0:0:0:0:
304,105,125096,2,0,B|286:104|264:104|264:104|247:112|229:120,1,77.5,2|2,1:2|0:0,0:0:0:0:
345,15,125558,1,6,1:2:0:0:
345,15,126019,6,0,P|385:18|427:21,1,77.5,6|0,1:2|0:0,0:0:0:0:
473,0,126365,1,0,0:0:0:0:
473,0,126481,2,0,P|476:42|483:92,1,77.5,2|0,1:2|0:0,0:0:0:0:
491,208,126942,2,0,P|458:237|403:235,1,77.5,2|0,1:2|0:0,0:0:0:0:
401,290,127288,1,0,0:0:0:0:
401,290,127404,2,0,P|365:276|310:281,1,77.5,2|0,1:2|1:2,0:0:0:0:
223,203,127865,6,0,P|183:208|122:212,1,77.5,2|0,1:2|0:0,0:0:0:0:
92,201,128211,1,0,0:0:0:0:
92,201,128327,2,0,P|100:242|105:284,1,77.5,2|2,1:2|0:0,0:0:0:0:
167,102,128788,2,0,P|128:90|88:71,1,77.5,2|2,1:2|0:0,0:0:0:0:
214,213,129250,1,6,1:2:0:0:
214,213,129711,6,0,P|253:208|303:196,1,77.5,6|0,1:2|0:0,0:0:0:0:
342,184,130057,1,0,0:0:0:0:
342,184,130173,2,0,P|338:229|333:277,1,77.5,2|0,1:2|0:0,0:0:0:0:
381,383,130634,2,0,P|421:388|459:382,1,77.5,2|0,1:2|0:0,0:0:0:0:
505,354,130981,1,0,0:0:0:0:
506,354,131096,2,0,P|502:315|500:275,1,77.5,2|0,1:2|0:0,0:0:0:0:
505,144,131558,6,0,P|470:165|426:170,1,77.5,6|0,1:2|0:0,0:0:0:0:
396,209,131904,1,0,0:0:0:0:
396,209,132019,2,0,P|362:189|320:179,1,77.5,2|2,1:2|0:0,0:0:0:0:
170,142,132481,2,0,P|207:132|240:112,1,77.5,6|2,1:2|0:0,0:0:0:0:
69,182,132942,1,6,1:2:0:0:
69,182,133404,6,0,P|72:220|79:271,1,77.5,6|0,1:2|0:0,0:0:0:0:
34,292,133750,1,0,0:0:0:0:
34,292,133865,2,0,P|66:313|87:351,1,77.5,2|0,1:2|0:0,0:0:0:0:
210,303,134327,2,0,P|248:305|289:309,1,77.5,2|0,1:2|0:0,0:0:0:0:
340,319,134673,1,0,0:0:0:0:
340,319,134788,2,0,P|334:276|328:221,1,77.5,2|0,1:2|0:0,0:0:0:0:
459,267,135250,6,0,P|454:228|447:169,1,77.5,6|0,1:2|0:0,0:0:0:0:
464,137,135596,1,0,0:0:0:0:
464,137,135711,2,0,P|425:143|385:138,1,77.5,2|0,1:2|0:0,0:0:0:0:
266,84,136173,2,0,B|245:80|228:76|228:76|208:80|189:83,1,77.5,2|0,1:2|0:0,0:0:0:0:
140,60,136519,1,0,0:0:0:0:
140,60,136634,2,0,P|137:100|132:139,1,77.5,2|0,1:2|1:2,0:0:0:0:
66,251,137096,6,0,P|104:268|142:267,1,77.5,6|0,1:2|0:0,0:0:0:0:
166,315,137442,1,0,0:0:0:0:
166,315,137558,2,0,P|204:304|244:303,1,77.5,2|0,1:2|0:0,0:0:0:0:
362,249,138019,2,0,P|399:256|439:250,1,77.5,2|0,1:2|0:0,0:0:0:0:
489,232,138365,1,0,0:0:0:0:
489,232,138481,2,0,P|492:274|496:318,1,77.5,2|0,1:2|1:2,0:0:0:0:
512,131,138942,6,0,P|508:92|504:44,1,77.5,6|0,1:2|0:0,0:0:0:0:
512,0,139288,1,0,0:0:0:0:
512,0,139404,2,0,P|475:12|433:15,1,77.5,2|2,1:2|0:0,0:0:0:0:
336,101,139865,2,0,P|374:104|411:116,1,77.5,6|2,1:2|1:2,0:0:0:0:
256,28,140327,5,6,1:2:0:0:
