osu file format v14

[General]
AudioFilename: audio.mp3
AudioLeadIn: 0
PreviewTime: 118624
Countdown: 0
SampleSet: Soft
StackLeniency: 0.2
Mode: 0
LetterboxInBreaks: 0
WidescreenStoryboard: 0

[Editor]
DistanceSpacing: 1
BeatDivisor: 4
GridSize: 4
TimelineZoom: 1.8

[Metadata]
Title:popotnik ~ The Traveller of Ljubljana
TitleUnicode:popotnik ~ 류블랴나의 여행자
Artist:LhoU
ArtistUnicode:LhoU
Creator:Niva
Version:Exotic
Source:VOEZ
Tags:traveler lhoustudio RyoKazuka
BeatmapID:1505919
BeatmapSetID:712388

[Difficulty]
HPDrainRate:6
CircleSize:3.2
OverallDifficulty:8
ApproachRate:9.3
SliderMultiplier:2.4
SliderTickRate:1

[Events]
//Background and Video events
0,0,"bg.jpg",0,0
//Break Periods
//Storyboard Layer 0 (Background)
//Storyboard Layer 1 (Fail)
//Storyboard Layer 2 (Pass)
//Storyboard Layer 3 (Foreground)
//Storyboard Sound Samples

[TimingPoints]
481,461.538461538462,4,2,0,60,1,0
481,-117.647058823529,4,2,0,60,0,0
7865,-80,4,2,0,70,0,0
13288,-117.647058823529,4,2,0,70,0,0
13519,-117.647058823529,4,2,0,60,0,0
15250,-80,4,2,0,70,0,0
28173,-100,4,2,0,60,0,0
28634,-111.111111111111,4,2,0,60,0,0
29096,-125,4,2,0,60,0,0
29558,-142.857142857143,4,2,0,60,0,0
30019,-80,4,2,0,70,0,0
44788,-80,4,2,0,75,0,1
59557,-80,4,2,0,70,0,0
87250,-100,4,2,0,60,0,0
88865,-100,4,2,0,65,0,0
89096,-166.666666666667,4,2,0,60,0,0
96481,-100,4,2,0,70,0,0
102019,-125,4,2,0,70,0,0
102942,-100,4,2,0,70,0,0
103865,-80,4,2,0,75,0,1
118057,-80,4,2,0,75,0,0
118173,-68.9655172413793,4,2,0,80,0,1
118288,-68.9655172413793,4,2,0,75,0,0
118634,-80,4,2,0,75,0,1
140327,-80,4,2,0,75,0,0

[Colours]
Combo1 : 255,253,174
Combo2 : 151,255,255
Combo3 : 43,253,190

[HitObjects]
100,280,481,5,2,0:0:0:0:
100,280,596,2,0,P|98:309|93:351,1,51.0000009727478,0|0,0:0|0:0,0:0:0:0:
63,196,827,2,0,P|109:215|166:212,1,102.000001945496,2|0,0:0|0:0,0:0:0:0:
301,262,1173,1,2,0:0:0:0:
301,262,1288,2,0,P|269:263|229:269,1,51.0000009727478,0|0,0:0|0:0,0:0:0:0:
289,160,1519,2,0,B|341:165|389:167,1,102.000001945496,2|0,0:0|0:0,0:0:0:0:
456,253,1865,2,0,P|484:242|521:234,1,51.0000009727478,2|0,0:0|0:0,0:0:0:0:
512,110,2096,2,0,P|487:104|463:94,1,51.0000009727478,0|0,0:0|0:0,0:0:0:0:
340,168,2327,5,2,0:0:0:0:
340,168,2442,2,0,P|372:168|401:167,1,51.0000009727478,0|0,0:0|0:0,0:0:0:0:
354,258,2673,2,0,P|321:227|260:223,1,102.000001945496,2|0,0:0|0:0,0:0:0:0:
168,193,3019,1,2,0:0:0:0:
168,193,3134,2,0,P|157:216|140:235,1,51.0000009727478,0|0,0:0|0:0,0:0:0:0:
245,119,3365,2,0,P|224:74|234:25,1,102.000001945496,2|0,0:0|0:0,0:0:0:0:
126,79,3711,2,0,P|101:82|73:84,1,51.0000009727478,2|0,0:0|0:0,0:0:0:0:
0,174,3942,2,0,P|25:176|53:179,1,51.0000009727478,0|0,0:0|0:0,0:0:0:0:
143,264,4173,5,2,0:0:0:0:
143,264,4288,2,0,P|118:267|90:269,1,51.0000009727478,0|0,0:0|0:0,0:0:0:0:
131,356,4519,2,0,P|165:323|227:316,1,102.000001945496,2|0,0:0|0:0,0:0:0:0:
332,244,4865,1,2,0:0:0:0:
332,244,4981,2,0,P|299:244|268:243,1,51.0000009727478,0|0,0:0|0:0,0:0:0:0:
408,307,5211,2,0,P|459:304|515:304,1,102.000001945496,2|0,0:0|0:0,0:0:0:0:
454,197,5557,1,2,0:0:0:0:
454,197,5673,2,0,P|450:169|448:136,2,51.0000009727478
360,74,6019,5,2,0:0:0:0:
348,123,6134,1,0,0:0:0:0:
307,155,6250,1,0,0:0:0:0:
249,157,6365,1,0,0:0:0:0:
199,140,6481,6,0,P|170:139|135:140,1,51.0000009727478,2|0,0:0|0:0,0:0:0:0:
64,45,6712,2,0,P|94:46|128:45,1,51.0000009727478,0|0,0:0|0:0,0:0:0:0:
208,153,6943,2,0,P|175:152|144:153,1,51.0000009727478,2|0,0:0|0:0,0:0:0:0:
75,59,7174,2,0,P|107:59|139:59,1,51.0000009727478
219,38,7404,5,2,0:0:0:0:
264,14,7519,1,0,0:0:0:0:
315,20,7634,1,0,1:2:0:0:
353,57,7750,1,0,0:0:0:0:
441,98,7865,5,6,1:2:0:0:
441,98,7981,2,0,P|477:101|526:107,1,75,0|0,0:0|0:0,0:0:0:0:
473,4,8211,2,0,P|427:58|349:55,1,150,2|0,0:0|0:2,0:0:0:0:
246,74,8557,1,2,0:0:0:0:
246,74,8673,2,0,P|251:37|255:0,1,75,0|0,0:0|1:2,0:0:0:0:
167,152,8904,2,0,P|233:187|306:167,1,150,2|0,0:0|0:0,0:0:0:0:
235,233,9250,2,0,P|196:250|167:269,1,75,2|0,1:2|0:0,0:0:0:0:
107,106,9481,2,0,P|136:129|167:152,1,75,0|0,0:2|0:0,0:0:0:0:
64,294,9711,5,2,1:2:0:0:
64,294,9827,2,0,P|68:259|73:212,1,75
0,363,10058,2,0,B|52:355|52:355|101:360|101:360|156:352,1,150,2|0,0:0|0:0,0:0:0:0:
307,267,10404,1,2,0:0:0:0:
256,384,10519,1,0,0:0:0:0:
205,267,10634,1,0,1:2:0:0:
360,357,10750,2,0,P|436:369|493:329,1,150,2|0,0:0|0:0,0:0:0:0:
296,192,11096,2,0,P|302:231|310:292,1,75,2|0,1:2|0:0,0:0:0:0:
180,268,11327,2,0,B|180:335|180:335|180:346,1,75
59,185,11558,5,6,1:2:0:0:
59,185,11673,2,0,P|53:224|45:285,1,75,0|0,0:0|0:0,0:0:0:0:
8,95,11904,2,0,P|70:140|146:128,1,150,2|0,0:0|0:0,0:0:0:0:
256,236,12250,1,2,0:0:0:0:
256,236,12365,2,0,P|251:199|247:151,1,75,0|0,0:0|1:2,0:0:0:0:
219,354,12596,2,0,P|154:317|79:313,1,150,2|0,0:0|0:0,0:0:0:0:
75,191,12942,2,0,L|-16:192,1,75,2|0,1:2|0:0,0:0:0:0:
128,83,13173,2,0,P|81:74|47:68,1,75,0|0,0:2|0:0,0:0:0:0:
232,142,13404,5,6,1:2:0:0:
269,167,13519,1,0,0:0:0:0:
316,169,13634,1,0,0:0:0:0:
358,146,13750,1,0,0:0:0:0:
381,104,13865,6,0,P|378:73|372:39,1,51.0000009727478,2|0,0:0|0:0,0:0:0:0:
481,190,14096,2,0,P|484:160|488:133,1,51.0000009727478,0|0,0:0|0:0,0:0:0:0:
382,295,14327,2,0,P|378:265|373:230,1,51.0000009727478,2|0,0:0|0:0,0:0:0:0:
483,381,14558,2,0,P|486:351|490:322,1,51.0000009727478,0|0,0:0|0:0,0:0:0:0:
361,341,14788,5,2,1:2:0:0:
316,360,14904,1,0,0:0:0:0:
268,355,15019,1,0,1:2:0:0:
230,324,15134,1,0,0:0:0:0:
235,229,15250,6,0,P|162:296|48:266,1,225,6|0,1:2|0:0,0:0:0:0:
29,375,15711,2,0,B|49:264|49:264|34:246|28:221,1,150,8|0,0:0|0:0,0:0:0:0:
73,131,16058,1,0,0:0:0:0:
128,39,16173,1,0,1:2:0:0:
128,38,16288,2,0,P|72:84|0:74,1,150,0|0,0:0|0:0,0:0:0:0:
226,73,16634,2,0,B|277:71|277:71|323:94|323:94|370:91,1,150,8|0,0:0|0:0,0:0:0:0:
455,35,16981,1,0,0:0:0:0:
440,163,17096,6,0,P|468:226|438:301,1,150,0|0,1:2|0:0,0:0:0:0:
360,358,17442,1,0,0:0:0:0:
360,358,17558,2,0,B|411:353|411:353|452:362|452:362|509:359,1,150,8|0,0:0|0:0,0:0:0:0:
265,384,17904,1,0,0:0:0:0:
179,332,18019,1,0,1:2:0:0:
195,240,18134,2,0,P|133:284|54:273,1,150,0|0,0:0|0:0,0:0:0:0:
0,191,18481,2,0,P|42:91|149:79,1,225,10|0,0:0|0:0,0:0:0:0:
99,0,18942,6,0,P|165:80|277:68,1,225,10|8,0:2|0:0,0:0:0:0:
374,19,19404,2,0,P|380:89|386:177,1,150,0|8,1:2|0:0,0:0:0:0:
511,315,19750,1,0,0:0:0:0:
500,202,19865,1,0,1:2:0:0:
388,285,19981,2,0,B|346:307|346:307|293:307|293:307|246:333,1,150,8|0,0:0|0:0,0:0:0:0:
126,384,20327,1,8,0:0:0:0:
126,384,20558,1,8,0:0:0:0:
249,331,20673,1,0,0:0:0:0:
229,213,20788,6,0,P|284:304|388:285,1,225,2|8,1:2|0:0,0:0:0:0:
450,200,21250,2,0,P|442:122|436:37,1,150,2|8,1:2|0:0,0:0:0:0:
462,358,21711,1,2,1:2:0:0:
360,331,21827,2,0,B|306:331|306:331|262:352|262:352|213:353,1,150,8|0,0:0|0:2,0:0:0:0:
117,353,22173,2,0,P|183:324|206:249,1,150,10|8,0:0|0:0,0:0:0:0:
198,152,22519,1,8,0:0:0:0:
176,33,22634,6,0,P|253:120|355:104,1,225,6|0,1:2|0:0,0:0:0:0:
351,106,23096,2,0,P|326:177|355:245,1,150,8|0,0:0|0:0,0:0:0:0:
443,298,23442,1,0,0:0:0:0:
512,223,23558,1,0,1:2:0:0:
500,384,23673,2,0,P|441:345|361:365,1,150,0|0,0:0|0:0,0:0:0:0:
256,285,24019,2,0,P|192:322|119:306,1,150,8|0,0:0|0:0,0:0:0:0:
177,217,24365,1,0,0:0:0:0:
315,206,24481,6,0,P|311:279|309:370,1,150,0|0,1:2|0:0,0:0:0:0:
177,217,24827,1,0,0:0:0:0:
177,217,24942,2,0,P|176:171|172:62,1,150,8|0,0:0|0:0,0:0:0:0:
334,72,25288,1,0,0:0:0:0:
253,3,25404,1,0,1:2:0:0:
280,191,25519,2,0,P|356:193|410:146,1,150,0|0,0:0|0:0,0:0:0:0:
172,142,25865,2,0,B|21:142|21:142|65:132|101:109,1,225,10|0,0:0|0:0,0:0:0:0:
221,51,26327,6,0,P|234:158|343:196,1,225,10|8,0:2|0:0,0:0:0:0:
411,276,26788,2,0,P|339:258|274:301,1,150,0|8,1:2|0:0,0:0:0:0:
482,191,27134,1,0,0:0:0:0:
406,117,27250,1,0,1:2:0:0:
457,27,27365,2,0,P|394:67|317:50,1,150,8|0,0:2|0:2,0:0:0:0:
203,1,27711,1,8,0:0:0:0:
203,1,27942,1,8,0:0:0:0:
323,53,28058,1,0,0:0:0:0:
149,88,28173,6,0,P|88:86|18:81,1,120,6|0,1:2|0:0,0:0:0:0:
373,154,28634,6,0,P|430:152|491:148,1,107.999996704102,2|0,0:0|0:0,0:0:0:0:
70,254,29096,6,0,P|118:257|166:259,1,96,2|0,0:0|0:0,0:0:0:0:
454,345,29558,6,0,P|412:347|374:349,1,62.9999980773926,2|0,1:2|0:2,0:0:0:0:
376,349,29788,1,0,1:2:0:0:
256,315,29904,1,0,1:2:0:0:
136,363,30019,6,0,P|48:365|9:321,1,150,6|0,1:2|0:0,0:0:0:0:
121,192,30365,1,0,0:0:0:0:
121,192,30481,2,0,P|123:230|128:278,1,75,2|0,1:2|0:0,0:0:0:0:
230,355,30711,1,0,0:0:0:0:
136,363,30827,1,0,0:0:0:0:
223,260,30942,2,0,B|274:260|274:260|315:280|315:280|372:280,1,150,2|0,1:2|0:0,0:0:0:0:
496,321,31288,1,0,0:0:0:0:
496,321,31404,2,0,P|479:283|465:225,1,75,2|0,1:2|0:0,0:0:0:0:
439,121,31634,2,0,P|414:153|371:195,1,75,0|0,0:0|0:0,0:0:0:0:
496,41,31865,6,0,P|426:78|359:60,1,150,2|0,1:2|0:0,0:0:0:0:
239,15,32211,1,0,0:0:0:0:
239,15,32327,2,0,P|256:47|259:85,1,75,2|0,1:2|0:0,0:0:0:0:
285,213,32558,2,0,P|304:181|335:159,1,75,2|0,0:0|0:0,0:0:0:0:
195,157,32788,1,2,1:2:0:0:
97,145,32904,1,0,0:0:0:0:
0,132,33019,2,0,P|6:169|12:222,1,75,2|0,0:0|0:0,0:0:0:0:
0,298,33250,2,0,P|52:242|123:240,1,150,2|0,1:2|0:0,0:0:0:0:
119,227,33711,6,0,P|189:260|255:240,1,150,2|0,1:2|0:0,0:0:0:0:
403,319,34058,1,8,0:0:0:0:
403,319,34173,2,0,P|367:314|329:314,1,75,2|0,1:2|0:0,0:0:0:0:
321,163,34404,2,0,P|358:163|395:158,1,75,8|0,0:0|0:0,0:0:0:0:
255,239,34634,2,0,B|208:231|208:231|161:240|161:240|104:233,1,150,2|0,1:2|0:0,0:0:0:0:
1,139,34981,1,0,0:0:0:0:
1,139,35096,2,0,P|37:137|85:131,1,75,10|0,0:2|0:0,0:0:0:0:
205,49,35327,2,0,P|165:47|130:42,1,75,8|0,0:0|0:0,0:0:0:0:
289,123,35558,6,0,P|346:166|425:156,1,150,2|0,1:2|0:0,0:0:0:0:
492,79,35904,1,8,0:0:0:0:
492,79,36019,2,0,P|485:36|480:-12,1,75,2|0,1:2|0:0,0:0:0:0:
420,158,36250,2,0,P|426:200|432:249,1,75,10|0,0:0|0:0,0:0:0:0:
366,383,36481,1,2,1:2:0:0:
442,324,36596,1,8,0:0:0:0:
272,366,36711,2,0,P|235:366|192:365,1,75,2|0,0:0|0:0,0:0:0:0:
101,328,36942,2,0,P|173:321|218:264,1,150,6|8,1:2|0:0,0:0:0:0:
228,267,37404,6,0,P|219:193|212:109,1,150,6|0,1:2|0:0,0:0:0:0:
106,17,37750,1,0,0:0:0:0:
106,17,37865,2,0,P|109:55|112:91,1,75,2|0,1:2|0:0,0:0:0:0:
124,191,38096,1,0,0:0:0:0:
29,150,38211,1,0,0:0:0:0:
212,117,38327,2,0,P|279:118|365:117,1,150,2|0,1:2|0:0,0:0:0:0:
466,155,38673,1,0,0:0:0:0:
466,155,38788,2,0,P|468:117|474:80,1,75,2|0,1:2|0:0,0:0:0:0:
384,221,39019,2,0,P|389:258|391:295,1,75,0|0,0:0|0:0,0:0:0:0:
361,117,39250,6,0,P|334:198|274:215,1,150,2|0,1:2|0:0,0:0:0:0:
149,319,39596,1,0,0:0:0:0:
149,319,39711,2,0,P|189:313|235:310,1,75,2|0,1:2|0:0,0:0:0:0:
86,229,39942,2,0,P|45:234|0:238,1,75,2|0,0:0|0:0,0:0:0:0:
153,142,40173,1,2,1:2:0:0:
256,186,40288,1,0,0:0:0:0:
359,142,40404,2,0,P|353:103|349:59,1,75,2|0,0:0|0:0,0:0:0:0:
283,0,40634,2,0,P|354:22|432:15,1,150,2|0,1:2|0:0,0:0:0:0:
444,8,41096,6,0,B|509:65|467:145,1,150,2|0,1:2|0:0,0:0:0:0:
407,237,41442,1,8,0:0:0:0:
407,237,41558,2,0,P|444:241|477:260,1,75,2|0,1:2|0:0,0:0:0:0:
329,162,41789,2,0,P|293:167|237:171,1,75,8|0,0:0|0:0,0:0:0:0:
195,278,42019,2,0,P|145:242|61:250,1,150,2|0,1:2|0:0,0:0:0:0:
155,135,42365,1,0,0:0:0:0:
155,135,42481,2,0,P|167:99|176:50,1,75,10|0,0:2|0:0,0:0:0:0:
337,62,42711,2,0,P|345:99|357:135,1,75,8|0,0:0|0:0,0:0:0:0:
370,309,42942,6,0,P|434:275|451:202,1,150,2|0,1:2|0:0,0:0:0:0:
278,251,43288,1,0,0:0:0:0:
278,251,43404,2,0,P|242:256|202:260,1,75,2|0,1:2|0:0,0:0:0:0:
124,353,43634,2,0,P|162:356|198:361,1,75,2|0,0:0|0:0,0:0:0:0:
32,281,43865,1,2,1:2:0:0:
32,281,43981,1,0,0:0:0:0:
32,281,44096,2,0,P|26:240|21:207,1,75,2|0,0:0|0:0,0:0:0:0:
50,99,44327,2,0,P|11:104|-32:106,1,75,6|0,1:2|0:0,0:0:0:0:
144,153,44558,2,0,P|183:148|226:146,1,75,0|0,1:2|0:0,0:0:0:0:
357,169,44788,6,0,P|354:135|348:95,1,75,6|0,1:2|0:0,0:0:0:0:
461,229,45019,2,0,P|463:191|468:150,1,75,0|0,0:0|0:0,0:0:0:0:
348,184,45250,2,0,P|345:150|339:110,1,75,8|0,0:2|0:0,0:0:0:0:
450,243,45481,2,0,P|452:205|457:164,1,75,0|0,0:0|0:0,0:0:0:0:
378,352,45711,1,2,1:2:0:0:
331,377,45827,1,0,0:0:0:0:
278,379,45942,1,0,0:0:0:0:
232,351,46058,1,0,0:0:0:0:
203,307,46173,2,0,P|165:313|125:320,1,75,8|0,0:2|0:0,0:0:0:0:
12,342,46404,1,0,0:0:0:0:
12,342,46634,6,0,P|5:308|-5:263,1,75,2|0,1:2|0:0,0:0:0:0:
118,283,46865,2,0,L|103:208,1,75,0|0,0:0|0:0,0:0:0:0:
26,353,47096,2,0,P|19:319|9:274,1,75,8|0,0:2|0:0,0:0:0:0:
132,299,47327,2,0,L|117:224,1,75,0|0,0:0|0:0,0:0:0:0:
238,329,47558,1,2,1:2:0:0:
288,344,47673,1,0,0:0:0:0:
339,332,47788,1,0,0:0:0:0:
379,298,47904,1,0,0:0:0:0:
393,247,48019,2,0,P|426:268|461:290,1,75,8|0,0:2|0:0,0:0:0:0:
283,158,48250,1,0,0:0:0:0:
283,158,48481,6,0,B|228:177|175:159|175:159|121:140|59:160,1,225,10|8,0:2|0:0,0:0:0:0:
0,44,48942,2,0,P|34:55|88:64,1,75,0|0,1:2|0:0,0:0:0:0:
89,249,49173,2,0,P|52:255|16:267,1,75,10|0,0:0|0:0,0:0:0:0:
162,154,49404,2,0,B|214:149|214:149|258:161|258:161|309:155,1,150,2|0,1:2|0:0,0:0:0:0:
435,263,49750,1,0,0:0:0:0:
435,263,49865,2,0,P|397:261|343:257,1,75,10|0,0:2|0:0,0:0:0:0:
236,171,50096,2,0,P|273:169|310:166,1,75,10|0,0:0|0:0,0:0:0:0:
165,244,50327,6,0,P|127:242|73:238,1,75,2|0,1:2|0:2,0:0:0:0:
76,232,50500,1,0,0:0:0:0:
64,224,50558,2,0,P|75:264|76:307,1,75,2|8,0:0|0:0,0:0:0:0:
0,159,50788,2,0,P|61:164|122:99,1,150,2|10,1:2|0:0,0:0:0:0:
212,30,51134,1,0,0:0:0:0:
212,30,51250,2,0,P|250:35|298:40,1,75,2|8,1:2|0:0,0:0:0:0:
427,158,51481,2,0,P|464:162|501:166,1,75,2|0,0:0|0:0,0:0:0:0:
472,63,51711,2,0,P|435:59|398:55,1,75,6|0,1:2|0:0,0:0:0:0:
315,141,51942,2,0,P|278:137|241:133,1,75,2|0,1:2|0:0,0:0:0:0:
116,151,52173,6,0,P|130:119|146:74,1,75,6|0,1:2|0:0,0:0:0:0:
19,233,52404,2,0,P|10:197|0:157,1,75,0|0,0:0|0:0,0:0:0:0:
125,169,52634,2,0,L|153:95,1,75,8|0,0:2|0:0,0:0:0:0:
33,246,52865,2,0,P|24:210|14:170,1,75,2|0,0:0|0:0,0:0:0:0:
60,360,53096,1,2,1:2:0:0:
109,375,53211,1,0,0:0:0:0:
159,358,53327,1,0,0:0:0:0:
190,316,53442,1,0,0:0:0:0:
183,263,53558,2,0,P|218:267|274:273,1,75,8|0,0:2|0:0,0:0:0:0:
369,310,53788,2,0,P|363:351|361:394,1,75,2|0,0:0|0:0,0:0:0:0:
449,226,54019,6,0,P|439:189|434:142,1,75,2|0,1:2|0:0,0:0:0:0:
325,110,54250,2,0,P|332:74|338:31,1,75,0|0,0:0|0:0,0:0:0:0:
460,234,54481,2,0,P|450:197|445:150,1,75,8|0,0:2|0:0,0:0:0:0:
336,118,54712,2,0,P|343:82|349:39,1,75,2|0,0:0|0:0,0:0:0:0:
233,182,54942,1,2,1:2:0:0:
184,160,55058,1,0,0:0:0:0:
131,162,55173,1,0,0:0:0:0:
86,189,55288,1,0,0:0:0:0:
59,233,55404,2,0,P|20:227|-24:224,1,75,8|0,0:2|0:0,0:0:0:0:
165,281,55634,1,0,0:0:0:0:
165,281,55865,6,0,P|232:192|342:185,1,225,6|8,1:2|0:0,0:0:0:0:
435,208,56327,2,0,P|377:162|368:88,1,150,0|10,1:2|0:0,0:0:0:0:
464,113,56673,1,0,0:0:0:0:
512,267,56788,2,0,P|441:269|363:272,1,150,2|0,1:2|0:0,0:0:0:0:
230,200,57134,1,0,0:0:0:0:
230,200,57250,2,0,P|222:120|214:46,1,150,10|8,0:0|0:0,0:0:0:0:
157,284,57596,1,0,0:0:0:0:
95,369,57711,6,0,P|189:313|295:344,1,225,6|0,1:2|0:0,0:0:0:0:
402,363,58173,2,0,P|438:353|474:342,1,75,8|0,0:2|0:0,0:0:0:0:
434,251,58404,2,0,P|398:262|362:272,1,75,8|0,0:0|0:0,0:0:0:0:
228,316,58634,1,4,1:2:0:0:
228,316,58750,2,0,P|148:318|101:271,1,150,8|0,0:0|0:0,0:0:0:0:
127,164,59096,2,0,P|132:130|139:88,1,75,8|0,0:2|0:0,0:0:0:0:
260,131,59327,2,0,P|264:166|272:207,1,75,8|0,0:0|0:0,0:0:0:0:
127,164,59558,6,0,B|88:153|48:164|48:164|9:176|-22:164,1,150,4|0,1:2|0:0,0:0:0:0:
101,271,59904,1,0,0:0:0:0:
101,271,60019,2,0,P|164:269|225:211,1,150,8|0,0:2|0:0,0:0:0:0:
214,104,60365,1,0,0:0:0:0:
127,164,60481,1,0,1:2:0:0:
312,153,60596,2,0,P|385:154|461:153,1,150
346,291,60942,2,0,P|271:290|196:290,1,150,8|0,0:2|0:0,0:0:0:0:
420,363,61288,1,0,0:0:0:0:
415,217,61404,6,0,P|399:202|416:89,1,150,0|0,1:2|0:0,0:0:0:0:
327,6,61750,1,0,0:0:0:0:
327,6,61865,2,0,B|292:37|292:37|236:37|236:37|190:66,1,150,8|0,0:0|0:0,0:0:0:0:
114,153,62211,1,0,0:0:0:0:
100,53,62327,1,0,1:2:0:0:
218,161,62442,2,0,P|250:226|217:295,1,150,0|0,0:0|0:0,0:0:0:0:
273,383,62788,2,0,P|214:343|141:361,1,150,8|0,0:0|0:0,0:0:0:0:
83,257,63134,1,0,0:0:0:0:
220,292,63250,6,0,B|273:292|273:292|311:273|311:273|365:273,1,150,8|0,0:2|0:0,0:0:0:0:
457,120,63596,1,8,0:0:0:0:
457,120,63711,2,0,B|453:216|453:216|438:193|414:180,1,150,0|8,1:2|0:0,0:0:0:0:
354,3,64058,1,0,0:0:0:0:
464,12,64173,1,0,1:2:0:0:
344,111,64288,2,0,P|261:107|188:103,1,150,8|0,0:0|0:0,0:0:0:0:
53,92,64634,1,8,0:0:0:0:
53,92,64865,1,8,0:0:0:0:
194,103,64981,1,0,0:0:0:0:
304,193,65096,6,0,P|398:185|417:61,1,225,8|8,0:2|0:0,0:0:0:0:
304,193,65558,2,0,P|310:272|317:350,1,150,0|8,1:2|0:0,0:0:0:0:
414,379,65904,1,0,0:0:0:0:
411,284,66019,1,0,1:2:0:0:
217,377,66134,2,0,B|178:387|139:377|139:377|97:366|65:376,1,150,8|0,0:0|0:0,0:0:0:0:
8,276,66481,2,0,P|21:208|89:170,1,150,8|8,0:0|0:0,0:0:0:0:
190,183,66827,1,0,0:0:0:0:
216,52,66942,6,0,P|269:98|352:89,1,150,4|0,1:2|0:0,0:0:0:0:
478,176,67288,1,0,0:0:0:0:
478,176,67404,2,0,B|408:176|408:176|376:199|331:202,1,150,8|0,0:0|0:0,0:0:0:0:
200,168,67750,1,0,0:0:0:0:
320,215,67865,1,0,1:2:0:0:
190,183,67981,2,0,P|119:197|64:149,1,150,0|0,0:0|0:0,0:0:0:0:
6,74,68327,2,0,P|8:149|11:237,1,150,8|0,0:0|0:0,0:0:0:0:
119,241,68673,1,0,0:0:0:0:
0,384,68788,6,0,P|65:353|146:370,1,150,0|0,1:2|0:0,0:0:0:0:
119,241,69134,1,0,0:0:0:0:
226,252,69250,2,0,P|301:260|378:267,1,150,8|0,0:0|0:0,0:0:0:0:
477,383,69596,1,0,0:0:0:0:
370,375,69711,1,0,1:2:0:0:
482,277,69827,2,0,P|423:232|419:158,1,150,0|0,0:0|0:0,0:0:0:0:
463,63,70173,2,0,B|427:105|376:106|376:106|326:105,1,150,8|0,0:0|0:0,0:0:0:0:
256,196,70519,1,0,0:0:0:0:
185,278,70634,6,0,B|136:278|136:278|85:279|49:321,1,150,8|0,0:0|0:0,0:0:0:0:
15,161,70981,1,8,0:0:0:0:
157,209,71096,2,0,P|198:278|261:296,1,150,0|8,1:2|0:0,0:0:0:0:
433,312,71442,1,0,0:0:0:0:
311,376,71558,1,0,1:2:0:0:
390,228,71673,2,0,B|376:189|390:155|390:155|405:118|390:78,1,150,8|0,0:0|0:0,0:0:0:0:
254,114,72019,1,8,0:0:0:0:
254,114,72250,1,8,0:0:0:0:
390,82,72365,1,0,0:0:0:0:
265,217,72481,6,0,P|180:189|168:55,1,225,8|8,0:0|0:0,0:0:0:0:
331,146,72942,2,0,P|324:220|318:314,1,150,0|8,1:2|0:0,0:0:0:0:
467,384,73288,1,0,0:0:0:0:
452,296,73404,1,0,1:2:0:0:
311,384,73519,2,0,P|258:335|181:346,1,150,8|0,0:0|0:0,0:0:0:0:
146,223,73865,2,0,P|93:272|16:261,1,150,8|8,0:0|0:0,0:0:0:0:
0,147,74211,1,0,0:0:0:0:
146,223,74327,6,0,P|180:220|221:217,1,75,4|0,1:2|0:0,0:0:0:0:
209,321,74558,2,0,P|246:318|284:315,1,75,0|0,0:0|0:0,0:0:0:0:
151,236,74788,2,0,P|185:233|226:230,1,75,8|0,0:0|0:0,0:0:0:0:
215,333,75019,2,0,P|252:330|290:327,1,75,0|0,0:0|0:0,0:0:0:0:
393,375,75250,1,0,1:2:0:0:
444,384,75365,1,0,0:0:0:0:
492,363,75481,1,0,0:0:0:0:
511,314,75596,1,0,0:0:0:0:
499,263,75711,2,0,P|495:223|494:181,1,75,8|0,0:0|0:0,0:0:0:0:
510,77,75942,1,0,0:0:0:0:
510,77,76173,6,0,P|464:71|424:48,1,75,0|0,1:2|0:0,0:0:0:0:
294,156,76404,2,0,P|328:141|365:137,1,75,0|0,0:0|0:0,0:0:0:0:
508,91,76634,2,0,P|462:85|422:62,1,75,8|0,0:0|0:0,0:0:0:0:
294,170,76865,2,0,P|328:155|365:151,1,75,0|0,0:0|0:0,0:0:0:0:
192,108,77096,1,0,1:2:0:0:
151,141,77211,1,0,0:0:0:0:
100,149,77327,1,0,0:0:0:0:
52,126,77442,1,0,0:0:0:0:
27,79,77558,2,0,P|31:45|35:5,1,75,8|0,0:0|0:0,0:0:0:0:
13,215,77788,1,0,0:0:0:0:
13,215,78019,6,0,P|41:299|166:311,1,225,8|8,0:2|0:0,0:0:0:0:
260,365,78481,2,0,B|314:360|314:360|353:373|353:373|415:370,1,150,0|8,1:2|0:0,0:0:0:0:
502,263,78827,1,0,0:0:0:0:
509,362,78942,1,0,1:2:0:0:
402,271,79058,2,0,P|464:233|492:161,1,150,8|0,0:0|0:0,0:0:0:0:
485,39,79404,1,8,0:0:0:0:
485,39,79634,1,8,0:0:0:0:
491,163,79750,1,0,0:0:0:0:
380,108,79865,6,0,B|323:120|268:90|268:90|219:63|162:73,1,225,8|8,0:2|0:0,0:0:0:0:
71,124,80327,2,0,P|33:195|51:264,1,150,0|8,1:2|0:0,0:0:0:0:
102,378,80673,1,0,0:0:0:0:
7,350,80788,1,0,1:2:0:0:
148,281,80904,2,0,B|199:280|199:280|246:297|246:297|300:297,1,150,8|0,0:0|0:0,0:0:0:0:
315,384,81250,2,0,P|332:315|414:282,1,150,8|8,0:2|0:0,0:0:0:0:
427,185,81596,1,0,0:0:0:0:
451,86,81711,6,0,P|445:48|440:11,1,75,4|0,1:2|0:0,0:0:0:0:
310,168,81942,2,0,P|315:130|321:93,1,75,0|0,0:0|0:0,0:0:0:0:
461,97,82173,2,0,P|455:59|450:22,1,75,8|0,0:0|0:0,0:0:0:0:
320,179,82404,2,0,P|325:141|331:104,1,75,0|0,0:0|0:0,0:0:0:0:
397,282,82634,1,0,1:2:0:0:
349,304,82750,1,0,0:0:0:0:
296,304,82865,1,0,0:0:0:0:
247,282,82981,1,0,0:0:0:0:
211,243,83096,2,0,P|175:248|132:254,1,75,8|0,0:0|0:0,0:0:0:0:
18,275,83327,1,0,0:0:0:0:
18,275,83558,6,0,P|27:234|34:191,1,75,0|0,1:2|0:0,0:0:0:0:
122,327,83788,2,0,P|129:287|138:243,1,75,0|0,0:0|0:0,0:0:0:0:
25,290,84019,2,0,P|34:249|41:206,1,75,8|0,0:0|0:0,0:0:0:0:
129,342,84249,2,0,P|136:302|145:258,1,75,0|0,0:0|0:0,0:0:0:0:
235,380,84481,1,0,1:2:0:0:
270,341,84596,1,0,0:0:0:0:
319,323,84711,1,0,0:0:0:0:
371,330,84827,1,0,0:0:0:0:
414,359,84942,2,0,P|452:370|489:367,1,75,8|0,0:0|0:0,0:0:0:0:
512,252,85173,1,0,0:0:0:0:
512,252,85404,6,0,P|397:233|332:146,1,225,4|0,1:2|0:0,0:0:0:0:
339,50,85865,2,0,P|299:117|223:135,1,150,8|8,0:0|0:0,0:0:0:0:
65,120,86211,1,0,0:0:0:0:
152,95,86327,1,4,1:2:0:0:
34,209,86442,2,0,P|47:284|108:322,1,150,8|0,0:0|0:0,0:0:0:0:
242,292,86788,1,8,0:0:0:0:
242,292,87019,1,8,0:0:0:0:
105,321,87134,1,0,0:0:0:0:
195,183,87250,6,0,P|262:243|359:233,1,180,4|8,0:0|0:0,0:0:0:0:
417,184,87711,2,0,P|409:238|403:317,1,120,0|8,0:0|0:0,0:0:0:0:
208,303,88173,1,0,0:0:0:0:
208,302,88288,2,0,P|202:242|194:182,1,120,8|0,0:0|0:0,0:0:0:0:
148,104,88634,2,0,P|203:126|262:121,1,120,8|2,0:0|1:2,0:0:0:0:
361,179,88981,1,0,1:2:0:0:
251,213,89096,6,0,B|228:65|228:65|245:99|263:122,1,215.999993408203,6|0,0:2|0:0,0:0:0:0:
330,288,90019,2,0,P|225:315|149:242,1,215.999993408203,2|0,0:0|0:0,0:0:0:0:
109,132,90942,2,0,P|105:248|99:372,1,215.999993408203,2|0,0:0|0:0,0:0:0:0:
0,373,91865,2,0,B|60:394|106:372|106:372|153:350|213:373,1,215.999993408203,2|0,0:0|0:0,0:0:0:0:
333,261,92788,6,0,P|434:295|516:222,1,215.999993408203,2|2,0:0|0:0,0:0:0:0:
349,63,93711,2,0,P|346:117|341:180,1,107.999996704102,2|0,0:0|0:0,0:0:0:0:
333,261,94173,1,2,0:0:0:0:
220,284,94404,1,2,0:0:0:0:
433,358,94634,6,0,P|470:353|524:350,1,71.9999978027344,2|0,0:0|0:0,0:0:0:0:
333,261,95096,2,0,P|292:266|252:268,1,71.9999978027344,2|2,0:0|0:0,0:0:0:0:
220,284,95442,1,0,0:0:0:0:
178,298,95558,1,2,0:0:0:0:
64,264,95788,1,2,0:0:0:0:
209,169,96019,1,2,0:0:0:0:
49,120,96250,1,2,1:2:0:0:
237,35,96481,6,0,P|296:42|374:49,1,120,6|0,1:2|0:0,0:0:0:0:
168,133,96942,2,0,P|108:125|30:118,1,120,0|0,1:2|0:0,0:0:0:0:
49,120,97288,1,2,0:0:0:0:
279,209,97404,2,0,P|338:216|416:223,1,120,0|0,1:2|0:0,0:0:0:0:
120,275,97865,2,0,P|60:267|-18:260,1,120,0|0,1:2|0:0,0:0:0:0:
0,261,98211,1,2,0:0:0:0:
106,360,98327,6,0,P|153:324|217:317,1,120,0|0,1:2|0:0,0:0:0:0:
344,261,98788,2,0,P|396:286|464:273,1,120,0|0,1:2|0:0,0:0:0:0:
455,277,99134,1,2,0:0:0:0:
455,106,99250,2,0,P|397:97|344:123,1,120,0|0,1:2|0:0,0:0:0:0:
211,67,99711,2,0,P|153:60|106:23,1,120,0|0,1:2|0:0,0:0:0:0:
48,160,100173,6,0,P|61:219|74:290,1,120,6|0,1:2|0:0,0:0:0:0:
191,384,100634,2,0,P|202:325|214:266,1,120,0|2,1:0|0:0,0:0:0:0:
214,266,100981,1,0,0:0:0:0:
323,156,101096,2,0,P|334:214|345:273,1,120,2|0,1:2|0:0,0:0:0:0:
467,384,101558,2,0,P|478:325|490:266,1,120,2|0,1:2|0:0,0:0:0:0:
505,127,102019,6,0,P|423:162|314:153,1,192,6|0,1:2|0:0,0:0:0:0:
130,89,102711,1,0,0:0:0:0:
296,50,102942,6,0,B|314:98|287:148|287:148|255:205|274:254,1,210,4|0,0:0|0:0,0:0:0:0:
273,251,103404,1,2,1:2:0:0:
449,296,103634,1,2,1:2:0:0:
189,308,103865,6,0,P|153:310|95:317,1,75,6|0,1:2|0:0,0:0:0:0:
32,201,104096,2,0,P|69:205|106:207,1,75,0|0,0:0|0:0,0:0:0:0:
194,320,104327,2,0,P|158:322|100:329,1,75,8|0,0:2|0:0,0:0:0:0:
26,215,104558,2,0,P|63:219|100:221,1,75,0|0,0:0|0:0,0:0:0:0:
268,235,104788,1,2,1:2:0:0:
293,281,104904,1,0,0:0:0:0:
343,293,105019,1,0,0:0:0:0:
394,286,105134,1,0,0:0:0:0:
425,243,105250,2,0,P|419:207|413:164,1,75,8|0,0:2|0:0,0:0:0:0:
452,368,105481,1,0,0:0:0:0:
452,368,105711,6,0,P|488:363|532:357,1,75,2|0,1:2|0:0,0:0:0:0:
343,293,105942,2,0,P|306:299|263:304,1,75,0|0,0:0|0:0,0:0:0:0:
443,359,106173,2,0,P|479:354|517:349,1,75,8|0,0:2|0:0,0:0:0:0:
350,280,106404,2,0,P|313:286|270:291,1,75,0|0,0:0|0:0,0:0:0:0:
464,235,106634,1,2,1:2:0:0:
469,182,106750,1,0,0:0:0:0:
476,130,106865,1,0,0:0:0:0:
481,77,106981,1,0,0:0:0:0:
488,25,107096,2,0,P|452:39|410:44,1,75,8|0,0:2|0:0,0:0:0:0:
326,127,107327,1,0,0:0:0:0:
326,127,107558,6,0,P|251:59|126:54,1,225,10|8,0:2|0:0,0:0:0:0:
10,47,108019,2,0,P|28:82|42:114,1,75,0|0,1:2|0:0,0:0:0:0:
103,223,108250,2,0,P|119:188|136:155,1,75,10|0,0:0|0:0,0:0:0:0:
132,52,108481,2,0,P|200:59|302:54,1,150,2|8,1:2|0:0,0:0:0:0:
428,119,108827,1,0,0:0:0:0:
428,119,108942,2,0,P|389:125|351:130,1,75,10|0,0:0|0:0,0:0:0:0:
245,206,109173,2,0,P|276:212|337:224,1,75,10|0,0:0|0:0,0:0:0:0:
464,287,109404,6,0,P|425:293|387:298,1,75,2|0,1:2|0:0,0:0:0:0:
385,309,109577,1,0,0:0:0:0:
381,322,109634,2,0,P|343:325|291:331,1,75,2|8,0:0|0:0,0:0:0:0:
200,384,109865,2,0,P|147:333|72:333,1,150,2|10,1:2|0:0,0:0:0:0:
166,225,110211,1,0,0:0:0:0:
166,225,110327,2,0,P|179:189|186:148,1,75,2|8,1:2|0:0,0:0:0:0:
326,152,110558,2,0,P|333:189|346:225,1,75,2|0,0:0|0:0,0:0:0:0:
399,343,110788,2,0,P|357:339|296:338,1,75,6|0,1:2|0:0,0:0:0:0:
187,337,111019,2,0,P|150:339|113:343,1,75,2|0,0:0|0:0,0:0:0:0:
17,186,111250,6,0,P|25:221|33:266,1,75,6|0,1:2|0:0,0:0:0:0:
117,128,111481,2,0,P|125:163|133:208,1,75,0|0,0:0|0:0,0:0:0:0:
23,174,111711,2,0,P|31:209|39:254,1,75,8|0,0:0|0:0,0:0:0:0:
123,116,111942,2,0,P|131:151|139:196,1,75,2|0,0:0|0:0,0:0:0:0:
231,269,112173,1,2,1:2:0:0:
274,298,112288,1,0,0:0:0:0:
326,295,112404,1,0,0:0:0:0:
369,266,112519,1,0,0:0:0:0:
388,217,112634,2,0,P|421:219|462:221,1,75,8|0,0:0|0:0,0:0:0:0:
312,128,112865,2,0,P|315:86|319:31,1,75,2|0,0:0|0:0,0:0:0:0:
217,195,113096,6,0,P|224:231|231:275,1,75,2|0,1:2|0:0,0:0:0:0:
361,254,113327,2,0,P|351:288|342:339,1,75,0|0,0:0|0:0,0:0:0:0:
230,206,113558,2,0,P|237:242|244:286,1,75,8|0,0:0|0:0,0:0:0:0:
369,266,113789,2,0,P|359:300|350:351,1,75,2|0,0:0|0:0,0:0:0:0:
483,207,114019,1,2,1:2:0:0:
510,162,114134,1,0,0:0:0:0:
496,110,114250,1,0,0:0:0:0:
452,80,114365,1,0,0:0:0:0:
399,88,114481,2,0,P|364:93|313:85,1,75,8|0,0:0|0:0,0:0:0:0:
229,5,114711,1,0,0:0:0:0:
229,5,114942,6,0,P|170:88|48:84,1,225,6|8,1:2|0:0,0:0:0:0:
179,133,115404,2,0,P|189:228|226:272,1,150,0|10,1:2|0:0,0:0:0:0:
366,280,115750,1,0,0:0:0:0:
278,352,115865,2,0,P|211:318|135:324,1,150,6|0,1:2|0:0,0:0:0:0:
366,280,116211,1,0,0:0:0:0:
366,280,116327,2,0,P|444:274|523:267,1,150,10|8,0:0|0:0,0:0:0:0:
274,317,116673,1,0,0:0:0:0:
184,354,116788,6,0,P|84:354|23:253,1,225,6|0,1:2|0:0,0:0:0:0:
95,157,117250,2,0,P|75:122|57:91,1,75,8|0,0:0|0:0,0:0:0:0:
217,130,117481,2,0,P|237:160|277:217,1,75,8|0,0:0|0:0,0:0:0:0:
351,319,117711,1,4,1:2:0:0:
351,319,117827,2,0,P|354:246|408:197,1,150,8|0,0:0|1:2,0:0:0:0:
512,182,118173,6,0,P|430:170|403:86,1,174.000005310059,6|0,1:2|1:2,0:0:0:0:
456,4,118519,1,0,1:2:0:0:
304,122,118634,6,0,B|255:122|255:122|207:100|207:100|159:100,1,150,6|0,1:2|0:0,0:0:0:0:
71,195,118981,1,0,0:0:0:0:
71,195,119096,2,0,P|65:243|61:278,1,75,2|0,1:2|0:0,0:0:0:0:
198,384,119327,2,0,P|191:340|185:301,1,75,0|0,0:0|0:0,0:0:0:0:
66,107,119558,2,0,P|92:168|168:195,1,150,2|0,1:2|0:0,0:0:0:0:
261,306,119904,1,0,0:0:0:0:
261,306,120019,2,0,P|217:307|176:310,1,75,2|0,1:2|0:0,0:0:0:0:
302,172,120250,2,0,P|345:174|383:175,1,75,0|0,0:2|0:0,0:0:0:0:
485,311,120481,6,0,P|420:364|344:347,1,150,2|0,1:2|0:0,0:0:0:0:
376,174,120827,1,0,0:0:0:0:
376,174,120942,2,0,P|386:221|399:271,1,75,2|0,1:2|0:0,0:0:0:0:
248,294,121173,2,0,P|237:246|225:195,1,75,2|0,0:0|0:0,0:0:0:0:
258,24,121404,2,0,P|268:71|279:121,1,75,2|0,1:2|0:0,0:0:0:0:
131,161,121635,2,0,P|120:113|109:65,1,75,2|0,0:0|0:0,0:0:0:0:
89,252,121865,2,0,P|157:260|221:199,1,150,2|0,1:2|0:0,0:0:0:0:
224,201,122327,6,0,P|187:266|216:344,1,150,2|0,1:2|0:0,0:0:0:0:
408,314,122673,1,8,0:0:0:0:
408,314,122788,2,0,P|369:294|328:286,1,75,2|0,1:2|0:0,0:0:0:0:
344,153,123019,2,0,P|386:143|422:123,1,75,8|0,0:0|0:0,0:0:0:0:
224,201,123250,2,0,P|143:188|39:178,1,150,2|0,1:2|0:0,0:0:0:0:
238,20,123596,1,8,0:0:0:0:
238,20,123711,2,0,P|246:61|258:112,1,75,2|0,1:2|0:0,0:0:0:0:
418,142,123942,2,0,P|375:149|327:154,1,75,8|0,0:0|0:0,0:0:0:0:
255,329,124173,6,0,P|210:272|223:200,1,150,2|0,1:2|0:0,0:0:0:0:
365,315,124519,1,0,0:0:0:0:
365,315,124634,2,0,P|405:311|459:306,1,75,2|0,1:2|0:0,0:0:0:0:
255,329,124865,1,2,0:0:0:0:
349,207,124981,1,0,0:0:0:0:
239,221,125096,2,0,P|198:225|146:230,1,75,2|0,1:2|0:0,0:0:0:0:
68,347,125327,2,0,P|111:354|146:376,1,75,2|0,0:0|0:0,0:0:0:0:
0,230,125558,2,0,P|54:165|26:86,1,150,6|0,1:2|0:0,0:0:0:0:
36,95,126019,6,0,B|77:121|77:121|128:122|128:122|176:149,1,150,6|0,1:2|0:0,0:0:0:0:
246,253,126365,1,0,0:0:0:0:
246,253,126481,2,0,P|200:254|154:256,1,75,2|0,1:2|0:0,0:0:0:0:
306,143,126711,2,0,P|348:141|395:137,1,75,0|0,0:0|0:0,0:0:0:0:
467,286,126942,2,0,P|402:338|315:315,1,150,2|0,1:2|0:0,0:0:0:0:
224,353,127288,1,0,0:0:0:0:
224,353,127404,2,0,P|184:358|130:368,1,75,2|0,1:2|0:0,0:0:0:0:
320,216,127634,2,0,P|314:173|303:114,1,75,0|0,1:2|0:0,0:0:0:0:
401,276,127865,6,0,B|365:291|327:276|327:276|290:262|254:278,1,150,2|0,1:2|0:0,0:0:0:0:
158,104,128211,1,0,0:0:0:0:
158,104,128327,2,0,P|154:148|147:203,1,75,2|0,1:2|0:0,0:0:0:0:
362,175,128558,2,0,P|356:131|353:96,1,75,2|0,0:0|0:0,0:0:0:0:
256,16,128788,1,2,1:2:0:0:
256,123,128904,1,0,0:0:0:0:
256,229,129019,2,0,L|257:316,1,75,2|0,0:0|0:0,0:0:0:0:
168,371,129250,2,0,P|85:378|34:309,1,150,6|0,1:2|0:0,0:0:0:0:
32,329,129711,6,0,P|52:248|127:217,1,150,6|0,1:2|0:0,0:0:0:0:
177,105,130058,1,8,0:0:0:0:
177,105,130173,2,0,P|134:101|96:93,1,75,2|0,1:2|0:0,0:0:0:0:
282,173,130404,1,8,0:0:0:0:
212,284,130519,1,0,0:0:0:0:
102,94,130634,2,0,P|181:98|250:57,1,150,2|0,1:2|0:0,0:0:0:0:
450,51,130981,1,8,0:0:0:0:
450,51,131096,2,0,P|406:54|365:56,1,75,2|0,1:2|0:0,0:0:0:0:
281,172,131327,2,0,P|319:173|368:179,1,75,8|0,0:0|0:0,0:0:0:0:
241,65,131558,6,0,P|157:69|72:71,1,150,6|0,1:2|0:0,0:0:0:0:
37,204,131904,1,0,0:0:0:0:
37,204,132019,2,0,P|16:166|21:125,1,75,2|0,1:2|0:0,0:0:0:0:
82,302,132250,2,0,P|42:316|-4:304,1,75,2|0,0:0|0:0,0:0:0:0:
188,295,132481,2,0,P|188:337|164:376,1,75,6|0,1:2|0:0,0:0:0:0:
210,190,132711,2,0,P|250:202|276:240,1,75,2|0,0:0|1:2,0:0:0:0:
122,127,132942,2,0,P|193:137|253:86,1,150,6|0,1:2|0:0,0:0:0:0:
250,90,133288,1,0,1:2:0:0:
250,90,133404,6,0,B|293:116|293:116|340:116|340:116|389:143,1,150,6|0,1:2|0:0,0:0:0:0:
498,207,133750,1,0,0:0:0:0:
498,207,133865,2,0,P|494:252|489:314,1,75,2|0,1:2|0:0,0:0:0:0:
330,364,134096,2,0,P|374:364|423:364,1,75,0|0,0:0|0:0,0:0:0:0:
364,265,134327,2,0,P|310:317|224:308,1,150,2|0,1:2|0:0,0:0:0:0:
126,254,134673,1,0,0:0:0:0:
126,254,134788,2,0,P|81:258|34:261,1,75,2|0,1:2|0:0,0:0:0:0:
185,135,135019,2,0,P|145:140|94:143,1,75,0|0,0:0|0:0,0:0:0:0:
168,36,135250,6,0,P|207:96|292:96,1,150,2|0,1:2|0:0,0:0:0:0:
422,62,135596,1,0,0:0:0:0:
422,62,135711,2,0,P|395:96|386:132,1,75,2|0,1:2|0:0,0:0:0:0:
350,267,135942,2,0,P|333:227|306:201,1,75,0|0,0:0|0:0,0:0:0:0:
439,321,136173,2,0,P|365:315|307:373,1,150,2|0,1:2|0:0,0:0:0:0:
210,209,136519,1,0,0:0:0:0:
210,209,136634,2,0,L|210:299,1,75,2|0,1:2|0:0,0:0:0:0:
70,322,136865,2,0,P|103:338|125:368,1,75,0|0,1:2|0:0,0:0:0:0:
2,203,137096,6,0,B|-6:166|16:131|16:131|40:95|31:57,1,150,6|0,1:2|0:0,0:0:0:0:
101,186,137442,1,0,0:0:0:0:
101,186,137558,2,0,P|100:232|121:272,1,75,2|0,1:2|0:0,0:0:0:0:
307,258,137788,2,0,P|319:223|317:186,1,75,0|0,0:0|0:0,0:0:0:0:
254,350,138019,2,0,P|318:314|398:325,1,150,2|0,1:2|0:0,0:0:0:0:
470,155,138365,1,0,0:0:0:0:
470,155,138481,2,0,P|461:198|453:252,1,75,2|0,1:2|0:0,0:0:0:0:
340,46,138711,2,0,P|348:89|361:146,1,75,0|0,1:2|0:0,0:0:0:0:
271,258,138942,6,0,P|200:274|148:224,1,150,6|0,1:2|0:0,0:0:0:0:
53,110,139288,1,0,0:0:0:0:
53,110,139404,2,0,P|67:62|79:22,1,75,2|0,1:2|0:0,0:0:0:0:
148,224,139634,2,0,P|133:271|123:310,1,75,2|0,0:0|0:0,0:0:0:0:
437,38,139865,2,0,P|448:73|459:110,1,75,6|0,1:2|0:0,0:0:0:0:
385,295,140095,2,0,P|375:259|363:224,1,75,2|0,1:2|0:0,0:0:0:0:
256,103,140327,5,6,1:2:0:0:
