osu file format v14

[General]
AudioFilename: audio.mp3
AudioLeadIn: 0
PreviewTime: 82330
Countdown: 0
SampleSet: Soft
StackLeniency: 0.4
Mode: 0
LetterboxInBreaks: 0
WidescreenStoryboard: 0

[Editor]
Bookmarks: 35883,53165,185883,202187
DistanceSpacing: 1.2
BeatDivisor: 2
GridSize: 4
TimelineZoom: 1.5

[Metadata]
Title:Taylor
TitleUnicode:Taylor
Artist:LhoU
ArtistUnicode:LhoU
Creator:Niva
Version:Normal
Source:
Tags:orbis fusion phantasma lhoustudio the world of sound
BeatmapID:1388452
BeatmapSetID:648127

[Difficulty]
HPDrainRate:4
CircleSize:3.5
OverallDifficulty:4
ApproachRate:6
SliderMultiplier:0.88
SliderTickRate:1

[Events]
//Background and Video events
0,0,"Lonely-Tree-Cyrodan2.jpg",0,0
//Break Periods
//Storyboard Layer 0 (Background)
//Storyboard Layer 1 (Fail)
//Storyboard Layer 2 (Pass)
//Storyboard Layer 3 (Foreground)
//Storyboard Sound Samples

[TimingPoints]
1002,326.086956521739,3,2,72,50,1,0
15675,-100,3,2,72,60,0,0
63610,-100,3,2,72,50,0,0
71110,-100,3,2,72,15,0,0
71436,-100,3,2,72,50,0,0
75349,-100,3,2,72,60,0,0
75390,-100,3,2,72,50,0,0
76328,-100,3,2,72,60,0,0
76368,-100,3,2,72,50,0,0
77306,-100,3,2,72,60,0,0
77347,-100,3,2,72,50,0,0
78284,-100,3,2,72,60,0,0
78325,-100,3,2,72,50,0,0
79262,-100,3,2,72,60,0,0
79303,-100,3,2,72,50,0,0
80241,-100,3,2,72,60,0,0
80281,-100,3,2,72,50,0,0
81219,-100,3,2,72,60,0,0
83175,-100,3,2,72,60,0,1
83991,-100,3,2,72,50,0,1
84154,-100,3,2,72,60,0,1
97849,-100,3,2,72,60,0,0
98828,-100,3,2,72,60,0,1
114480,-100,3,2,72,60,0,0
129154,-100,3,2,72,60,0,0
129969,-100,3,2,72,15,0,0
130132,-100,3,2,72,50,0,0
137958,-100,3,2,12,50,0,0
144806,-100,3,2,72,60,0,0
161436,-100,3,2,72,50,0,0
168936,-100,3,2,72,15,0,0
169262,-100,3,2,72,50,0,0
173175,-100,3,2,72,60,0,0
173216,-100,3,2,72,50,0,0
174154,-100,3,2,72,60,0,0
174194,-100,3,2,72,50,0,0
175132,-100,3,2,72,60,0,0
175173,-100,3,2,72,50,0,0
176110,-100,3,2,72,60,0,0
176151,-100,3,2,72,50,0,0
177088,-100,3,2,72,60,0,0
177129,-100,3,2,72,50,0,0
178067,-100,3,2,72,60,0,0
178107,-100,3,2,72,50,0,0
179045,-100,3,2,72,60,0,0
180023,-100,3,2,72,60,0,0
180064,-100,3,2,72,10,0,0
180186,-100,3,2,72,20,0,0
180349,-100,3,2,72,30,0,0
180512,-100,3,2,72,40,0,0
180675,-100,3,2,72,50,0,0
180838,-100,3,2,72,15,0,0
181001,-100,3,2,72,50,0,0
195675,-100,3,2,72,60,0,0
196654,-100,3,2,72,60,0,1
211572,-100,3,2,72,15,0,1
211654,-100,3,2,72,60,0,0
211980,-100,3,2,72,40,0,0
212306,-100,3,2,72,20,0,0
212632,-100,3,2,72,5,0,0

[Colours]
Combo1 : 255,253,174
Combo2 : 151,255,255
Combo3 : 43,253,190

[HitObjects]
483,357,1002,6,0,P|477:313|473:250,1,88,2|0,0:0|0:0,0:0:0:0:
463,164,1654,1,0,0:0:0:0:
379,227,1980,2,0,P|334:229|284:225,1,88,2|0,0:0|0:0,0:0:0:0:
193,267,2632,1,0,0:0:0:0:
147,171,2958,6,0,P|152:123|155:65,2,88,2|0|0,0:0|0:0|0:0,0:0:0:0:
94,262,3936,2,0,P|125:341|211:366,1,176,2|0,0:0|0:0,0:0:0:0:
309,342,4915,6,0,B|353:342|353:342|395:357|395:357|441:358,1,132,2|2,0:0|0:0,0:0:0:0:
486,379,5567,2,0,P|474:338|488:293,1,88,2|2,0:0|0:0,0:0:0:0:
470,191,6219,1,2,0:0:0:0:
457,86,6545,1,2,0:0:0:0:
359,45,6871,5,2,0:0:0:0:
262,87,7197,2,0,P|195:102|134:75,1,132,2|2,0:0|0:0,0:0:0:0:
98,43,7849,2,0,P|102:87|104:143,1,88,2|0,0:0|0:0,0:0:0:0:
109,236,8501,1,0,0:0:0:0:
78,337,8828,6,0,P|121:341|163:326,1,88,2|0,0:0|0:0,0:0:0:0:
256,277,9480,1,0,0:0:0:0:
349,326,9806,2,0,P|390:340|434:337,1,88,2|0,0:0|0:0,0:0:0:0:
509,263,10458,1,0,0:0:0:0:
496,158,10784,6,0,P|489:112|486:68,2,88,2|0|0,0:0|0:0|0:0,0:0:0:0:
413,223,11762,2,0,B|368:235|329:206|329:206|289:179|247:190,1,176,2|0,0:0|0:0,0:0:0:0:
268,294,12741,6,0,B|220:301|188:278|188:278|136:278,1,132,2|2,0:0|0:0,0:0:0:0:
90,297,13393,2,0,P|101:255|90:213,1,88,2|2,0:0|0:0,0:0:0:0:
44,117,14045,2,0,P|32:74|43:32,1,88,2|0,0:0|0:0,0:0:0:0:
139,73,14697,5,2,0:0:0:0:
237,35,15023,1,2,0:0:0:0:
336,69,15349,1,2,0:0:0:0:
435,35,15675,2,0,B|461:35|461:35|491:45|491:45|521:45,2,88,2|10|2,1:2|0:0|1:2,0:0:0:0:
417,139,16654,6,0,P|419:177|428:283,1,132,6|10,1:2|0:0,0:0:0:0:
440,320,17306,2,0,P|399:307|352:308,1,88,0|2,0:0|1:2,0:0:0:0:
256,268,17958,1,10,0:0:0:0:
154,310,18284,1,0,1:2:0:0:
66,251,18610,6,0,P|89:192|61:129,1,132,2|10,1:2|0:0,0:0:0:0:
32,89,19262,2,0,P|76:97|121:89,1,88,0|2,0:0|1:2,0:0:0:0:
200,156,19915,2,0,P|242:149|288:156,1,88,10|0,0:0|1:2,0:0:0:0:
368,221,20567,6,0,P|347:160|362:93,1,132,2|10,1:2|0:0,0:0:0:0:
351,43,21219,2,0,P|391:57|436:52,1,88,0|2,0:0|1:2,0:0:0:0:
471,153,21871,1,10,0:0:0:0:
510,250,22197,1,0,1:2:0:0:
432,321,22523,6,0,P|370:337|312:307,1,132,2|10,1:2|0:0,0:0:0:0:
265,282,23175,2,0,P|281:322|276:375,1,88,0|6,0:0|1:2,0:0:0:0:
175,340,23828,2,0,L|112:344,2,44,10|8|0,0:0|0:0|1:2,0:0:0:0:
196,236,24480,6,0,P|259:250|315:215,1,132,6|10,1:2|0:0,0:0:0:0:
361,238,25132,2,0,P|357:193|354:143,1,88,0|2,0:0|1:2,0:0:0:0:
346,44,25784,1,10,0:0:0:0:
439,92,26110,1,0,1:2:0:0:
354,150,26436,6,0,B|314:155|282:131|282:131|226:131,1,132,2|10,1:2|0:0,0:0:0:0:
184,98,27088,2,0,P|188:142|190:201,1,88,0|2,0:0|1:2,0:0:0:0:
195,291,27741,1,10,0:0:0:0:
300,288,28067,1,0,1:2:0:0:
297,182,28393,6,0,P|358:180|443:179,1,132,2|10,1:2|0:0,0:0:0:0:
479,194,29045,2,0,P|464:154|469:108,1,88,0|2,0:0|1:2,0:0:0:0:
493,7,29697,1,10,0:0:0:0:
391,37,30023,1,0,1:2:0:0:
288,63,30349,6,0,B|244:63|244:63|204:46|204:46|157:46,1,132,2|10,1:2|0:0,0:0:0:0:
108,30,31001,2,0,P|123:71|125:120,1,88,0|6,0:0|1:2,0:0:0:0:
93,215,31654,2,0,P|68:214|43:215,2,44,8|8|0,0:0|0:0|1:2,0:0:0:0:
196,196,32306,6,0,P|240:197|291:196,1,88,6|2,1:2|0:0,0:0:0:0:
385,168,32958,1,0,0:0:0:0:
362,271,33284,1,2,1:2:0:0:
396,370,33610,2,0,B|362:381|331:370|331:370|299:358|266:370,1,132,10|0,0:2|0:0,0:0:0:0:
221,384,34262,6,0,P|225:339|229:283,1,88,2|2,1:2|0:0,0:0:0:0:
171,206,34915,1,0,0:0:0:0:
113,117,35241,2,0,P|116:76|121:27,2,88,0|8|2,1:2|0:0|1:2,0:0:0:0:
14,155,36219,6,0,P|55:206|118:223,1,132,2|8,1:2|0:0,0:0:0:0:
171,206,36871,2,0,P|166:249|162:304,1,88,2|2,0:0|1:2,0:0:0:0:
239,364,37523,2,0,P|281:362|340:363,1,88,8|2,0:0|1:2,0:0:0:0:
432,368,38175,5,2,1:2:0:0:
474,271,38501,1,0,0:0:0:0:
413,184,38828,2,0,P|415:145|421:92,1,88,0|6,0:0|1:2,0:0:0:0:
329,43,39480,2,0,L|334:-4,2,44,8|8|0,0:0|0:0|1:2,0:0:0:0:
229,79,40132,6,0,P|186:85|144:66,1,88,6|2,1:2|0:0,0:0:0:0:
102,163,40784,1,0,0:0:0:0:
52,256,41110,1,2,1:2:0:0:
8,352,41436,2,0,B|57:369|95:350|95:350|138:351,1,132,10|0,0:0|0:0,0:0:0:0:
159,303,42088,6,0,P|187:336|228:348,1,88,2|2,1:2|0:0,0:0:0:0:
332,326,42741,1,0,0:0:0:0:
434,350,43067,2,0,B|464:350|464:350|495:358|495:358|523:358,2,88,0|8|2,1:2|0:0|1:2,0:0:0:0:
403,248,44045,6,0,P|428:189|403:129,1,132,2|8,1:2|0:0,0:0:0:0:
428,82,44697,2,0,P|382:84|329:82,1,88,2|2,0:0|1:2,0:0:0:0:
248,135,45349,1,8,0:0:0:0:
248,29,45675,1,2,1:2:0:0:
155,80,46001,6,0,P|110:78|67:79,2,88,2|0|2,1:2|0:0|0:0,0:0:0:0:
146,185,46980,1,6,1:2:0:0:
132,289,47306,1,8,0:0:0:0:
237,296,47632,1,0,1:2:0:0:
252,191,47958,6,0,P|295:192|349:190,1,88,6|2,1:2|0:0,0:0:0:0:
441,162,48610,1,0,0:0:0:0:
415,264,48936,1,2,1:2:0:0:
387,365,49262,2,0,P|325:385|266:361,1,132,10|0,0:2|0:2,0:0:0:0:
216,381,49915,6,0,P|228:339|214:296,1,88,2|2,1:2|0:0,0:0:0:0:
170,204,50567,1,0,0:0:0:0:
121,110,50893,2,0,P|111:68|120:21,2,88,0|8|2,1:2|0:0|1:2,0:0:0:0:
216,64,51871,6,0,B|251:75|280:64|280:64|310:53|346:65,1,132,2|8,1:2|0:0,0:0:0:0:
397,56,52523,2,0,P|377:97|382:142,1,88,2|2,0:0|1:2,0:0:0:0:
464,202,53175,2,0,P|484:161|479:116,1,88,8|2,0:0|1:2,0:0:0:0:
380,138,53828,5,2,1:2:0:0:
275,156,54154,1,0,0:0:0:0:
171,174,54480,2,0,P|128:172|81:169,1,88,0|6,0:0|1:2,0:0:0:0:
20,253,55132,2,0,L|-40:249,2,44,8|8|0,0:0|0:2|1:2,0:0:0:0:
93,329,55784,5,6,1:2:0:0:
167,256,56110,2,0,P|182:217|170:172,1,88,2|0,0:0|0:0,0:0:0:0:
104,91,56762,1,2,1:2:0:0:
42,5,57088,2,0,P|90:34|165:31,1,132,10|0,0:0|0:0,0:0:0:0:
213,11,57741,6,0,P|255:14|304:17,1,88,2|2,1:2|0:0,0:0:0:0:
405,25,58393,1,0,0:0:0:0:
344,111,58719,2,0,P|333:152|344:196,1,88,0|8,1:2|0:0,0:0:0:0:
407,279,59371,1,2,1:2:0:0:
436,379,59697,6,0,B|386:389|354:367|354:367|297:366,1,132,2|8,1:2|0:0,0:0:0:0:
290,316,60349,2,0,P|250:334|203:330,1,88,2|2,0:0|1:2,0:0:0:0:
113,379,61001,1,8,0:0:0:0:
121,273,61328,1,2,1:2:0:0:
130,167,61654,6,0,P|133:122|136:77,2,88,2|0|2,1:2|0:0|0:0,0:0:0:0:
34,211,62632,1,6,1:2:0:0:
121,273,62958,1,8,0:0:0:0:
217,230,63284,1,0,1:2:0:0:
322,237,63610,6,0,P|363:240|426:243,2,88,2|0|2,0:0|0:0|0:0,0:0:0:0:
259,151,64588,2,0,P|209:187|140:177,1,132,2|0,0:0|0:0,0:0:0:0:
94,155,65241,1,2,0:0:0:0:
66,256,65567,5,2,0:0:0:0:
42,358,65893,2,0,B|73:357|73:357|99:349|99:349|132:350,1,88,2|0,0:0|0:0,0:0:0:0:
225,384,66545,1,2,0:0:0:0:
325,350,66871,2,0,L|374:350,2,44,2|0|0,0:0|0:0|0:0,0:0:0:0:
275,367,67360,1,0,0:0:0:0:
225,384,67523,5,2,0:0:0:0:
197,282,67849,1,0,0:0:0:0:
292,236,68175,1,2,0:0:0:0:
373,306,68501,2,0,P|439:318|493:287,1,132,2|0,0:0|0:0,0:0:0:0:
510,236,69154,1,2,0:0:0:0:
498,131,69480,5,2,0:0:0:0:
489,25,69806,1,0,0:0:0:0:
402,85,70132,1,2,0:0:0:0:
409,190,70458,2,0,B|412:262|412:262|385:317|323:304,1,176,2|0,0:0|0:0,0:0:0:0:
245,372,71436,6,0,P|207:351|156:348,1,88,2|0,0:0|0:0,0:0:0:0:
59,366,72088,1,2,0:0:0:0:
94,266,72415,2,0,B|86:223|86:223|99:180|99:180|92:132,1,132,2|0,0:0|0:0,0:0:0:0:
84,84,73067,1,2,0:0:0:0:
188,99,73393,5,2,0:0:0:0:
292,114,73719,2,0,P|336:118|392:124,1,88,0|2,0:0|0:0,0:0:0:0:
468,64,74371,2,0,P|435:118|442:188,1,132,2|0,0:0|0:0,0:0:0:0:
458,233,75023,1,2,0:0:0:0:
359,271,75349,6,0,P|313:269|258:268,2,88,6|0|0,1:2|0:0|0:0,0:0:0:0:
379,167,76328,2,0,P|403:128|432:81,2,88,2|2|0,1:2|0:0|0:0,0:0:0:0:
458,233,77306,6,0,P|479:273|505:321,2,88,2|0|0,1:2|0:0|0:0,0:0:0:0:
402,143,78284,1,0,1:2:0:0:
349,51,78610,1,0,0:0:0:0:
299,143,78936,1,2,0:0:0:0:
251,237,79262,6,0,P|203:240|159:237,2,88,6|0|0,1:2|0:0|0:0,0:0:0:0:
314,322,80241,2,0,P|357:320|407:323,1,88,2|2,1:2|0:0,0:0:0:0:
500,360,80893,1,0,0:0:0:0:
480,256,81219,6,0,P|470:210|465:168,1,88,6|8,1:2|0:0,0:0:0:0:
472,117,81708,2,0,P|432:135|384:131,1,88,6|8,1:2|0:0,0:0:0:0:
337,118,82197,1,6,1:2:0:0:
236,151,82523,1,8,0:0:0:0:
135,118,82849,1,0,1:2:0:0:
152,222,83175,6,0,P|160:265|169:317,1,88,6|0,1:2|0:0,0:0:0:0:
244,381,83828,1,2,0:0:0:0:
344,348,84154,2,0,P|395:377|465:367,1,132,2|0,1:2|0:0,0:0:0:0:
509,337,84806,1,2,1:2:0:0:
477,236,85132,6,0,P|479:192|483:149,1,88,2|0,1:2|0:0,0:0:0:0:
489,42,85784,1,2,0:0:0:0:
396,92,86110,2,0,B|354:92|354:92|310:80|310:80|266:80,1,132,2|0,1:2|0:0,0:0:0:0:
224,47,86762,1,2,1:2:0:0:
195,148,87088,5,2,1:2:0:0:
172,251,87415,2,0,P|177:298|181:349,1,88,0|2,0:0|0:0,0:0:0:0:
276,381,88067,1,2,1:2:0:0:
365,325,88393,2,0,P|406:322|450:335,1,88,10|2,0:2|1:2,0:0:0:0:
482,234,89045,6,0,B|470:192|470:192|483:149,1,88,2|0,1:2|0:0,0:0:0:0:
408,74,89697,2,0,L|417:26,2,44,2|0|6,0:0|1:2|1:2,0:0:0:0:
322,135,90349,2,0,P|278:143|235:126,1,88,8|2,0:2|1:2,0:0:0:0:
141,86,91001,6,0,B|122:91|97:86|97:86|72:81|52:86,1,88,6|0,1:2|0:0,0:0:0:0:
0,174,91654,1,2,0:0:0:0:
91,226,91980,2,0,P|131:275|121:342,1,132,2|0,1:2|0:0,0:0:0:0:
91,382,92632,1,2,1:2:0:0:
196,375,92958,5,2,1:2:0:0:
302,384,93284,1,0,0:0:0:0:
406,375,93610,1,2,0:0:0:0:
511,384,93936,2,0,B|513:340|488:310|488:310|487:258,1,132,2|0,1:2|0:0,0:0:0:0:
496,205,94588,1,2,1:2:0:0:
392,226,94915,5,2,1:2:0:0:
288,246,95241,2,0,P|242:242|193:238,1,88,0|2,0:0|0:0,0:0:0:0:
108,291,95893,1,2,1:2:0:0:
111,189,96219,2,0,B|113:154|92:126|92:126|70:96|73:62,1,132,10|2,1:2|0:0,0:0:0:0:
60,14,96871,6,0,P|98:31|147:27,1,88,2|0,1:2|0:0,0:0:0:0:
246,6,97523,1,2,0:0:0:0:
349,28,97849,1,6,1:2:0:0:
143,28,98501,1,2,1:2:0:0:
105,126,98828,6,0,P|111:168|118:224,1,88,6|0,1:2|0:0,0:0:0:0:
96,316,99480,1,2,0:0:0:0:
196,282,99806,2,0,B|250:282|250:282|281:311|322:300,1,132,2|0,1:2|0:0,0:0:0:0:
371,281,100458,1,2,1:2:0:0:
431,194,100784,6,0,P|425:149|421:104,2,88,2|0|2,1:2|0:0|0:0,0:0:0:0:
475,289,101762,2,0,P|443:357|392:385,1,132,2|0,1:2|0:0,0:0:0:0:
342,383,102415,1,2,1:2:0:0:
248,333,102741,6,0,P|200:333|153:336,1,88,2|0,1:2|0:0,0:0:0:0:
54,340,103393,1,2,0:0:0:0:
19,240,103719,1,2,1:2:0:0:
95,166,104045,1,10,0:0:0:0:
176,233,104371,1,2,1:2:0:0:
160,335,104697,6,0,P|203:334|243:311,1,88,2|0,1:2|0:0,0:0:0:0:
338,354,105349,2,0,B|361:352|361:352|386:354,2,44,2|0|6,0:0|1:2|1:2,0:0:0:0:
324,249,106001,1,8,0:0:0:0:
311,143,106328,1,2,1:2:0:0:
409,180,106654,5,6,1:2:0:0:
324,249,106980,1,0,0:0:0:0:
225,209,107306,1,2,0:0:0:0:
127,249,107632,2,0,P|64:262|15:221,1,132,2|0,1:2|0:0,0:0:0:0:
3,170,108284,1,2,1:2:0:0:
80,98,108610,6,0,P|123:100|173:98,1,88,2|0,1:2|0:0,0:0:0:0:
256,40,109262,1,2,0:0:0:0:
345,98,109588,2,0,P|391:145|393:210,1,132,2|0,1:2|0:0,0:0:0:0:
375,258,110241,1,2,1:2:0:0:
389,362,110567,6,0,P|349:343|302:342,1,88,2|0,1:2|0:0,0:0:0:0:
230,267,111219,2,0,P|191:286|140:286,1,88,2|2,0:0|1:2,0:0:0:0:
67,357,111871,2,0,P|95:302|67:242,1,132,10|2,0:2|0:0,0:0:0:0:
45,194,112523,6,0,P|87:195|138:194,1,88,2|0,1:2|0:0,0:0:0:0:
212,263,113175,2,0,P|255:261|299:263,1,88,2|6,0:0|1:2,0:0:0:0:
379,192,113828,1,10,0:0:0:0:
336,95,114154,1,2,1:2:0:0:
233,118,114480,6,0,B|189:118|189:118|149:104|149:104|104:103,1,132,6|2,1:2|0:0,0:0:0:0:
52,88,115132,2,0,P|63:131|52:174,1,88,0|2,0:0|1:2,0:0:0:0:
22,272,115784,2,0,P|13:314|22:358,1,88,2|0,0:0|0:0,0:0:0:0:
118,315,116436,6,0,B|174:315|174:315|203:341|248:332,1,132,2|2,1:2|0:0,0:0:0:0:
277,373,117088,2,0,P|310:346|365:343,1,88,0|2,0:0|1:2,0:0:0:0:
437,275,117741,2,0,P|430:231|426:180,1,88,2|0,0:0|0:0,0:0:0:0:
468,90,118393,6,0,P|419:131|349:128,1,132,6|2,1:2|0:0,0:0:0:0:
310,99,119045,2,0,P|265:98|214:99,1,88,0|2,0:0|1:2,0:0:0:0:
120,68,119697,1,2,0:0:0:0:
145,170,120023,1,0,0:0:0:0:
70,244,120349,6,0,P|77:287|85:338,1,88,6|8,1:2|0:0,0:0:0:0:
118,370,120838,2,0,P|161:382|206:370,1,88,6|8,1:2|0:0,0:0:0:0:
240,334,121328,1,6,1:2:0:0:
343,354,121654,2,0,L|392:364,2,44,10|8|0,0:0|0:0|1:2,0:0:0:0:
308,254,122306,6,0,B|313:210|313:210|303:168|303:168|310:117,1,132,6|10,1:2|0:0,0:0:0:0:
321,72,122958,2,0,P|280:89|237:86,1,88,0|2,0:0|1:2,0:0:0:0:
135,58,123610,1,10,0:2:0:0:
32,84,123936,1,0,1:2:0:0:
58,186,124262,6,0,P|83:246|57:308,1,132,2|10,1:2|0:0,0:0:0:0:
35,352,124915,2,0,P|78:351|123:353,1,88,0|2,0:0|1:2,0:0:0:0:
212,297,125567,2,0,P|255:298|305:297,1,88,10|0,0:0|1:2,0:0:0:0:
389,352,126219,6,0,P|453:361|501:315,1,132,2|10,1:2|0:0,0:0:0:0:
510,266,126871,2,0,P|505:221|503:171,1,88,0|2,0:0|1:2,0:0:0:0:
495,72,127523,1,10,0:0:0:0:
405,16,127849,1,0,1:2:0:0:
308,58,128175,6,0,B|261:66|231:42|231:42|170:42,1,132,2|2,1:2|1:2,0:0:0:0:
127,34,128828,2,0,P|145:75|142:122,1,88,8|6,0:0|1:2,0:0:0:0:
98,348,130132,5,2,0:0:0:0:
201,328,130458,1,2,0:0:0:0:
304,348,130784,2,0,P|347:347|391:348,1,88,0|2,0:0|0:0,0:0:0:0:
488,306,131436,2,0,P|514:244|482:188,1,132,2|0,0:0|0:0,0:0:0:0:
507,142,132088,6,0,P|463:145|419:143,1,88,2|2,0:0|0:0,0:0:0:0:
346,65,132741,1,0,0:0:0:0:
256,121,133067,1,0,0:0:0:0:
269,225,133393,1,0,0:0:0:0:
373,239,133719,1,2,0:0:0:0:
454,306,134045,6,0,P|393:342|334:337,1,132,2|0,0:0|0:0,0:0:0:0:
290,308,134697,2,0,P|245:307|203:308,1,88,2|2,0:0|0:0,0:0:0:0:
100,335,135349,1,0,0:0:0:0:
129,233,135675,1,2,0:0:0:0:
100,131,136001,6,0,P|106:91|112:33,1,88,2|2,0:0|0:0,0:0:0:0:
209,3,136654,1,0,0:0:0:0:
308,39,136980,2,0,P|350:48|394:40,1,88,2|2,0:0|0:0,0:0:0:0:
471,236,137958,6,0,P|466:280|463:335,2,88,10|10|8,3:2|3:2|3:2,0:0:0:0:
481,130,138936,1,10,3:2:0:0:
385,176,139262,2,0,B|339:182|309:157|309:157|257:157,1,132,2|0,3:2|3:2,0:0:0:0:
242,106,139915,6,0,P|205:129|149:127,1,88,10|10,3:2|3:2,0:0:0:0:
62,93,140567,1,8,3:2:0:0:
81,196,140893,2,0,B|68:239|68:239|80:281,1,88,8|8,3:2|3:2,0:0:0:0:
62,384,141545,1,10,3:2:0:0:
161,347,141871,6,0,B|196:344|224:358|224:358|252:373|290:369,1,132,10|0,3:2|3:2,0:0:0:0:
327,333,142523,2,0,P|366:352|412:346,1,88,10|10,3:2|3:2,0:0:0:0:
473,263,143175,2,0,P|434:244|388:250,1,88,10|10,3:2|3:2,0:0:0:0:
371,144,143828,5,10,3:2:0:0:
327,47,144154,1,8,3:2:0:0:
225,18,144480,2,0,P|182:19|134:18,1,88,10|6,3:2|1:2,0:0:0:0:
50,79,145132,2,0,L|-3:79,2,44,8|8|0,0:0|0:0|1:2,0:0:0:0:
100,173,145784,6,0,P|97:220|93:265,1,88,6|2,1:2|0:0,0:0:0:0:
84,365,146436,1,0,0:0:0:0:
188,378,146762,1,2,1:2:0:0:
198,272,147088,2,0,P|257:276|346:281,1,132,10|0,0:0|0:0,0:0:0:0:
379,297,147741,6,0,P|367:256|380:213,1,88,2|2,1:2|0:0,0:0:0:0:
449,134,148393,1,0,0:0:0:0:
411,35,148719,1,0,1:2:0:0:
305,45,149045,1,8,0:0:0:0:
293,151,149371,1,2,1:2:0:0:
379,213,149697,6,0,P|321:255|260:253,1,132,2|8,1:2|0:0,0:0:0:0:
213,234,150349,2,0,P|217:279|222:336,1,88,2|2,0:0|1:2,0:0:0:0:
310,378,151001,1,8,0:0:0:0:
397,317,151328,1,2,1:2:0:0:
379,213,151654,6,0,P|373:166|370:122,1,88,2|0,1:2|0:0,0:0:0:0:
392,22,152306,1,0,0:0:0:0:
292,58,152632,1,6,1:2:0:0:
192,22,152958,2,0,P|165:12|142:2,2,44,10|8|0,0:0|0:0|1:2,0:0:0:0:
207,126,153610,5,6,1:2:0:0:
132,201,153936,2,0,B|127:222|136:244|136:244|146:267|143:289,1,88,2|0,0:0|0:0,0:0:0:0:
101,384,154588,1,2,1:2:0:0:
206,370,154915,2,0,B|241:370|270:379|270:379|303:370|337:370,1,132,10|0,0:0|0:0,0:0:0:0:
385,384,155567,6,0,P|373:342|386:300,1,88,2|2,1:2|0:0,0:0:0:0:
430,205,156219,1,0,0:0:0:0:
477,110,156545,2,0,P|473:64|471:12,2,88,0|8|2,1:2|0:0|1:2,0:0:0:0:
430,205,157523,6,0,P|365:220|310:187,1,132,2|8,1:2|0:0,0:0:0:0:
263,166,158175,2,0,P|266:208|270:264,1,88,2|2,0:0|1:2,0:0:0:0:
280,359,158828,1,8,0:0:0:0:
362,292,159154,1,2,1:2:0:0:
269,253,159480,5,2,1:2:0:0:
183,314,159806,2,0,P|137:320|86:327,1,88,0|2,0:0|0:0,0:0:0:0:
0,371,160458,1,6,1:2:0:0:
11,266,160784,2,0,L|-1:220,2,44,8|8|0,0:0|0:0|1:2,0:0:0:0:
96,326,161436,5,2,0:0:0:0:
192,283,161762,2,0,P|233:286|288:288,1,88,0|2,0:0|0:0,0:0:0:0:
350,209,162415,2,0,P|400:244|468:231,1,132,2|0,0:0|0:0,0:0:0:0:
508,199,163067,1,2,0:0:0:0:
508,304,163393,5,2,0:0:0:0:
415,354,163719,1,0,0:0:0:0:
324,300,164045,1,2,0:0:0:0:
324,194,164371,1,2,0:0:0:0:
415,138,164697,2,0,P|415:111|417:77,2,44,2|0|0,0:0|0:0|0:0,0:0:0:0:
416,190,165186,1,0,0:0:0:0:
416,242,165349,5,2,0:0:0:0:
324,300,165675,2,0,P|279:295|230:293,1,88,0|2,0:0|0:0,0:0:0:0:
163,216,166328,2,0,P|110:248|42:233,1,132,2|0,0:0|0:0,0:0:0:0:
2,201,166980,1,2,0:0:0:0:
11,95,167306,5,2,0:0:0:0:
115,105,167632,2,0,P|157:108|206:111,1,88,0|2,0:0|0:0,0:0:0:0:
299,153,168284,2,0,P|383:162|442:97,1,176,2|0,0:0|0:0,0:0:0:0:
508,181,169262,5,2,0:0:0:0:
478,282,169588,2,0,P|483:325|491:372,1,88,0|2,0:0|0:0,0:0:0:0:
389,338,170241,2,0,B|357:349|323:338|323:338|288:327|257:338,1,132,2|0,0:0|0:0,0:0:0:0:
211,360,170893,1,2,0:0:0:0:
225,255,171219,5,2,0:0:0:0:
235,149,171545,1,0,0:0:0:0:
138,191,171871,1,2,0:0:0:0:
225,255,172197,2,0,B|270:258|297:234|297:234|355:234,1,132,2|0,0:0|0:0,0:0:0:0:
401,251,172849,1,2,0:0:0:0:
381,147,173175,6,0,B|372:104|372:104|387:57,2,88,6|0|0,1:2|0:0|0:0,0:0:0:0:
483,184,174154,1,2,1:2:0:0:
501,287,174480,1,2,0:0:0:0:
419,353,174806,1,0,0:0:0:0:
319,317,175132,6,0,P|273:315|230:317,1,88,2|0,1:2|0:0,0:0:0:0:
125,319,175784,1,0,0:0:0:0:
177,227,176110,2,0,P|196:189|218:146,2,88,0|0|2,1:2|0:0|0:0,0:0:0:0:
125,319,177088,5,6,1:2:0:0:
212,378,177415,2,0,P|253:364|297:365,1,88,0|0,0:0|0:0,0:0:0:0:
377,295,178067,2,0,P|417:312|463:309,2,88,2|2|0,1:2|0:0|0:0,0:0:0:0:
312,211,179045,6,0,P|315:166|320:114,1,88,6|8,1:2|0:0,0:0:0:0:
326,71,179534,2,0,P|285:88|242:86,1,88,6|8,1:2|0:0,0:0:0:0:
192,68,180023,2,0,P|118:95|156:164,1,176,6|0,1:2|0:0,0:0:0:0:
129,266,181001,5,2,0:0:0:0:
204,340,181328,2,0,P|247:335|294:334,1,88,0|2,0:0|0:0,0:0:0:0:
351,247,181980,2,0,P|400:282|472:273,1,132,2|0,0:0|0:0,0:0:0:0:
512,245,182632,1,2,0:0:0:0:
483,143,182958,6,0,B|481:123|494:101|494:101|505:81|503:59,2,88,2|0|2,0:0|0:0|0:0,0:0:0:0:
409,218,183936,2,0,B|390:217|365:218|365:218|323:206|323:206|300:207|278:206,1,132,2|0,0:0|0:0,0:0:0:0:
231,182,184588,1,2,0:0:0:0:
214,286,184915,5,2,0:0:0:0:
130,222,185241,2,0,P|83:220|28:222,1,88,0|2,0:0|0:0,0:0:0:0:
0,124,185893,1,2,0:0:0:0:
69,44,186219,1,0,0:0:0:0:
166,76,186545,1,2,0:0:0:0:
266,44,186871,6,0,P|309:45|353:44,1,88,2|0,0:0|0:0,0:0:0:0:
458,61,187523,2,0,P|460:37|456:11,2,44,2|0|2,0:0|0:0|0:0,0:0:0:0:
435,164,188175,1,0,0:0:0:0:
493,251,188501,1,2,0:0:0:0:
424,331,188828,6,0,P|384:315|338:318,1,88,2|0,0:0|0:0,0:0:0:0:
237,341,189480,1,2,0:0:0:0:
269,240,189806,2,0,P|220:286|157:288,1,132,2|0,0:0|0:0,0:0:0:0:
108,269,190458,1,2,0:0:0:0:
67,171,190784,6,0,P|70:128|73:73,1,88,2|0,0:0|0:0,0:0:0:0:
145,7,191436,1,2,0:0:0:0:
243,44,191762,2,0,B|273:55|305:44|305:44|340:33|374:44,1,132,2|0,0:0|0:0,0:0:0:0:
423,27,192415,1,2,0:0:0:0:
442,130,192741,5,2,0:0:0:0:
461,233,193067,1,0,0:0:0:0:
382,303,193393,1,2,0:0:0:0:
282,267,193719,1,2,0:0:0:0:
182,303,194045,2,0,P|121:316|64:282,1,132,2|0,0:0|0:0,0:0:0:0:
35,237,194697,5,2,0:0:0:0:
43,131,195023,2,0,P|39:86|34:42,1,88,0|2,0:0|0:0,0:0:0:0:
132,4,195675,1,6,1:2:0:0:
232,36,196001,1,8,0:0:0:0:
333,4,196328,1,2,1:2:0:0:
412,73,196654,6,0,P|399:115|412:155,1,88,6|0,1:2|0:0,0:0:0:0:
455,251,197306,1,2,0:2:0:0:
349,241,197632,2,0,B|305:241|305:241|265:259|265:259|221:259,1,132,2|0,1:2|0:0,0:0:0:0:
177,288,198284,1,2,1:2:0:0:
86,234,198610,6,0,P|97:192|81:146,1,88,2|0,1:2|0:0,0:0:0:0:
177,96,199262,1,2,0:0:0:0:
279,121,199588,2,0,B|325:130|360:106|360:106|414:106,1,132,2|0,1:2|0:0,0:0:0:0:
457,87,200241,1,2,1:2:0:0:
450,192,200567,6,0,P|446:235|443:284,1,88,2|0,1:2|0:0,0:0:0:0:
435,384,201219,1,2,0:2:0:0:
348,324,201545,2,0,P|304:322|260:324,1,88,2|10,1:2|0:0,0:0:0:0:
164,279,202197,1,2,1:2:0:0:
86,351,202523,6,0,P|50:324|7:317,1,88,2|0,1:2|0:0,0:0:0:0:
23,212,203175,2,0,P|26:190|28:164,2,44,2|0|6,0:0|1:2|1:2,0:0:0:0:
121,251,203828,1,8,0:0:0:0:
86,351,204154,1,2,1:2:0:0:
190,337,204480,6,0,P|232:337|279:337,1,88,6|0,1:2|0:0,0:0:0:0:
379,367,205132,1,2,0:0:0:0:
457,295,205458,2,0,P|467:235|417:182,1,132,2|0,1:2|0:2,0:0:0:0:
432,132,206110,1,2,1:2:0:0:
329,157,206436,6,0,P|283:166|238:172,1,88,2|0,1:2|0:0,0:0:0:0:
150,223,207088,1,2,0:0:0:0:
46,200,207415,2,0,P|6:159|14:86,1,132,2|0,1:2|0:0,0:0:0:0:
38,42,208067,1,2,1:2:0:0:
140,67,208393,6,0,P|182:62|227:57,1,88,2|0,1:2|0:0,0:0:0:0:
289,142,209045,1,2,0:0:0:0:
352,225,209371,1,2,1:2:0:0:
416,308,209697,2,0,P|356:330|293:311,1,132,10|2,0:0|0:0,0:0:0:0:
244,332,210349,6,0,P|246:285|247:228,1,88,2|8,1:2|0:0,0:0:0:0:
249,138,211001,1,0,1:2:0:0:
252,32,211328,1,2,1:2:0:0:
157,78,211654,2,0,P|14:78|97:11,1,352,2|2,3:2|3:0,0:0:0:0:
