osu file format v14

[General]
AudioFilename: audio.mp3
AudioLeadIn: 0
PreviewTime: 82330
Countdown: 0
SampleSet: Soft
StackLeniency: 0.4
Mode: 0
LetterboxInBreaks: 0
WidescreenStoryboard: 0

[Editor]
Bookmarks: 35883,53165,185883,201535,202187
DistanceSpacing: 0.8
BeatDivisor: 2
GridSize: 4
TimelineZoom: 1.5

[Metadata]
Title:Taylor
TitleUnicode:Taylor
Artist:LhoU
ArtistUnicode:LhoU
Creator:Niva
Version:Easy
Source:
Tags:orbis fusion phantasma lhoustudio the world of sound
BeatmapID:1463838
BeatmapSetID:648127

[Difficulty]
HPDrainRate:2.5
CircleSize:3
OverallDifficulty:2.5
ApproachRate:3.5
SliderMultiplier:0.54
SliderTickRate:1

[Events]
//Background and Video events
0,0,"Lonely-Tree-Cyrodan2.jpg",0,0
//Break Periods
//Storyboard Layer 0 (Background)
//Storyboard Layer 1 (Fail)
//Storyboard Layer 2 (Pass)
//Storyboard Layer 3 (Foreground)
//Storyboard Sound Samples

[TimingPoints]
1002,326.086956521739,3,2,72,50,1,0
15675,-100,3,2,72,60,0,0
63610,-100,3,2,72,50,0,0
71110,-100,3,2,72,15,0,0
71436,-100,3,2,72,50,0,0
75349,-100,3,2,72,60,0,0
75390,-100,3,2,72,50,0,0
76328,-100,3,2,72,60,0,0
76368,-100,3,2,72,50,0,0
77306,-100,3,2,72,60,0,0
77347,-100,3,2,72,50,0,0
78284,-100,3,2,72,60,0,0
78325,-100,3,2,72,50,0,0
79262,-100,3,2,72,60,0,0
80281,-100,3,2,72,50,0,0
81219,-100,3,2,72,60,0,0
83175,-100,3,2,72,60,0,1
83991,-100,3,2,72,50,0,1
84154,-100,3,2,72,60,0,1
97849,-100,3,2,72,60,0,0
98828,-100,3,2,72,60,0,1
114480,-100,3,2,72,60,0,0
129154,-100,3,2,72,60,0,0
129969,-100,3,2,72,15,0,0
130132,-100,3,2,72,50,0,0
137958,-100,3,2,12,50,0,0
144806,-100,3,2,72,60,0,0
161436,-100,3,2,72,50,0,0
168936,-100,3,2,72,15,0,0
169262,-100,3,2,72,50,0,0
173175,-100,3,2,72,60,0,0
174194,-100,3,2,72,50,0,0
175132,-100,3,2,72,60,0,0
175173,-100,3,2,72,50,0,0
176110,-100,3,2,72,60,0,0
176151,-100,3,2,72,50,0,0
177088,-100,3,2,72,60,0,0
178107,-100,3,2,72,50,0,0
179045,-100,3,2,72,60,0,0
180023,-100,3,2,72,60,0,0
180064,-100,3,2,72,10,0,0
180186,-100,3,2,72,20,0,0
180349,-100,3,2,72,30,0,0
180512,-100,3,2,72,40,0,0
180675,-100,3,2,72,50,0,0
180838,-100,3,2,72,15,0,0
181001,-100,3,2,72,50,0,0
195675,-100,3,2,72,60,0,0
196654,-100,3,2,72,60,0,1
211572,-100,3,2,72,15,0,1
211654,-100,3,2,72,60,0,0
211980,-100,3,2,72,40,0,0
212306,-100,3,2,72,20,0,0
212632,-100,3,2,72,5,0,0

[Colours]
Combo1 : 255,253,174
Combo2 : 151,255,255
Combo3 : 43,253,190

[HitObjects]
55,328,1002,6,0,P|128:350|195:305,1,162,2|2,0:0|0:0,0:0:0:0:
296,224,2958,2,0,B|350:224|350:224|401:244|401:244|456:244,1,162,2|2,0:0|0:0,0:0:0:0:
508,126,4915,5,2,0:0:0:0:
438,16,5893,1,2,0:0:0:0:
319,67,6871,2,0,B|266:79|266:79|214:67,1,108,2|0,0:0|0:0,0:0:0:0:
173,32,7849,2,0,P|133:66|76:68,1,108,2|0,0:0|0:0,0:0:0:0:
29,49,8828,5,2,0:0:0:0:
38,178,9806,1,2,0:0:0:0:
46,307,10784,2,0,P|114:338|197:302,1,162,2|2,0:0|0:0,0:0:0:0:
315,344,12741,5,2,0:0:0:0:
440,309,13719,1,2,0:0:0:0:
398,186,14697,2,0,P|415:137|395:88,1,108,2|2,0:0|0:0,0:0:0:0:
414,37,15675,2,0,P|359:38|302:37,1,108,2|2,1:2|1:2,0:0:0:0:
256,15,16654,5,6,1:2:0:0:
140,73,17632,1,2,1:2:0:0:
201,187,18610,1,2,1:2:0:0:
320,135,19588,1,2,1:2:0:0:
419,217,20567,6,0,P|454:289|421:359,1,162,2|2,1:2|1:2,0:0:0:0:
294,383,22523,1,2,1:2:0:0:
166,359,23501,2,0,B|131:359|131:359|90:370|90:370|46:369,1,108,6|0,1:2|1:2,0:0:0:0:
7,383,24480,5,6,1:2:0:0:
20,254,25458,1,2,1:2:0:0:
31,124,26436,2,0,P|110:116|150:49,1,162,2|2,1:2|1:2,0:0:0:0:
259,119,28393,6,0,B|279:131|304:149|304:149|358:149|358:149|381:166|404:178,1,162,2|2,1:2|1:2,0:0:0:0:
422,305,30349,2,0,P|458:289|504:288,2,81,2|2|6,1:2|1:2|1:2,0:0:0:0:
302,355,32306,5,6,1:2:0:0:
238,242,33284,1,2,1:2:0:0:
327,147,34262,1,2,1:2:0:0:
443,203,35241,1,0,1:2:0:0:
429,331,36219,6,0,B|388:346|349:331|349:331|310:317|270:331,1,162,2|2,1:2|1:2,0:0:0:0:
148,373,38175,1,2,1:2:0:0:
178,246,39154,2,0,P|188:193|196:135,1,108,6|0,1:2|1:2,0:0:0:0:
203,86,40132,5,6,1:2:0:0:
320,140,41110,2,0,P|401:158|458:103,1,162,2|2,1:2|1:2,0:0:0:0:
487,235,43067,1,0,1:2:0:0:
512,363,44045,6,0,B|457:364|457:364|406:349|406:349|352:349,1,162,2|2,1:2|1:2,0:0:0:0:
311,226,46001,2,0,P|266:256|208:257,1,108,2|2,1:2|0:0,0:0:0:0:
174,295,46980,2,0,B|148:291|122:282|122:282|98:291|70:295,1,108,6|0,1:2|1:2,0:0:0:0:
29,258,47958,5,6,1:2:0:0:
3,130,48936,1,2,1:2:0:0:
131,110,49915,1,2,1:2:0:0:
158,236,50893,1,0,1:2:0:0:
189,361,51871,6,0,P|274:373|334:330,1,162,2|2,1:2|1:2,0:0:0:0:
459,359,53828,1,2,1:2:0:0:
421,235,54806,2,0,P|416:182|413:111,1,108,6|0,1:2|1:2,0:0:0:0:
410,73,55784,5,6,1:2:0:0:
287,115,56762,2,0,B|232:129|197:98|197:98|128:98,1,162,2|2,1:2|1:2,0:0:0:0:
8,52,58719,1,0,1:2:0:0:
29,179,59697,6,0,P|38:254|50:348,1,162,2|2,1:2|1:2,0:0:0:0:
172,380,61654,2,0,P|220:357|278:363,1,108,2|2,1:2|0:0,0:0:0:0:
317,329,62632,2,0,P|366:352|417:341,1,108,6|0,1:2|1:2,0:0:0:0:
463,314,63610,5,2,0:0:0:0:
447,185,64588,1,2,0:0:0:0:
434,55,65567,1,2,0:0:0:0:
308,85,66545,2,0,P|256:98|202:87,1,108,2|0,0:0|0:0,0:0:0:0:
153,66,67523,5,2,0:0:0:0:
72,167,68501,1,2,0:0:0:0:
194,208,69480,1,2,0:0:0:0:
109,305,70458,1,2,0:0:0:0:
227,356,71436,6,0,B|281:356|281:356|332:339|332:339|386:339,1,162,2|2,0:0|0:0,0:0:0:0:
493,266,73393,1,2,0:0:0:0:
418,161,74371,2,0,P|436:111|415:63,1,108,2|2,0:0|0:0,0:0:0:0:
423,9,75349,5,6,1:2:0:0:
299,47,76328,2,0,B|255:55|219:34|219:34|182:14|142:25,1,162,2|2,1:2|1:2,0:0:0:0:
61,126,78284,2,0,P|67:180|72:240,1,108,0|2,1:2|0:0,0:0:0:0:
76,287,79262,5,6,1:2:0:0:
179,365,80241,2,0,P|232:375|283:351,1,108,2|0,1:2|0:0,0:0:0:0:
328,331,81219,2,0,P|366:330|414:331,2,81,6|6|6,1:2|1:2|1:2,0:0:0:0:
303,203,83175,6,0,P|279:128|306:49,1,162,6|2,1:2|1:2,0:0:0:0:
408,128,85132,1,2,1:2:0:0:
303,203,86110,1,2,1:2:0:0:
180,159,87088,6,0,B|155:169|155:169|105:169|105:169|72:185,1,108,2|0,1:2|0:0,0:0:0:0:
53,231,88067,2,0,P|75:279|55:328,1,108,2|2,1:2|1:2,0:0:0:0:
84,368,89045,1,2,1:2:0:0:
204,320,90023,2,0,B|228:323|255:335|255:335|284:323|309:321,1,108,6|2,1:2|1:2,0:0:0:0:
361,315,91001,5,6,1:2:0:0:
485,352,91980,1,2,1:2:0:0:
454,226,92958,2,0,P|485:154|445:83,1,162,2|2,1:2|1:2,0:0:0:0:
323,122,94915,6,0,P|271:135|217:120,1,108,2|2,1:2|0:0,0:0:0:0:
176,88,95893,2,0,B|141:88|141:88|106:99|106:99|66:99,1,108,2|0,1:2|0:0,0:0:0:0:
19,119,96871,1,2,1:2:0:0:
38,247,97849,1,6,1:2:0:0:
58,375,98828,6,0,P|126:337|207:362,1,162,6|2,1:2|1:2,0:0:0:0:
298,271,100784,2,0,P|365:314|440:294,1,162,2|2,1:2|1:2,0:0:0:0:
509,183,102741,2,0,P|502:129|497:74,1,108,2|0,1:2|0:0,0:0:0:0:
507,22,103719,2,0,B|482:30|454:22|454:22|425:14|400:22,1,108,2|2,1:2|1:2,0:0:0:0:
348,5,104697,5,2,1:2:0:0:
238,74,105675,2,0,P|185:83|133:54,1,108,6|2,1:2|1:2,0:0:0:0:
101,19,106654,5,6,1:2:0:0:
112,148,107632,1,2,1:2:0:0:
123,277,108610,2,0,P|201:264|263:314,1,162,2|2,1:2|1:2,0:0:0:0:
377,371,110567,6,0,P|430:380|479:355,1,108,2|2,1:2|0:0,0:0:0:0:
510,314,111545,2,0,P|504:260|500:200,1,108,2|0,1:2|0:0,0:0:0:0:
497,152,112523,1,2,1:2:0:0:
404,60,113501,2,0,P|357:88|304:82,1,108,6|2,1:2|1:2,0:0:0:0:
256,61,114480,5,6,1:2:0:0:
275,189,115458,1,2,1:2:0:0:
294,317,116436,2,0,P|224:353|154:319,1,162,2|2,1:2|1:2,0:0:0:0:
31,359,118393,5,6,1:2:0:0:
56,231,119371,1,2,1:2:0:0:
82,104,120349,2,0,P|90:62|97:17,2,81,6|6|6,1:2|1:2|1:2,0:0:0:0:
182,186,122306,6,0,P|243:138|326:148,1,162,6|2,1:2|1:2,0:0:0:0:
360,270,124262,2,0,P|299:318|216:308,1,162,2|2,1:2|1:2,0:0:0:0:
145,202,126219,6,0,B|138:158|165:125|165:125|191:91|183:49,1,162,2|2,1:2|1:2,0:0:0:0:
310,7,128175,2,0,B|350:16|350:16|393:6,2,81,2|2|6,1:2|1:2|1:2,0:0:0:0:
183,49,130132,5,2,0:0:0:0:
58,84,131110,1,2,0:0:0:0:
155,173,132088,2,0,P|191:244|157:315,1,162,2|0,0:0|0:0,0:0:0:0:
279,360,134045,6,0,B|334:360|334:360|381:384|381:384|435:384,1,162,2|2,0:0|0:0,0:0:0:0:
453,255,136001,1,2,0:0:0:0:
474,126,136980,1,2,0:0:0:0:
353,173,137958,6,0,P|275:178|222:120,1,162,10|10,3:2|3:2,0:0:0:0:
114,192,139915,1,10,3:2:0:0:
148,316,140893,1,8,3:2:0:0:
276,302,141871,6,0,B|323:328|323:328|377:328|377:328|425:353,1,162,10|10,3:2|3:2,0:0:0:0:
492,241,143828,2,0,P|472:192|490:143,1,108,10|10,3:2|3:2,0:0:0:0:
506,91,144806,2,0,B|454:103|454:103|401:93,1,108,6|0,1:2|1:2,0:0:0:0:
348,78,145784,5,6,1:2:0:0:
224,117,146762,1,2,1:2:0:0:
99,80,147741,2,0,P|110:180|150:225,1,162,2|0,1:2|1:2,0:0:0:0:
142,354,149697,6,0,P|211:319|292:340,1,162,2|2,1:2|1:2,0:0:0:0:
412,382,151654,1,2,1:2:0:0:
459,261,152632,2,0,P|441:211|461:157,1,108,6|0,1:2|1:2,0:0:0:0:
489,116,153610,5,6,1:2:0:0:
360,132,154588,1,2,1:2:0:0:
231,149,155567,2,0,B|189:166|152:149|152:149|114:132|74:149,1,162,2|0,1:2|1:2,0:0:0:0:
20,267,157523,6,0,P|58:329|140:324,1,162,2|2,1:2|1:2,0:0:0:0:
254,383,159480,2,0,B|282:378|307:371|307:371|332:379|361:384,1,108,2|2,1:2|0:0,0:0:0:0:
405,356,160458,2,0,P|456:370|509:355,1,108,6|0,1:2|1:2,0:0:0:0:
511,301,161436,5,2,0:0:0:0:
493,172,162415,1,2,0:0:0:0:
475,43,163393,1,2,0:0:0:0:
374,124,164371,2,0,P|319:125|262:124,1,108,2|0,0:0|0:0,0:0:0:0:
214,108,165349,5,2,0:0:0:0:
200,237,166328,1,2,0:0:0:0:
328,250,167306,1,2,0:0:0:0:
343,121,168284,1,2,0:0:0:0:
214,108,169262,6,0,B|178:129|137:108|137:108|97:89|52:107,1,162,2|2,0:0|0:0,0:0:0:0:
1,222,171219,1,2,0:0:0:0:
63,335,172197,2,0,P|110:310|169:312,1,108,2|2,0:0|0:0,0:0:0:0:
213,289,173175,5,6,1:2:0:0:
329,346,174154,2,0,P|413:362|474:315,1,162,2|2,1:2|1:2,0:0:0:0:
495,191,176110,2,0,P|488:137|483:78,1,108,0|2,1:2|0:0,0:0:0:0:
477,30,177088,5,6,1:2:0:0:
352,67,178067,2,0,P|298:78|244:49,1,108,2|0,1:2|0:0,0:0:0:0:
206,27,179045,2,0,P|166:28|124:27,2,81,6|6|6,1:2|1:2|1:2,0:0:0:0:
175,152,181001,6,0,P|203:220|179:305,1,162,2|2,0:0|0:0,0:0:0:0:
76,380,182958,2,0,P|51:314|73:226,1,162,2|2,0:0|0:0,0:0:0:0:
180,302,184915,6,0,B|225:302|225:302|253:318|288:312,1,108,2|0,0:0|0:0,0:0:0:0:
329,344,185893,2,0,P|376:319|431:324,1,108,2|2,0:0|0:0,0:0:0:0:
480,340,186871,1,2,0:0:0:0:
469,210,187849,2,0,P|463:149|459:90,1,108,2|2,0:0|0:0,0:0:0:0:
454,48,188828,5,2,0:0:0:0:
332,2,189806,1,2,0:0:0:0:
210,48,190784,2,0,P|128:66|70:18,1,162,2|2,0:0|0:0,0:0:0:0:
14,137,192741,6,0,P|22:191|29:250,1,108,2|2,0:0|0:0,0:0:0:0:
15,296,193719,2,0,P|66:293|112:328,1,108,2|0,0:0|0:0,0:0:0:0:
127,376,194697,1,2,0:0:0:0:
256,353,195675,1,6,1:2:0:0:
385,376,196654,6,0,P|464:376|521:313,1,162,6|2,1:2|1:2,0:0:0:0:
467,200,198610,2,0,P|388:200|331:263,1,162,2|2,1:2|1:2,0:0:0:0:
256,151,200567,6,0,P|202:151|148:151,1,108,2|0,1:2|0:2,0:0:0:0:
128,100,201545,2,0,P|78:118|24:95,1,108,2|2,1:2|1:2,0:0:0:0:
8,49,202523,1,2,1:2:0:0:
128,100,203501,2,0,P|130:154|135:215,1,108,6|2,1:2|1:2,0:0:0:0:
139,261,204480,5,6,1:2:0:0:
85,378,205458,1,2,1:2:0:0:
213,365,206436,2,0,B|267:365|267:365|318:382|318:382|375:382,1,162,2|2,1:2|1:2,0:0:0:0:
455,282,208393,6,0,P|449:226|445:161,1,108,2|2,1:2|0:0,0:0:0:0:
449,120,209371,2,0,P|399:141|342:133,1,108,2|0,1:2|0:0,0:0:0:0:
298,110,210349,2,0,P|285:166|271:224,1,108,2|2,1:2|0:2,0:0:0:0:
256,266,211328,1,2,1:2:0:0:
242,318,211654,6,0,B|189:340|137:318|137:318|85:294|33:316,1,216,2|0,3:2|0:0,0:0:0:0:
