osu file format v14

[General]
AudioFilename: audio.mp3
AudioLeadIn: 0
PreviewTime: 82330
Countdown: 0
SampleSet: Soft
StackLeniency: 0.4
Mode: 0
LetterboxInBreaks: 0
WidescreenStoryboard: 0

[Editor]
Bookmarks: 202187
DistanceSpacing: 1.5
BeatDivisor: 4
GridSize: 4
TimelineZoom: 1.5

[Metadata]
Title:Taylor
TitleUnicode:Taylor
Artist:LhoU
ArtistUnicode:LhoU
Creator:Niva
Version:Insane
Source:
Tags:orbis fusion phantasma lhoustudio the world of sound
BeatmapID:1373115
BeatmapSetID:648127

[Difficulty]
HPDrainRate:7.5
CircleSize:4
OverallDifficulty:8
ApproachRate:9
SliderMultiplier:1.43
SliderTickRate:2

[Events]
//Background and Video events
0,0,"Lonely-Tree-Cyrodan2.jpg",0,0
//Break Periods
//Storyboard Layer 0 (Background)
//Storyboard Layer 1 (Fail)
//Storyboard Layer 2 (Pass)
//Storyboard Layer 3 (Foreground)
//Storyboard Sound Samples

[TimingPoints]
1002,326.086956521739,3,2,72,50,1,0
1002,-125,3,2,72,50,0,0
16491,-125,3,2,72,50,0,0
16654,-125,3,2,72,60,0,0
17469,-125,3,2,72,50,0,0
17632,-125,3,2,72,60,0,0
19425,-125,3,2,72,50,0,0
19588,-125,3,2,72,60,0,0
20404,-125,3,2,72,50,0,0
20567,-125,3,2,72,60,0,0
21382,-125,3,2,72,50,0,0
21545,-125,3,2,72,60,0,0
23338,-125,3,2,72,50,0,0
23501,-125,3,2,72,60,0,0
24317,-125,3,2,72,50,0,0
24480,-125,3,2,72,60,0,0
25295,-125,3,2,72,50,0,0
25458,-125,3,2,72,60,0,0
27251,-125,3,2,72,50,0,0
27415,-125,3,2,72,60,0,0
28230,-125,3,2,72,50,0,0
28393,-125,3,2,72,60,0,0
29208,-125,3,2,72,50,0,0
29371,-125,3,2,72,60,0,0
31165,-125,3,2,72,50,0,0
31328,-125,3,2,72,60,0,0
32143,-125,3,2,72,50,0,0
32306,-125,3,2,72,60,0,0
33121,-125,3,2,72,50,0,0
33284,-125,3,2,72,60,0,0
34099,-125,3,2,72,50,0,0
34262,-125,3,2,72,60,0,0
35078,-125,3,2,72,50,0,0
35241,-125,3,2,72,60,0,0
36056,-125,3,2,72,50,0,0
36219,-125,3,2,72,60,0,0
37034,-125,3,2,72,50,0,0
37197,-125,3,2,72,60,0,0
38012,-125,3,2,72,50,0,0
38175,-125,3,2,72,60,0,0
38991,-125,3,2,72,50,0,0
39154,-125,3,2,72,60,0,0
39969,-125,3,2,72,50,0,0
40132,-125,3,2,72,60,0,0
40947,-125,3,2,72,50,0,0
41110,-125,3,2,72,60,0,0
41925,-125,3,2,72,50,0,0
42088,-125,3,2,72,60,0,0
42904,-125,3,2,72,50,0,0
43067,-125,3,2,72,60,0,0
43882,-125,3,2,72,50,0,0
44045,-125,3,2,72,60,0,0
44860,-125,3,2,72,50,0,0
45023,-125,3,2,72,60,0,0
45838,-125,3,2,72,50,0,0
46001,-125,3,2,72,60,0,0
46817,-125,3,2,72,50,0,0
46980,-125,3,2,72,60,0,0
47795,-125,3,2,72,50,0,0
47958,-125,3,2,72,60,0,0
48773,-125,3,2,72,50,0,0
48936,-125,3,2,72,60,0,0
49751,-125,3,2,72,50,0,0
49915,-125,3,2,72,60,0,0
50730,-125,3,2,72,50,0,0
50893,-125,3,2,72,60,0,0
51708,-125,3,2,72,50,0,0
51871,-125,3,2,72,60,0,0
52686,-125,3,2,72,50,0,0
52849,-125,3,2,72,60,0,0
53665,-125,3,2,72,50,0,0
53828,-125,3,2,72,60,0,0
55621,-125,3,2,72,50,0,0
55784,-125,3,2,72,60,0,0
56599,-125,3,2,72,50,0,0
56762,-125,3,2,72,60,0,0
57578,-125,3,2,72,50,0,0
57741,-125,3,2,72,60,0,0
58556,-125,3,2,72,50,0,0
58719,-125,3,2,72,60,0,0
59534,-125,3,2,72,50,0,0
59697,-125,3,2,72,60,0,0
60512,-125,3,2,72,50,0,0
60675,-125,3,2,72,60,0,0
61491,-125,3,2,72,50,0,0
61654,-125,3,2,72,60,0,0
62469,-125,3,2,72,50,0,0
62632,-125,3,2,72,60,0,0
63447,-125,3,2,72,50,0,0
63610,-166.666666666667,3,2,72,50,0,0
71273,-166.666666666667,3,2,72,15,0,0
71436,-142.857142857143,3,2,72,50,0,0
75349,-133.333333333333,3,2,72,60,0,0
75675,-166.666666666667,3,2,72,50,0,0
76328,-166.666666666667,3,2,72,60,0,0
76654,-153.846153846154,3,2,72,50,0,0
77306,-153.846153846154,3,2,72,60,0,0
77632,-142.857142857143,3,2,72,50,0,0
78284,-142.857142857143,3,2,72,60,0,0
78610,-133.333333333333,3,2,72,50,0,0
79262,-125,3,2,72,60,0,0
79588,-125,3,2,72,50,0,0
80241,-125,3,2,72,60,0,0
80567,-125,3,2,72,50,0,0
81219,-125,3,2,72,60,0,0
83012,-125,3,2,72,50,0,0
83175,-125,3,2,72,60,0,1
83991,-125,3,2,72,50,0,1
84154,-125,3,2,72,60,0,1
84969,-125,3,2,72,50,0,1
85132,-125,3,2,72,60,0,1
85947,-125,3,2,72,50,0,1
86110,-125,3,2,72,60,0,1
86925,-125,3,2,72,50,0,1
87088,-125,3,2,72,60,0,1
87904,-125,3,2,72,50,0,1
88067,-125,3,2,72,60,0,1
88882,-125,3,2,72,50,0,1
89045,-125,3,2,72,60,0,1
90838,-125,3,2,72,50,0,1
91001,-125,3,2,72,60,0,1
91817,-125,3,2,72,50,0,1
91980,-125,3,2,72,60,0,1
92795,-125,3,2,72,50,0,1
92958,-125,3,2,72,60,0,1
93773,-125,3,2,72,50,0,1
93936,-125,3,2,72,60,0,1
94751,-125,3,2,72,50,0,1
94915,-125,3,2,72,60,0,1
95730,-125,3,2,72,50,0,1
95893,-125,3,2,72,60,0,1
96708,-125,3,2,72,50,0,1
96871,-125,3,2,72,60,0,1
97197,-111.111111111111,3,2,72,60,0,1
97523,-100,3,2,72,60,0,1
97849,-76.9230769230769,3,2,72,60,0,0
98665,-76.9230769230769,3,2,72,50,0,0
98828,-125,3,2,72,60,0,1
99643,-125,3,2,72,50,0,1
99806,-125,3,2,72,60,0,1
100621,-125,3,2,72,50,0,1
100784,-125,3,2,72,60,0,1
101599,-125,3,2,72,50,0,1
101762,-125,3,2,72,60,0,1
102578,-125,3,2,72,50,0,1
102741,-125,3,2,72,60,0,1
103556,-125,3,2,72,50,0,1
103719,-125,3,2,72,60,0,1
104534,-125,3,2,72,50,0,1
104697,-125,3,2,72,60,0,1
106491,-125,3,2,72,50,0,1
106654,-125,3,2,72,60,0,1
107469,-125,3,2,72,50,0,1
107632,-125,3,2,72,60,0,1
108447,-125,3,2,72,50,0,1
108610,-125,3,2,72,60,0,1
109425,-125,3,2,72,50,0,1
109588,-125,3,2,72,60,0,1
110404,-125,3,2,72,50,0,1
110567,-125,3,2,72,60,0,1
111382,-125,3,2,72,50,0,1
111545,-125,3,2,72,60,0,1
112360,-125,3,2,72,50,0,1
112523,-125,3,2,72,60,0,1
114317,-125,3,2,72,50,0,1
114480,-125,3,2,72,60,0,0
122143,-125,3,2,72,50,0,0
122306,-125,3,2,72,60,0,0
123121,-125,3,2,72,50,0,0
123284,-125,3,2,72,60,0,0
125078,-125,3,2,72,50,0,0
125241,-125,3,2,72,60,0,0
126056,-125,3,2,72,50,0,0
126219,-125,3,2,72,60,0,0
127034,-125,3,2,72,50,0,0
127197,-125,3,2,72,60,0,0
128991,-125,3,2,72,50,0,0
129154,-200,3,2,72,60,0,0
129969,-200,3,2,72,15,0,0
130132,-166.666666666667,3,2,72,50,0,0
137958,-125,3,2,12,50,0,0
144806,-125,3,2,72,60,0,0
145621,-125,3,2,72,50,0,0
145784,-125,3,2,72,60,0,0
146599,-125,3,2,72,50,0,0
146762,-125,3,2,72,60,0,0
147578,-125,3,2,72,50,0,0
147741,-125,3,2,72,60,0,0
148556,-125,3,2,72,50,0,0
148719,-125,3,2,72,60,0,0
149534,-125,3,2,72,50,0,0
149697,-125,3,2,72,60,0,0
150512,-125,3,2,72,50,0,0
150675,-125,3,2,72,60,0,0
151491,-125,3,2,72,50,0,0
151654,-125,3,2,72,60,0,0
153447,-125,3,2,72,50,0,0
153610,-125,3,2,72,60,0,0
154425,-125,3,2,72,50,0,0
154588,-125,3,2,72,60,0,0
155404,-125,3,2,72,50,0,0
155567,-125,3,2,72,60,0,0
156382,-125,3,2,72,50,0,0
156545,-125,3,2,72,60,0,0
157360,-125,3,2,72,50,0,0
157523,-125,3,2,72,60,0,0
158338,-125,3,2,72,50,0,0
158501,-125,3,2,72,60,0,0
159317,-125,3,2,72,50,0,0
159480,-125,3,2,72,60,0,0
161273,-125,3,2,72,60,0,0
161436,-166.666666666667,3,2,72,50,0,0
169099,-166.666666666667,3,2,72,15,0,0
169262,-142.857142857143,3,2,72,50,0,0
173175,-133.333333333333,3,2,72,60,0,0
173501,-166.666666666667,3,2,72,50,0,0
174154,-153.846153846154,3,2,72,60,0,0
174480,-153.846153846154,3,2,72,50,0,0
175132,-142.857142857143,3,2,72,60,0,0
175458,-142.857142857143,3,2,72,50,0,0
176110,-133.333333333333,3,2,72,60,0,0
176436,-133.333333333333,3,2,72,50,0,0
177088,-125,3,2,72,60,0,0
177415,-125,3,2,72,50,0,0
178067,-125,3,2,72,60,0,0
178393,-125,3,2,72,50,0,0
179045,-125,3,2,72,60,0,0
180023,-200,3,2,72,60,0,0
180064,-200,3,2,72,10,0,0
180186,-200,3,2,72,20,0,0
180349,-200,3,2,72,30,0,0
180512,-200,3,2,72,40,0,0
180675,-200,3,2,72,50,0,0
180838,-200,3,2,72,15,0,0
181001,-166.666666666667,3,2,72,50,0,0
195675,-125,3,2,72,60,0,0
196491,-125,3,2,72,50,0,0
196654,-125,3,2,72,60,0,1
197469,-125,3,2,72,50,0,1
197632,-125,3,2,72,60,0,1
198447,-125,3,2,72,50,0,1
198610,-125,3,2,72,60,0,1
199425,-125,3,2,72,50,0,1
199588,-125,3,2,72,60,0,1
200404,-125,3,2,72,50,0,1
200567,-125,3,2,72,60,0,1
201382,-125,3,2,72,50,0,1
201545,-125,3,2,72,60,0,1
202360,-125,3,2,72,50,0,1
202523,-125,3,2,72,60,0,1
204317,-125,3,2,72,50,0,1
204480,-125,3,2,72,60,0,1
205295,-125,3,2,72,50,0,1
205458,-125,3,2,72,60,0,1
206273,-125,3,2,72,50,0,1
206436,-125,3,2,72,60,0,1
207251,-125,3,2,72,50,0,1
207415,-125,3,2,72,60,0,1
208230,-125,3,2,72,50,0,1
208393,-125,3,2,72,60,0,1
209208,-125,3,2,72,50,0,1
209371,-125,3,2,72,60,0,1
210186,-125,3,2,72,50,0,1
210349,-125,3,2,72,60,0,1
211001,-100,3,2,72,60,0,1
211328,-76.9230769230769,3,2,72,60,0,0
211572,-76.9230769230769,3,2,72,15,0,0
211654,-166.666666666667,3,2,72,60,0,0
211980,-166.666666666667,3,2,72,40,0,0
212306,-166.666666666667,3,2,72,20,0,0
212632,-166.666666666667,3,2,72,5,0,0

[Colours]
Combo1 : 255,253,174
Combo2 : 151,255,255
Combo3 : 43,253,190

[HitObjects]
77,321,1002,6,0,P|125:302|187:294,1,114.4,2|0,0:0|0:0,0:0:0:0:
270,326,1491,1,0,0:0:0:0:
186,294,1654,1,0,0:0:0:0:
255,244,1817,1,2,0:0:0:0:
290,167,1980,2,0,P|233:194|169:185,1,114.4,2|0,0:0|0:0,0:0:0:0:
109,146,2469,1,0,0:0:0:0:
97,61,2632,2,0,P|99:30|99:-5,1,57.2,0|2,0:0|0:0,0:0:0:0:
183,190,2958,6,0,L|179:319,1,114.4,2|0,0:0|0:0,0:0:0:0:
305,370,3447,1,0,0:0:0:0:
307,362,3529,1,0,0:0:0:0:
308,355,3610,2,0,P|274:358|251:357,1,57.2
395,381,3936,2,0,P|456:381|498:345,1,114.4,2|0,0:0|0:0,0:0:0:0:
256,324,4588,1,2,0:0:0:0:
16,348,4915,6,0,P|60:382|117:381,1,114.4,2|0,0:0|0:0,0:0:0:0:
100,242,5404,1,2,0:0:0:0:
100,242,5567,2,0,P|93:275|87:298,1,57.2,2|0,0:0|0:0,0:0:0:0:
168,182,5893,2,0,P|164:154|160:126,1,57.2,2|0,0:0|0:0,0:0:0:0:
242,236,6219,2,0,P|219:253|197:270,1,57.2,2|0,0:0|0:0,0:0:0:0:
248,147,6545,2,0,P|274:157|300:168,1,57.2,2|0,0:0|0:0,0:0:0:0:
448,259,6871,6,0,P|389:264|331:277,1,114.4,2|2,0:0|0:0,0:0:0:0:
335,275,7686,1,2,0:0:0:0:
237,184,7849,1,2,0:0:0:0:
238,175,7931,1,0,0:0:0:0:
240,166,8012,1,0,0:0:0:0:
207,324,8175,2,0,P|118:336|55:288,1,171.6
254,259,8828,6,0,L|269:372,1,114.4,2|0,0:0|0:0,0:0:0:0:
269,372,9317,1,0,0:0:0:0:
354,380,9480,2,0,L|414:374,1,57.2,0|2,0:0|0:0,0:0:0:0:
183,362,9806,2,0,B|142:366|142:366|109:359|109:359|68:363,1,114.4,2|0,0:0|0:0,0:0:0:0:
174,278,10295,1,0,0:0:0:0:
257,269,10458,1,0,0:0:0:0:
266,354,10621,1,2,0:0:0:0:
324,216,10784,6,0,P|267:223|220:186,1,114.4,2|0,0:0|0:0,0:0:0:0:
302,84,11273,1,0,0:0:0:0:
302,84,11355,1,0,0:0:0:0:
302,84,11436,2,0,L|289:140,1,57.2
252,305,11762,1,2,0:0:0:0:
306,68,12088,1,0,0:0:0:0:
249,319,12415,1,2,0:0:0:0:
310,52,12741,6,0,P|254:70|186:57,1,114.4,2|0,0:0|0:0,0:0:0:0:
59,51,13230,1,2,0:0:0:0:
59,51,13393,2,0,P|87:47|115:43,1,57.2,2|0,0:0|0:0,0:0:0:0:
252,106,13719,2,0,P|224:102|196:98,1,57.2,2|0,0:0|0:0,0:0:0:0:
40,154,14045,2,0,P|68:150|96:146,1,57.2,2|0,0:0|0:0,0:0:0:0:
266,205,14371,2,0,P|238:201|210:197,1,57.2,2|0,0:0|0:0,0:0:0:0:
174,45,14697,6,0,P|184:71|195:97,1,57.2,2|0,0:0|0:0,0:0:0:0:
82,207,15023,2,0,P|99:184|116:162,1,57.2,2|0,0:0|0:0,0:0:0:0:
141,321,15349,1,2,0:0:0:0:
116,161,15512,1,0,0:0:0:0:
116,150,15594,1,0,0:0:0:0:
115,139,15675,1,6,1:2:0:0:
273,205,15838,1,8,0:0:0:0:
273,205,15920,1,8,0:0:0:0:
273,205,16001,2,0,L|332:202,1,57.2,10|8,0:0|0:0,0:0:0:0:
197,315,16328,2,0,L|137:321,1,57.2,2|0,1:2|1:2,0:0:0:0:
300,360,16654,6,0,P|355:368|411:341,1,114.4,6|0,1:2|0:0,0:0:0:0:
228,281,17143,2,0,L|95:298,1,114.4,10|0,0:0|1:2,0:0:0:0:
258,126,17632,2,0,P|265:154|268:183,1,57.2,2|0,1:2|0:0,0:0:0:0:
417,287,17958,2,0,P|409:315|407:344,1,57.2,10|0,0:0|0:0,0:0:0:0:
444,102,18284,1,0,1:2:0:0:
444,102,18610,6,0,P|392:124|332:119,1,114.4,2|0,1:2|0:0,0:0:0:0:
506,47,19099,2,0,B|498:177,1,114.4,10|0,0:0|1:2,0:0:0:0:
505,295,19588,2,0,P|477:274|443:258,1,57.2,2|0,1:2|0:0,0:0:0:0:
385,173,19915,2,0,P|358:184|331:192,1,57.2,10|0,0:0|0:0,0:0:0:0:
185,221,20241,1,0,1:2:0:0:
397,321,20404,1,0,1:2:0:0:
397,321,20485,1,0,0:2:0:0:
397,321,20567,6,0,P|448:296|512:296,1,114.4,2|0,1:2|0:0,0:0:0:0:
428,211,21056,2,0,B|419:174|419:174|423:139|423:139|415:99,1,114.4,10|0,0:0|1:2,0:0:0:0:
501,167,21545,2,0,P|509:194|510:222,1,57.2,2|0,1:2|0:0,0:0:0:0:
355,253,21871,2,0,P|346:225|345:197,1,57.2,10|0,0:0|0:0,0:0:0:0:
463,377,22197,1,0,1:2:0:0:
463,377,22523,6,0,P|410:356|346:362,1,114.4,2|0,1:2|0:0,0:0:0:0:
236,292,23012,2,0,P|183:310|117:306,1,114.4,10|0,0:0|1:2,0:0:0:0:
263,384,23501,1,6,1:2:0:0:
329,268,23665,1,8,0:0:0:0:
327,259,23746,1,8,0:0:0:0:
325,250,23828,2,0,P|319:220|315:191,1,57.2,10|8,0:0|0:0,0:0:0:0:
357,49,24154,1,0,1:2:0:0:
315,193,24317,1,0,1:2:0:0:
377,323,24480,6,0,P|322:304|266:307,1,114.4,6|0,1:2|0:0,0:0:0:0:
359,209,24969,2,0,P|415:213|467:190,1,114.4,10|0,0:0|1:2,0:0:0:0:
294,51,25458,2,0,P|297:83|301:107,1,57.2,2|0,1:2|0:0,0:0:0:0:
266,307,25784,2,0,P|263:281|259:251,1,57.2,10|0,0:0|0:0,0:0:0:0:
195,155,26110,1,0,1:2:0:0:
195,155,26436,6,0,B|168:162|139:155|139:155|111:147|82:153,1,114.4,2|0,1:2|0:0,0:0:0:0:
188,69,26925,2,0,P|220:114|280:123,1,114.4,10|0,0:0|1:2,0:0:0:0:
397,215,27415,2,0,P|369:220|342:226,1,57.2,2|0,1:2|0:0,0:0:0:0:
430,89,27741,2,0,P|463:95|498:97,1,57.2,10|0,0:0|0:0,0:0:0:0:
275,123,28067,1,0,1:2:0:0:
453,236,28230,1,0,1:2:0:0:
453,236,28311,1,0,0:0:0:0:
453,236,28393,6,0,P|396:224|317:231,1,114.4,2|0,1:2|0:0,0:0:0:0:
274,123,28882,2,0,P|221:141|164:139,1,114.4,10|0,0:0|1:2,0:0:0:0:
150,247,29371,2,0,P|122:240|98:225,1,57.2,2|0,1:2|0:0,0:0:0:0:
28,308,29697,2,0,P|9:284|-2:257,1,57.2,10|0,0:0|0:0,0:0:0:0:
56,84,30023,1,0,1:2:0:0:
56,84,30349,6,0,P|112:90|166:59,1,114.4,2|0,1:2|0:0,0:0:0:0:
0,31,30838,2,0,L|11:160,1,114.4,10|0,0:0|1:2,0:0:0:0:
27,311,31328,1,6,1:2:0:0:
3,226,31491,1,8,0:0:0:0:
3,226,31572,1,8,0:0:0:0:
3,226,31654,1,8,0:0:0:0:
107,351,31817,1,8,0:0:0:0:
27,311,31980,1,0,1:2:0:0:
193,339,32143,1,0,1:2:0:0:
367,255,32306,6,0,P|338:254|303:250,1,57.2,6|0,1:2|0:0,0:0:0:0:
463,354,32632,1,0,0:0:0:0:
193,339,32795,2,0,P|249:336|311:338,1,114.4,10|0,0:0|1:2,0:0:0:0:
463,354,33284,2,0,P|473:324|472:289,1,57.2,2|0,1:2|0:0,0:0:0:0:
367,255,33610,2,0,P|380:280|386:309,1,57.2,10|0,0:2|0:0,0:0:0:0:
296,310,33936,2,0,P|275:286|244:269,1,57.2,0|0,1:2|0:0,0:0:0:0:
247,268,34181,1,0,0:0:0:0:
240,263,34262,6,0,L|247:206,1,57.2,2|0,1:2|0:0,0:0:0:0:
366,68,34588,1,0,0:0:0:0:
366,68,34751,2,0,P|324:104|261:101,1,114.4,10|0,0:0|1:2,0:0:0:0:
240,263,35241,2,0,P|246:295|249:329,1,57.2,2|0,1:2|0:0,0:0:0:0:
331,148,35567,2,0,P|325:175|323:204,1,57.2,10|0,0:0|0:0,0:0:0:0:
315,384,35893,1,0,1:2:0:0:
404,267,36056,1,0,0:0:0:0:
404,267,36137,1,0,0:0:0:0:
404,267,36219,6,0,L|377:331,1,57.2,2|0,1:2|0:0,0:0:0:0:
400,112,36545,1,0,0:0:0:0:
504,220,36708,2,0,P|489:196|477:171,1,57.2,10|0,0:0|0:0,0:0:0:0:
329,208,37034,1,0,1:2:0:0:
329,208,37197,2,0,P|358:208|387:210,1,57.2,2|0,1:2|0:0,0:0:0:0:
431,63,37523,2,0,P|417:88|400:112,1,57.2,10|0,0:0|0:0,0:0:0:0:
425,298,37849,1,0,1:2:0:0:
341,343,38012,1,0,0:0:0:0:
341,343,38094,1,0,0:0:0:0:
341,343,38175,5,2,1:2:0:0:
211,261,38338,2,0,P|159:283|96:264,1,114.4,10|10,0:0|0:0,0:0:0:0:
104,269,38991,1,10,0:0:0:0:
168,368,39154,1,6,1:2:0:0:
154,196,39317,2,8,L|152:160,2,28.6,8|8|10,0:0|0:0|0:0,0:0:0:0:
168,368,39643,1,8,0:0:0:0:
211,261,39806,2,0,L|274:261,1,57.2,0|0,1:2|1:2,0:0:0:0:
279,260,40050,1,0,1:2:0:0:
291,260,40132,6,0,P|270:248|248:220,1,57.2,6|0,1:2|0:0,0:0:0:0:
382,339,40458,1,0,0:0:0:0:
382,339,40621,2,0,B|356:329|326:340|326:340|296:351|270:342,1,114.4,10|0,0:0|1:2,0:0:0:0:
102,313,41110,2,0,P|132:306|170:303,1,57.2,2|0,1:2|0:0,0:0:0:0:
249,222,41436,2,0,P|219:218|192:213,1,57.2,10|0,0:0|0:0,0:0:0:0:
364,267,41762,1,0,1:2:0:0:
339,90,41925,1,0,0:0:0:0:
339,90,42007,1,0,0:0:0:0:
339,90,42088,6,0,L|347:151,1,57.2,2|0,1:2|0:0,0:0:0:0:
364,266,42415,1,0,0:0:0:0:
409,187,42578,2,0,P|354:175|294:210,1,114.4,10|0,0:0|1:2,0:0:0:0:
152,146,43067,2,0,P|178:148|210:149,1,57.2,2|0,1:2|0:0,0:0:0:0:
63,202,43393,2,0,P|34:203|6:205,1,57.2,10|0,0:0|0:0,0:0:0:0:
180,237,43719,1,0,1:2:0:0:
11,287,43882,1,0,1:2:0:0:
11,287,43963,1,0,0:0:0:0:
11,287,44045,6,0,P|40:285|75:283,1,57.2,2|0,1:2|0:0,0:0:0:0:
180,237,44371,1,0,0:0:0:0:
149,317,44534,2,0,P|195:287|259:282,1,114.4,10|0,0:0|1:2,0:0:0:0:
377,221,45023,2,0,P|348:227|319:222,1,57.2,2|0,1:2|0:0,0:0:0:0:
445,145,45349,2,0,P|464:167|474:194,1,57.2,10|0,0:0|0:0,0:0:0:0:
347,121,45675,2,0,P|356:92|375:70,1,57.2,0|0,1:2|0:0,0:0:0:0:
381,64,45920,1,0,0:0:0:0:
390,55,46001,6,0,P|354:58|319:53,1,57.2,2|0,1:2|0:0,0:0:0:0:
134,93,46328,1,0,0:0:0:0:
134,93,46491,2,0,B|172:92|172:92|213:101|213:101|248:101,1,114.4,10|0,0:0|1:2,0:0:0:0:
187,244,46980,1,6,1:2:0:0:
67,147,47143,1,8,0:0:0:0:
67,147,47224,1,8,0:0:0:0:
67,147,47306,2,0,P|47:96|69:36,1,114.4,8|0,0:0|1:2,0:0:0:0:
67,147,47795,1,0,1:2:0:0:
79,253,47958,6,0,P|81:289|84:326,1,57.2,6|0,1:2|0:0,0:0:0:0:
149,169,48284,1,0,0:0:0:0:
218,253,48447,2,0,P|215:281|213:310,1,57.2,10|0,0:0|0:0,0:0:0:0:
226,143,48773,1,0,1:2:0:0:
329,190,48936,2,0,P|360:189|402:186,1,57.2,2|0,1:2|0:0,0:0:0:0:
218,253,49262,2,0,P|189:251|160:250,1,57.2,10|0,0:2|0:0,0:0:0:0:
337,308,49588,1,0,1:2:0:0:
219,366,49751,1,0,0:2:0:0:
208,365,49833,1,0,0:0:0:0:
198,364,49915,6,0,L|136:363,1,57.2,2|0,1:2|0:0,0:0:0:0:
404,355,50241,1,0,0:0:0:0:
181,288,50404,2,0,P|222:327|278:328,1,114.4,10|0,0:0|1:2,0:0:0:0:
460,350,50893,2,0,P|432:350|404:354,1,57.2,2|0,1:2|0:0,0:0:0:0:
353,179,51219,2,0,P|353:207|357:235,1,57.2,10|0,0:0|0:0,0:0:0:0:
197,335,51545,2,0,P|222:332|253:330,1,57.2,0|0,1:2|0:0,0:0:0:0:
265,328,51790,1,0,0:0:0:0:
278,327,51871,6,0,P|251:310|230:289,1,57.2,2|0,1:2|0:0,0:0:0:0:
148,114,52197,1,0,0:0:0:0:
132,235,52360,2,0,B|132:268|121:290|121:290|109:314|110:346,1,114.4,10|0,0:0|1:2,0:0:0:0:
17,168,52849,2,0,P|46:169|74:168,1,57.2,2|0,1:2|0:0,0:0:0:0:
206,179,53175,2,0,P|235:175|263:178,1,57.2,10|0,0:0|0:0,0:0:0:0:
397,164,53501,2,0,P|426:165|454:164,1,57.2,0|0,1:2|0:0,0:0:0:0:
464,158,53746,1,0,0:0:0:0:
475,149,53828,5,2,1:2:0:0:
512,356,53991,1,10,0:0:0:0:
512,356,54317,2,0,P|463:331|403:337,1,114.4,10|10,0:0|0:0,0:0:0:0:
256,376,54806,1,6,1:2:0:0:
350,254,54969,2,8,L|368:226,2,28.6,8|8|10,0:0|0:0|0:0,0:0:0:0:
256,361,55295,1,8,0:2:0:0:
162,254,55458,1,0,1:2:0:0:
256,144,55621,1,0,1:2:0:0:
254,134,55703,1,0,0:0:0:0:
252,124,55784,6,0,P|275:133|307:137,1,57.2,6|0,1:2|0:0,0:0:0:0:
477,217,56110,1,0,0:0:0:0:
477,217,56273,2,0,P|420:215|365:228,1,114.4,10|0,0:0|1:2,0:0:0:0:
348,99,56762,2,0,P|326:115|306:136,1,57.2,2|0,1:2|0:0,0:0:0:0:
234,23,57088,2,0,P|222:50|215:78,1,57.2,10|0,0:0|0:0,0:0:0:0:
132,220,57415,1,0,1:2:0:0:
103,82,57578,1,0,0:0:0:0:
103,82,57659,1,0,0:0:0:0:
103,82,57741,6,0,P|113:106|121:136,1,57.2,2|0,1:2|0:0,0:0:0:0:
117,303,58067,1,0,0:0:0:0:
262,365,58230,2,0,P|316:373|370:342,1,114.4,10|0,0:0|1:2,0:0:0:0:
301,219,58719,2,0,P|296:247|300:276,1,57.2,2|0,1:2|0:0,0:0:0:0:
441,279,59045,2,0,P|419:260|393:249,1,57.2,10|0,0:0|0:0,0:0:0:0:
512,190,59371,1,0,1:2:0:0:
393,134,59534,1,0,0:0:0:0:
393,134,59616,1,0,0:0:0:0:
393,134,59697,6,0,P|419:123|441:105,1,57.2,2|0,1:2|0:0,0:0:0:0:
457,323,60023,1,0,0:0:0:0:
414,209,60186,2,0,P|372:171|316:160,1,114.4,10|0,0:0|1:2,0:0:0:0:
163,125,60675,2,0,P|192:123|237:117,1,57.2,2|0,1:2|0:0,0:0:0:0:
65,205,61001,2,0,P|36:201|8:199,1,57.2,10|0,0:0|0:0,0:0:0:0:
77,119,61328,1,0,1:2:0:0:
154,217,61491,1,0,0:0:0:0:
153,232,61572,1,0,0:0:0:0:
152,245,61654,6,0,L|144:324,1,57.2,2|0,1:2|0:0,0:0:0:0:
296,337,61980,1,0,0:0:0:0:
105,368,62143,2,0,P|156:343|213:345,1,114.4,10|0,0:0|1:1,0:0:0:0:
378,324,62632,2,0,P|406:327|435:330,1,57.2,6|8,1:2|0:0,0:0:0:0:
447,331,62876,1,8,0:0:0:0:
459,332,62958,1,8,0:0:0:0:
459,332,63284,1,8,1:2:0:0:
295,313,63447,1,0,1:2:0:0:
134,294,63610,6,0,P|89:289|41:286,1,85.7999973815919,0|2,0:0|0:0,0:0:0:0:
36,285,64588,2,0,P|81:280|129:277,1,85.7999973815919,0|2,0:0|0:0,0:0:0:0:
152,274,65567,2,0,P|107:269|59:266,1,85.7999973815919,0|2,0:0|0:0,0:0:0:0:
10,259,66545,2,0,P|55:254|103:251,1,85.7999973815919,0|2,0:0|0:0,0:0:0:0:
369,223,67523,5,0,0:0:0:0:
290,205,67849,1,2,0:0:0:0:
377,236,68501,1,0,0:0:0:0:
285,280,68828,1,2,0:0:0:0:
391,242,69480,1,0,0:0:0:0:
334,343,69806,1,2,0:0:0:0:
404,245,70458,1,0,0:0:0:0:
417,363,70784,2,0,P|360:327|291:329,1,128.699996072388,2|0,0:0|0:0,0:0:0:0:
289,326,71436,6,0,P|336:312|377:272,1,100.099996945191,2|0,0:0|0:0,0:0:0:0:
459,197,72088,1,2,0:0:0:0:
491,384,72415,1,2,0:0:0:0:
491,384,73067,1,2,0:0:0:0:
497,302,73230,1,0,0:0:0:0:
503,225,73393,6,0,P|459:250|405:248,1,100.099996945191,2|0,0:0|0:0,0:0:0:0:
261,174,74045,1,2,0:0:0:0:
201,344,74371,2,0,P|281:340|363:338,1,150.149995417786,2|0,0:0|0:0,0:0:0:0:
502,333,75023,1,2,0:0:0:0:
502,333,75349,5,6,1:2:0:0:
386,197,75675,2,0,B|372:189|348:185|348:185|366:172|389:142,1,85.7999973815919
503,345,76328,1,2,1:2:0:0:
387,212,76654,2,0,B|363:202|339:197|339:197|359:182|372:164,1,92.9499957450869,2|0,0:0|0:0,0:0:0:0:
504,356,77306,1,2,1:2:0:0:
388,229,77632,2,0,B|365:215|326:209|326:209|346:193|364:173,1,100.099996945191
505,369,78284,1,0,1:2:0:0:
389,243,78610,2,0,B|356:222|313:220|313:220|326:210|342:195,1,107.250004091263,0|2,0:0|0:0,0:0:0:0:
414,85,79262,5,6,1:2:0:0:
438,311,79588,2,0,P|385:293|319:300,1,114.4
472,193,80241,1,2,1:2:0:0:
192,185,80567,2,0,L|326:188,1,114.4,2|0,0:0|0:0,0:0:0:0:
486,194,81219,5,6,1:2:0:0:
323,188,81382,2,0,P|292:191|257:196,1,57.2,8|8,0:0|0:0,0:0:0:0:
462,101,81708,1,6,1:2:0:0:
402,258,81871,2,0,P|395:288|389:323,1,57.2,8|8,0:0|0:0,0:0:0:0:
366,95,82197,1,6,1:2:0:0:
486,194,82360,1,8,0:0:0:0:
486,194,82442,1,8,0:0:0:0:
486,194,82523,1,8,0:0:0:0:
510,23,82686,1,8,0:0:0:0:
308,99,82849,2,0,L|378:94,1,57.2,0|0,1:2|1:2,0:0:0:0:
218,178,83175,6,0,P|195:175|149:178,1,57.2,6|0,1:2|0:0,0:0:0:0:
95,41,83501,2,0,P|105:67|121:91,1,57.2,0|8,0:0|0:0,0:0:0:0:
37,217,83828,2,0,P|53:193|66:168,1,57.2,2|0,0:0|1:2,0:0:0:0:
1,294,84154,2,0,P|50:265|109:265,1,114.4,2|8,1:2|0:0,0:0:0:0:
302,173,84643,1,0,0:0:0:0:
183,284,84806,1,2,1:2:0:0:
230,138,84969,1,0,0:0:0:0:
229,130,85050,1,0,0:0:0:0:
228,122,85132,6,0,P|225:94|220:60,1,57.2,2|0,1:2|0:0,0:0:0:0:
183,202,85458,1,0,0:0:0:0:
183,284,85621,1,8,0:0:0:0:
231,354,85784,1,2,0:0:0:0:
323,380,85947,1,0,1:2:0:0:
423,352,86110,2,0,B|455:352|455:352|503:363|503:363|536:363,1,114.4,2|8,1:2|0:0,0:0:0:0:
323,224,86599,1,0,0:0:0:0:
323,224,86762,2,0,P|332:253|337:280,1,57.2,2|0,1:2|0:0,0:0:0:0:
339,290,87007,1,0,0:0:0:0:
342,302,87088,6,0,P|360:277|391:259,1,57.2,2|0,1:2|0:0,0:0:0:0:
484,195,87415,2,0,P|453:191|422:174,1,57.2,0|8,0:0|0:0,0:0:0:0:
323,125,87741,2,0,P|335:153|335:188,1,57.2,2|0,0:0|1:2,0:0:0:0:
194,279,88067,2,0,P|166:277|137:276,1,57.2,2|0,1:2|0:0,0:0:0:0:
175,179,88393,2,0,P|177:151|189:125,1,57.2,10|0,0:0|0:0,0:0:0:0:
317,279,88719,2,0,P|345:276|374:276,1,57.2,2|0,1:2|0:2,0:0:0:0:
386,275,88963,1,0,0:0:0:0:
398,274,89045,5,2,1:2:0:0:
257,381,89208,2,0,P|205:357|150:364,1,114.4,8|8,0:0|0:0,0:0:0:0:
149,364,89860,1,8,0:0:0:0:
16,305,90023,2,0,P|47:301|78:299,1,57.2,6|8,1:2|0:0,0:0:0:0:
132,267,90268,1,8,0:0:0:0:
132,267,90349,2,0,P|95:264|53:259,1,57.2,8|8,0:0|0:0,0:0:0:0:
228,278,90675,1,2,1:2:0:0:
357,289,90838,1,0,1:2:0:0:
367,290,90920,1,0,0:0:0:0:
377,291,91001,6,0,P|407:293|445:297,1,57.2,6|0,1:2|0:0,0:0:0:0:
496,193,91328,1,0,0:0:0:0:
456,298,91491,1,8,0:0:0:0:
435,139,91654,1,2,0:0:0:0:
479,300,91817,1,0,1:2:0:0:
463,60,91980,2,0,P|419:94|362:97,1,114.4,2|8,1:2|0:0,0:0:0:0:
512,185,92469,1,0,0:0:0:0:
376,267,92632,2,0,P|373:233|371:188,1,57.2,2|0,1:2|0:0,0:0:0:0:
370,197,92876,1,0,0:0:0:0:
369,185,92958,6,0,P|336:182|301:158,1,57.2,2|0,1:2|0:0,0:0:0:0:
182,136,93284,1,0,0:0:0:0:
362,97,93447,1,8,0:0:0:0:
186,159,93610,1,2,0:0:0:0:
358,72,93773,1,0,1:2:0:0:
242,227,93936,2,0,P|190:249|132:228,1,114.4,2|8,1:2|0:0,0:0:0:0:
310,301,94425,1,0,0:0:0:0:
310,301,94588,2,0,P|340:299|381:299,1,57.2,2|0,1:2|0:0,0:0:0:0:
381,299,94833,1,0,0:0:0:0:
393,299,94915,6,0,P|371:277|351:238,1,57.2,2|0,1:2|0:0,0:0:0:0:
367,150,95241,2,0,P|339:164|296:171,1,57.2,0|8,0:0|0:0,0:0:0:0:
218,136,95567,2,0,P|222:166|216:210,1,57.2,2|0,0:0|1:2,0:0:0:0:
161,270,95893,2,0,P|191:274|230:294,1,57.2,2|0,1:2|0:0,0:0:0:0:
85,312,96219,2,0,P|113:263|97:208,1,114.4,10|0,0:0|1:2,0:0:0:0:
210,79,96708,1,2,0:0:0:0:
210,79,96790,1,0,0:0:0:0:
210,79,96871,6,0,P|213:107|218:136,1,57.2,2|0,1:2|0:0,0:0:0:0:
196,235,97197,2,0,P|224:229|265:225,1,64.3499980361939,0|8,0:0|0:0,0:0:0:0:
386,129,97523,2,0,P|358:135|314:140,1,71.5,2|8,0:0|0:0,0:0:0:0:
138,300,97849,2,0,P|179:320|227:311,1,92.9499957450869,6|8,1:2|0:0,0:0:0:0:
233,307,98094,1,8,0:0:0:0:
242,301,98175,1,8,0:0:0:0:
468,325,98501,1,2,1:2:0:0:
386,346,98665,1,0,1:2:0:0:
412,205,98828,6,0,P|411:233|407:262,1,57.2,6|0,1:2|0:0,0:0:0:0:
428,91,99154,1,0,0:0:0:0:
428,91,99317,1,8,0:0:0:0:
325,134,99480,2,0,P|294:138|265:138,1,57.2,2|0,0:0|1:2,0:0:0:0:
174,211,99806,2,0,B|199:207|229:218|229:218|260:232|285:227,1,114.4,2|8,1:2|0:2,0:0:0:0:
412,255,100295,1,0,0:0:0:0:
381,124,100458,1,2,1:2:0:0:
332,302,100621,1,0,0:0:0:0:
333,313,100703,1,0,0:0:0:0:
334,323,100784,6,0,P|336:351|338:387,1,57.2,2|0,1:2|0:0,0:0:0:0:
413,197,101110,2,0,P|411:231|412:259,1,57.2,0|8,0:0|0:0,0:0:0:0:
320,79,101436,2,0,P|322:107|324:143,1,57.2,2|0,0:0|1:2,0:0:0:0:
362,7,101762,2,0,P|311:32|254:29,1,114.4,2|8,1:2|0:0,0:0:0:0:
109,112,102251,1,0,0:0:0:0:
109,112,102415,2,0,L|184:108,1,57.2,2|0,1:2|0:0,0:0:0:0:
178,101,102659,1,0,0:0:0:0:
190,93,102741,6,0,P|185:122|190:153,1,57.2,2|0,1:2|0:0,0:0:0:0:
211,281,103067,1,0,0:0:0:0:
134,225,103230,1,8,0:0:0:0:
266,201,103393,1,2,0:0:0:0:
291,336,103556,1,0,1:2:0:0:
156,359,103719,2,0,P|126:355|97:355,1,57.2,2|0,1:2|0:0,0:0:0:0:
206,238,104045,2,0,P|205:206|206:176,1,57.2,8|0,0:0|0:0,0:0:0:0:
346,302,104371,2,0,P|378:300|409:297,1,57.2,2|0,1:2|0:0,0:0:0:0:
414,297,104616,1,0,0:0:0:0:
427,296,104697,5,2,1:2:0:0:
316,210,104860,2,0,P|263:229|200:238,1,114.4,8|8,0:0|0:0,0:0:0:0:
205,237,105512,1,8,0:0:0:0:
65,315,105675,2,0,P|94:316|136:322,1,57.2,6|8,1:2|0:0,0:0:0:0:
134,322,105920,1,8,0:0:0:0:
146,326,106001,2,0,P|125:308|108:276,1,57.2,8|8,0:0|0:0,0:0:0:0:
246,365,106328,2,0,P|275:364|310:363,1,57.2,2|0,1:2|1:2,0:0:0:0:
316,362,106572,1,0,0:0:0:0:
330,362,106654,5,6,1:2:0:0:
440,354,106817,1,0,0:0:0:0:
335,210,106980,2,0,P|355:232|373:261,1,57.2,0|8,0:0|0:0,0:0:0:0:
476,111,107306,2,0,P|464:142|455:171,1,57.2,2|0,0:0|1:2,0:0:0:0:
511,30,107632,2,0,P|466:61|406:55,1,114.4,2|8,1:2|0:0,0:0:0:0:
231,15,108121,1,0,0:0:0:0:
399,53,108284,1,2,1:2:0:0:
288,189,108447,1,0,0:0:0:0:
285,178,108529,1,0,0:0:0:0:
282,167,108610,6,0,P|276:139|266:108,1,57.2,2|0,1:2|0:0,0:0:0:0:
145,163,108936,2,0,P|160:138|175:109,1,57.2,0|8,0:0|0:0,0:0:0:0:
75,47,109262,2,0,P|103:41|134:31,1,57.2,2|0,0:0|1:2,0:0:0:0:
181,242,109588,2,0,P|126:251|74:213,1,114.4,2|8,1:2|0:0,0:0:0:0:
78,220,110078,1,0,0:0:0:0:
258,307,110241,2,0,P|287:304|320:302,1,57.2,2|0,1:2|0:0,0:0:0:0:
376,272,110485,1,0,0:0:0:0:
376,272,110567,6,0,P|345:267|310:261,1,57.2,2|0,1:2|0:0,0:0:0:0:
137,209,110893,2,0,P|160:206|204:200,1,57.2,0|8,0:0|0:0,0:0:0:0:
288,94,111219,2,0,P|293:125|301:165,1,57.2,2|0,0:0|1:2,0:0:0:0:
232,371,111545,2,0,P|226:339|219:300,1,57.2,2|0,1:2|0:0,0:0:0:0:
178,107,111871,2,0,B|211:93|211:93|247:105|289:93,1,114.4,10|0,0:0|1:2,0:0:0:0:
123,223,112360,1,2,0:0:0:0:
123,223,112442,1,0,0:0:0:0:
123,223,112523,6,0,P|92:225|61:229,1,57.2,2|0,1:2|0:0,0:0:0:0:
213,164,112849,2,0,P|229:188|249:214,1,57.2,0|8,0:0|0:0,0:0:0:0:
116,107,113175,2,0,P|128:81|141:50,1,57.2,2|8,0:0|0:0,0:0:0:0:
66,228,113501,1,6,1:2:0:0:
17,351,113665,1,8,0:0:0:0:
13,363,113746,1,8,0:0:0:0:
9,376,113828,1,10,0:0:0:0:
9,376,114154,1,2,1:2:0:0:
195,321,114317,1,0,1:0:0:0:
0,288,114480,6,0,P|35:332|92:339,1,114.4,6|0,1:2|0:0,0:0:0:0:
12,175,114969,2,0,B|12:208|12:208|0:253|0:253|0:288,1,114.4,2|0,0:0|0:0,0:0:0:0:
64,90,115458,2,0,P|41:71|16:48,1,57.2,2|0,1:2|0:0,0:0:0:0:
158,122,115784,2,0,P|183:116|213:109,1,57.2,2|0,0:0|0:0,0:0:0:0:
383,65,116110,1,0,0:0:0:0:
383,65,116436,6,0,P|327:66|285:29,1,114.4,2|0,1:2|0:0,0:0:0:0:
431,0,116925,2,0,L|447:126,1,114.4,2|0,0:0|0:0,0:0:0:0:
481,231,117415,2,0,P|452:224|419:222,1,57.2,2|0,1:2|0:0,0:0:0:0:
284,155,117741,2,0,P|311:153|340:147,1,57.2,2|0,0:0|0:0,0:0:0:0:
325,255,118067,1,0,0:0:0:0:
358,356,118230,1,0,0:0:0:0:
361,368,118311,1,0,0:0:0:0:
365,380,118393,6,0,P|312:357|247:361,1,114.4,6|0,1:2|0:0,0:0:0:0:
148,320,118882,2,0,P|95:343|39:339,1,114.4,2|0,0:0|0:0,0:0:0:0:
231,249,119371,2,0,P|224:222|219:194,1,57.2,2|0,1:2|0:0,0:0:0:0:
105,100,119697,2,0,P|100:128|93:155,1,57.2,2|0,0:0|0:0,0:0:0:0:
39,339,120023,1,0,0:0:0:0:
39,339,120349,5,6,1:2:0:0:
0,174,120512,2,0,P|7:205|15:252,1,57.2,8|8,0:0|0:0,0:0:0:0:
168,268,120838,1,6,1:2:0:0:
45,384,121001,2,0,P|68:362|105:332,1,57.2,8|8,0:0|0:0,0:0:0:0:
43,190,121328,1,6,1:2:0:0:
204,238,121491,1,8,0:0:0:0:
204,238,121572,1,8,0:0:0:0:
204,238,121654,2,0,P|173:228|128:211,1,57.2,10|8,0:0|0:0,0:0:0:0:
258,119,121980,1,0,1:2:0:0:
173,317,122143,1,0,1:2:0:0:
173,317,122224,1,0,1:0:0:0:
173,317,122306,6,0,P|218:286|282:280,1,114.4,6|0,1:2|0:0,0:0:0:0:
399,174,122795,2,0,B|365:190|345:193|345:193|365:196|400:207,1,114.4,10|0,0:0|1:2,0:0:0:0:
276,104,123284,2,0,P|247:105|219:98,1,57.2,2|0,1:2|0:0,0:0:0:0:
90,186,123610,2,0,P|118:184|148:183,1,57.2,10|0,0:2|0:0,0:0:0:0:
30,42,123936,1,0,1:2:0:0:
30,42,124262,6,0,B|32:60|37:82|37:82|1:99|-16:138,1,114.4,2|0,1:2|0:0,0:0:0:0:
14,275,124751,2,0,P|65:301|122:297,1,114.4,10|0,0:0|1:2,0:0:0:0:
204,193,125241,2,0,P|203:165|199:137,1,57.2,2|0,1:2|0:0,0:0:0:0:
302,337,125567,2,0,P|303:308|306:279,1,57.2,10|0,0:0|0:0,0:0:0:0:
313,168,125893,1,0,1:2:0:0:
383,384,126056,1,0,1:2:0:0:
371,384,126137,1,0,0:0:0:0:
358,384,126219,6,0,B|321:384|321:384|281:377|281:377|245:377,1,114.4,2|0,1:2|0:0,0:0:0:0:
70,362,126708,2,0,P|127:363|175:328,1,114.4,10|0,0:0|1:2,0:0:0:0:
87,224,127197,2,0,P|95:253|101:279,1,57.2,2|0,1:2|0:0,0:0:0:0:
204,130,127523,2,0,P|196:159|190:185,1,57.2,10|0,0:0|0:0,0:0:0:0:
99,54,127849,1,0,1:2:0:0:
99,54,128175,5,2,1:2:0:0:
189,185,128338,1,8,0:0:0:0:
188,172,128420,1,8,0:0:0:0:
187,159,128501,1,8,0:0:0:0:
101,279,128665,1,2,1:2:0:0:
0,175,128828,2,0,P|29:173|77:166,1,57.2,8|0,0:0|1:2,0:0:0:0:
193,321,129154,6,0,P|125:378|39:359,1,178.75,6|0,1:2|0:0,0:0:0:0:
30,344,130132,6,0,L|36:210,2,128.699996072388,2|2|2,0:0|0:0|0:0,0:0:0:0:
110,384,131436,1,2,0:0:0:0:
357,303,132088,6,0,P|304:338|240:323,2,128.699996072388,2|2|2,0:0|0:0|0:0,0:0:0:0:
289,253,133393,1,2,0:0:0:0:
348,114,134045,6,0,P|281:110|207:98,2,128.699996072388,2|2|2,0:0|0:0|0:0,0:0:0:0:
438,113,135349,1,2,0:0:0:0:
438,113,136001,5,2,0:0:0:0:
483,193,136165,2,0,P|480:235|479:284,1,85.7999973815919,2|2,0:0|0:0,0:0:0:0:
476,384,136817,1,2,0:0:0:0:
476,384,136980,1,2,0:0:0:0:
383,325,137306,2,0,B|335:325|335:325|305:314|305:314|276:318|256:314,1,128.699996072388,2|0,0:0|0:0,0:0:0:0:
241,314,137958,6,0,P|293:291|311:236,1,114.4,10|10,3:2|3:2,3:2:0:0:
304,141,138447,1,0,3:2:0:0:
387,184,138610,2,0,P|414:183|445:183,1,57.2,10|0,3:2|3:2,3:2:0:0:
230,201,138936,2,0,P|175:203|107:203,1,114.4,10|2,3:2|3:2,3:2:0:0:
32,306,139425,1,0,3:2:0:0:
45,141,139588,2,0,L|49:121,6,14.3,8|0|0|2|0|0|0,3:2|3:2|3:2|3:2|3:2|3:2|3:2,3:2:0:0:
43,155,139915,6,0,P|88:120|143:122,1,114.4,10|10,3:2|3:2,3:2:0:0:
229,12,140404,1,0,3:2:0:0:
229,12,140567,2,0,P|224:50|219:81,1,57.2,8|0,3:2|3:2,3:2:0:0:
208,192,140893,2,0,P|204:221|201:250,1,57.2,8|0,3:2|3:2,3:2:0:0:
188,372,141219,2,0,L|191:350,6,14.3,8|0|0|0|0|0|0,3:2|3:2|3:2|3:2|3:2|3:2|3:2,3:2:0:0:
188,384,141545,2,0,P|213:378|246:374,1,57.2,10|0,3:2|3:2,3:2:0:0:
412,259,141871,6,0,P|364:286|300:275,1,114.4,10|8,3:2|3:2,3:2:0:0:
334,137,142360,1,0,3:2:0:0:
334,137,142523,2,0,P|338:164|345:194,1,57.2,10|0,3:2|3:2,3:2:0:0:
421,345,142849,2,0,P|395:334|366:326,1,57.2,10|0,3:2|3:2,3:2:0:0:
203,315,143175,2,0,P|225:298|247:279,1,57.2,10|0,3:2|3:2,3:2:0:0:
130,375,143501,2,0,L|108:389,6,14.3,10|0|0|0|0|0|0,3:2|3:2|3:2|3:2|3:2|3:2|3:2,3:2:0:0:
141,373,143828,6,0,P|196:367|253:385,1,114.4,10|8,3:2|3:2,3:2:0:0:
319,287,144317,1,0,3:2:0:0:
199,219,144480,2,0,P|197:251|195:276,1,57.2,10|0,3:2|3:2,3:2:0:0:
296,93,144806,2,0,P|297:125|299:150,1,57.2,6|8,1:2|0:2,0:0:0:0:
301,161,145050,1,8,0:0:0:0:
302,172,145132,1,8,0:0:0:0:
407,207,145295,1,8,0:0:0:0:
415,321,145458,1,0,1:2:0:0:
325,384,145621,1,0,1:2:0:0:
313,382,145703,1,0,0:0:0:0:
302,380,145784,6,0,P|264:373|227:371,1,57.2,6|0,1:2|0:0,0:0:0:0:
222,211,146110,1,0,0:0:0:0:
60,326,146273,2,0,B|120:340|175:298,1,114.4,10|0,0:0|1:2,0:0:0:0:
214,154,146762,2,0,P|217:181|221:210,1,57.2,2|0,1:2|0:0,0:0:0:0:
302,380,147088,2,0,P|305:352|309:323,1,57.2,10|0,0:0|0:0,0:0:0:0:
442,209,147415,2,0,P|412:214|386:216,1,57.2,0|0,1:2|0:0,0:0:0:0:
320,238,147659,1,0,0:0:0:0:
320,238,147741,6,0,P|352:242|387:247,1,57.2,2|0,1:2|0:0,0:0:0:0:
207,220,148067,1,0,0:0:0:0:
98,201,148230,2,0,B|68:210|42:203|42:203|12:195|-17:204,1,114.4,10|0,0:0|1:2,0:0:0:0:
56,61,148719,2,0,P|61:89|66:118,1,57.2,2|0,1:2|0:0,0:0:0:0:
54,237,149045,2,0,P|75:218|98:199,1,57.2,10|0,0:0|0:0,0:0:0:0:
215,157,149371,2,0,P|187:147|160:137,1,57.2,0|0,1:2|0:0,0:0:0:0:
151,131,149616,1,0,0:0:0:0:
161,127,149697,6,0,P|187:117|214:107,1,57.2,2|0,1:2|0:0,0:0:0:0:
323,63,150023,1,0,0:0:0:0:
61,129,150186,2,0,P|78:185|131:220,1,114.4,10|0,0:0|1:2,0:0:0:0:
142,333,150675,2,0,P|169:324|216:319,1,57.2,2|0,1:2|0:0,0:0:0:0:
296,257,151001,2,0,P|322:263|352:264,1,57.2,10|0,0:0|0:0,0:0:0:0:
470,340,151328,1,0,1:2:0:0:
491,182,151491,1,0,0:0:0:0:
489,197,151572,1,0,0:0:0:0:
487,211,151654,5,2,1:2:0:0:
506,97,151817,2,0,P|468:137|408:139,1,114.4,10|10,0:0|0:0,0:0:0:0:
411,140,152469,1,10,0:0:0:0:
323,251,152632,1,6,1:2:0:0:
323,106,152795,2,8,L|325:69,2,28.6,8|8|10,0:0|0:0|0:0,0:0:0:0:
407,228,153121,1,8,0:0:0:0:
269,180,153284,2,0,P|235:178|195:178,1,57.2,0|0,1:2|1:2,0:0:0:0:
152,131,153529,1,0,0:0:0:0:
152,131,153610,6,0,P|180:130|209:127,1,57.2,6|0,1:2|0:0,0:0:0:0:
323,106,153936,1,0,0:0:0:0:
78,91,154099,2,0,P|68:149|98:196,1,114.4,10|0,0:0|1:2,0:0:0:0:
124,325,154588,2,0,P|93:322|57:323,1,57.2,2|0,1:2|0:0,0:0:0:0:
210,237,154915,2,0,P|241:240|277:239,1,57.2,10|0,0:0|0:0,0:0:0:0:
396,236,155241,1,0,1:2:0:0:
294,76,155404,1,0,0:0:0:0:
294,76,155485,1,0,0:0:0:0:
294,76,155567,6,0,P|306:104|325:134,1,57.2,2|0,1:2|0:0,0:0:0:0:
444,88,155893,1,0,0:0:0:0:
468,208,156056,2,0,P|437:264|418:320,1,114.4,10|0,0:0|1:2,0:0:0:0:
324,384,156545,2,0,P|317:356|304:320,1,57.2,2|0,1:2|0:0,0:0:0:0:
247,191,156871,2,0,P|240:218|231:246,1,57.2,10|0,0:0|0:0,0:0:0:0:
108,365,157197,2,0,P|135:360|174:355,1,57.2,0|0,1:2|0:0,0:0:0:0:
177,355,157442,1,0,0:0:0:0:
189,351,157523,6,0,P|165:337|137:309,1,57.2,2|0,1:2|0:0,0:0:0:0:
231,245,157849,1,0,0:0:0:0:
336,262,158012,2,0,P|278:270|230:244,1,114.4,10|0,0:0|1:2,0:0:0:0:
407,174,158501,2,0,P|431:196|444:238,1,57.2,2|0,1:2|0:0,0:0:0:0:
299,161,158828,2,0,P|306:129|335:96,1,57.2,10|0,0:0|0:0,0:0:0:0:
336,262,159154,2,0,P|304:271|262:262,1,57.2,0|0,1:2|0:0,0:0:0:0:
271,267,159398,1,0,0:0:0:0:
260,263,159480,5,2,1:2:0:0:
87,362,159643,2,0,P|137:339|198:354,1,114.4,10|10,0:0|0:0,0:0:0:0:
193,350,160295,1,10,0:2:0:0:
121,252,160458,1,6,1:2:0:0:
105,138,160621,2,8,L|102:106,2,28.6,8|8|8,0:0|0:0|0:0,0:0:0:0:
35,282,160947,1,8,0:0:0:0:
208,222,161110,2,0,P|236:213|265:204,1,57.2,0|0,1:2|1:2,0:0:0:0:
451,132,161436,6,0,P|407:125|362:113,1,85.7999973815919,0|2,0:0|0:0,0:0:0:0:
325,37,162415,2,0,P|296:71|264:104,1,85.7999973815919,0|2,0:0|0:0,0:0:0:0:
176,92,163393,2,0,P|191:133|204:178,1,85.7999973815919,0|2,0:0|0:0,0:0:0:0:
147,250,164371,2,0,P|190:256|235:269,1,85.7999973815919,0|2,0:0|0:0,0:0:0:0:
457,299,165349,5,0,0:0:0:0:
363,337,165675,1,2,0:0:0:0:
463,320,166328,1,0,0:0:0:0:
351,315,166654,1,2,0:0:0:0:
459,348,167306,1,0,0:0:0:0:
354,285,167632,1,2,0:0:0:0:
437,368,168284,1,0,0:0:0:0:
372,265,168610,2,0,B|368:231|386:203|386:203|404:176|402:141,1,128.699996072388,2|0,0:0|0:0,0:0:0:0:
402,124,169262,6,0,P|357:145|306:142,1,100.099996945191,2|0,0:0|0:0,0:0:0:0:
196,81,169915,1,2,0:0:0:0:
442,45,170241,2,0,P|446:122|453:205,1,150.149995417786,2|0,0:0|0:0,0:0:0:0:
509,310,170893,2,0,L|512:248,1,50.0499984725953,2|0,0:0|0:0,0:0:0:0:
468,384,171219,5,2,0:0:0:0:
390,339,171545,1,0,0:0:0:0:
297,328,171871,1,2,0:0:0:0:
201,371,172197,2,0,P|126:383|63:342,1,150.149995417786,2|0,0:0|0:0,0:0:0:0:
98,192,172849,1,2,0:0:0:0:
98,192,173175,5,6,1:2:0:0:
201,26,173501,2,0,P|208:67|212:111,1,85.7999973815919
96,172,174154,1,2,1:2:0:0:
351,81,174480,2,0,P|342:127|339:174,1,92.9499957450869,2|0,0:0|0:0,0:0:0:0:
95,154,175132,1,2,1:2:0:0:
228,201,175458,2,0,P|236:248|242:302,1,100.099996945191
93,140,176110,1,0,1:2:0:0:
331,277,176436,2,0,P|323:330|319:384,1,107.250004091263,0|2,0:0|0:0,0:0:0:0:
355,88,177088,5,6,1:2:0:0:
392,228,177415,2,0,B|353:229|353:229|317:221|317:221|278:221,1,114.4
102,223,178067,1,2,1:2:0:0:
276,14,178393,2,0,P|238:54|190:111,1,114.4,2|0,0:0|0:0,0:0:0:0:
90,236,179045,5,6,1:2:0:0:
189,115,179208,2,0,P|204:91|222:53,1,57.2,8|8,0:0|0:0,0:0:0:0:
73,126,179534,1,6,1:2:0:0:
206,230,179697,2,0,P|231:242|255:257,1,57.2,8|8,0:0|0:0,0:0:0:0:
444,192,180023,2,0,B|463:177|492:164|492:164|433:182|369:164,1,178.75,6|0,1:2|0:0,0:0:0:0:
380,179,181001,6,0,P|336:173|294:181,1,85.7999973815919,2|0,0:0|0:0,0:0:0:0:
217,126,181654,1,2,0:0:0:0:
230,35,181980,2,0,P|193:87|126:100,1,128.699996072388,2|0,0:0|0:0,0:0:0:0:
132,101,182632,1,2,0:0:0:0:
46,221,182958,6,0,P|50:260|56:314,1,85.7999973815919,2|0,0:0|0:0,0:0:0:0:
152,253,183610,1,2,0:0:0:0:
5,134,183936,2,0,P|59:171|125:162,1,128.699996072388,2|0,0:0|0:0,0:0:0:0:
201,126,184588,1,2,0:0:0:0:
366,88,184915,6,0,P|323:87|278:84,1,85.7999973815919,2|0,0:0|0:0,0:0:0:0:
203,38,185567,1,2,0:0:0:0:
123,79,185893,1,2,0:0:0:0:
123,167,186219,1,0,0:0:0:0:
201,214,186545,1,2,0:0:0:0:
276,169,186871,6,0,P|334:163|409:158,1,128.699996072388,2|0,0:0|0:0,0:0:0:0:
512,100,187523,2,0,P|492:99|470:97,1,42.8999986907959,2|0,0:0|0:0,0:0:0:0:
397,43,187849,2,0,P|453:50|508:8,1,128.699996072388,2|0,0:0|0:0,0:0:0:0:
507,8,188501,1,2,0:0:0:0:
480,182,188828,6,0,P|475:226|471:280,1,85.7999973815919,2|0,0:0|0:0,0:0:0:0:
467,354,189480,1,2,0:0:0:0:
386,306,189806,2,0,P|320:303|258:302,1,128.699996072388,2|0,0:0|0:0,0:0:0:0:
257,301,190458,1,2,0:0:0:0:
123,236,190784,6,0,P|101:275|76:308,1,85.7999973815919,2|0,0:0|0:0,0:0:0:0:
164,155,191436,1,2,0:0:0:0:
145,71,191762,2,0,P|183:120|246:126,1,128.699996072388,2|0,0:0|0:0,0:0:0:0:
329,101,192415,1,2,0:0:0:0:
458,209,192741,6,0,P|450:252|444:300,1,85.7999973815919,2|0,0:0|0:0,0:0:0:0:
284,365,193393,2,0,P|327:355|370:346,1,85.7999973815919,2|2,0:0|0:0,0:0:0:0:
205,320,194045,2,0,P|141:326|92:289,1,128.699996072388,2|0,0:0|0:0,0:0:0:0:
91,288,194697,5,2,0:0:0:0:
101,202,195023,1,0,0:0:0:0:
110,117,195349,1,2,0:0:0:0:
120,35,195675,6,0,P|117:62|113:92,1,57.2,6|8,1:2|0:0,0:0:0:0:
111,105,195920,1,8,0:0:0:0:
110,117,196001,1,8,0:0:0:0:
46,255,196165,2,0,P|70:243|98:232,1,57.2,8|2,0:0|1:2,0:0:0:0:
251,212,196491,1,0,1:2:0:0:
251,212,196572,1,0,0:0:0:0:
251,212,196654,6,0,P|228:196|205:177,1,57.2,6|0,1:2|0:0,0:0:0:0:
368,272,196980,1,0,0:0:0:0:
341,182,197143,1,8,0:0:0:0:
278,302,197306,2,0,P|265:329|252:358,1,57.2,2|0,0:2|1:2,0:0:0:0:
341,182,197632,2,0,B|374:204|374:204|406:191|448:202,1,114.4,2|8,1:2|0:0,0:0:0:0:
322,92,198121,1,0,0:0:0:0:
411,289,198284,2,0,P|412:317|414:347,1,57.2,2|0,1:2|0:0,0:0:0:0:
414,359,198529,1,0,0:0:0:0:
414,372,198610,5,2,1:2:0:0:
335,248,198773,1,0,0:0:0:0:
485,245,198936,1,0,0:0:0:0:
337,330,199099,1,8,0:0:0:0:
407,199,199262,1,2,0:0:0:0:
492,325,199425,1,0,1:2:0:0:
445,123,199588,2,0,P|395:152|338:144,1,114.4,2|8,1:2|0:0,0:0:0:0:
374,20,200078,1,0,0:0:0:0:
172,94,200241,2,0,P|195:92|236:91,1,57.2,2|0,1:2|0:0,0:0:0:0:
292,64,200485,1,0,0:0:0:0:
292,64,200567,6,0,P|259:61|227:55,1,57.2,2|0,1:2|0:0,0:0:0:0:
417,103,200893,2,0,P|450:106|482:112,1,57.2,0|8,0:0|0:0,0:0:0:0:
300,34,201219,2,0,P|272:38|233:41,1,57.2,2|0,0:2|1:2,0:0:0:0:
421,133,201545,2,0,P|449:129|488:126,1,57.2,2|0,1:2|0:0,0:0:0:0:
308,6,201871,2,0,P|278:16|246:24,1,57.2,10|0,0:0|0:0,0:0:0:0:
424,160,202197,2,0,P|454:150|486:142,1,57.2,2|0,1:2|0:0,0:0:0:0:
489,140,202442,1,0,0:0:0:0:
501,137,202523,5,2,1:2:0:0:
453,276,202686,2,0,B|428:284|397:275|397:275|365:265|340:273,1,114.4,8|8,0:0|0:0,0:0:0:0:
340,272,203338,1,8,0:0:0:0:
173,242,203501,2,0,P|203:238|244:235,1,57.2,6|8,1:2|0:0,0:0:0:0:
243,234,203746,1,8,0:0:0:0:
258,233,203828,1,8,0:0:0:0:
396,87,203991,1,8,0:0:0:0:
246,138,204154,1,2,1:2:0:0:
463,175,204317,1,0,1:2:0:0:
463,175,204398,1,0,0:0:0:0:
463,175,204480,6,0,P|435:178|407:182,1,57.2,6|0,1:2|0:0,0:0:0:0:
307,241,204806,2,0,P|290:218|272:196,1,57.2,0|8,0:0|0:0,0:0:0:0:
168,154,205132,2,0,P|179:128|189:102,1,57.2,2|0,0:0|1:2,0:0:0:0:
198,240,205458,2,0,P|150:208|95:208,1,114.4,2|8,1:2|0:0,0:0:0:0:
94,208,205947,1,0,0:2:0:0:
70,43,206110,2,0,P|74:74|80:122,1,57.2,2|0,1:2|0:0,0:0:0:0:
79,110,206355,1,0,0:0:0:0:
82,121,206436,5,2,1:2:0:0:
111,299,206599,1,0,0:0:0:0:
119,189,206762,1,0,0:0:0:0:
112,307,206925,1,8,0:0:0:0:
191,203,207088,1,2,0:0:0:0:
113,316,207251,1,0,1:2:0:0:
256,170,207415,2,0,B|289:170|289:170|331:181|331:181|368:181,1,114.4,2|8,1:2|0:0,0:0:0:0:
495,160,207904,1,0,0:0:0:0:
461,340,208067,2,0,P|456:312|453:284,1,57.2,2|0,1:2|0:0,0:0:0:0:
456,269,208311,1,0,0:0:0:0:
458,255,208393,6,0,P|436:280|405:293,1,57.2,2|0,1:2|0:0,0:0:0:0:
349,134,208719,2,0,P|359:165|355:198,1,57.2,0|8,0:0|0:0,0:0:0:0:
195,153,209045,2,0,P|227:159|254:179,1,57.2,2|0,0:0|1:2,0:0:0:0:
133,296,209371,2,0,P|155:271|186:258,1,57.2,2|0,1:2|0:0,0:0:0:0:
336,360,209697,2,0,B|311:371|280:361|280:361|249:350|223:360,1,114.4,10|0,0:0|1:2,0:0:0:0:
125,241,210186,1,0,0:0:0:0:
126,256,210268,1,0,0:0:0:0:
128,271,210349,5,2,1:2:0:0:
256,128,210512,2,8,P|258:112|262:96,2,28.6
234,315,210838,1,0,1:2:0:0:
143,155,211001,2,0,P|110:166|71:164,1,71.5,10|8,0:0|0:0,0:0:0:0:
311,230,211328,2,0,B|357:226|357:226|394:246|454:236,1,139.42499361763,2|0,1:2|0:0,0:0:0:0:
464,236,211654,6,0,P|372:185|512:113,1,343.199989526368,2|2,3:2|3:0,0:0:0:0:
