osu file format v14

[General]
AudioFilename: audio.mp3
AudioLeadIn: 0
PreviewTime: 82330
Countdown: 0
SampleSet: Soft
StackLeniency: 0.7
Mode: 0
LetterboxInBreaks: 0
WidescreenStoryboard: 0

[Editor]
Bookmarks: 53165,185883,202187
DistanceSpacing: 1.5
BeatDivisor: 4
GridSize: 4
TimelineZoom: 1.5

[Metadata]
Title:Taylor
TitleUnicode:Taylor
Artist:LhoU
ArtistUnicode:LhoU
Creator:Niva
Version:Hard
Source:
Tags:orbis fusion phantasma lhoustudio the world of sound
BeatmapID:1375242
BeatmapSetID:648127

[Difficulty]
HPDrainRate:6
CircleSize:4
OverallDifficulty:6
ApproachRate:8
SliderMultiplier:1.36
SliderTickRate:2

[Events]
//Background and Video events
0,0,"Lonely-Tree-Cyrodan2.jpg",0,0
//Break Periods
//Storyboard Layer 0 (Background)
//Storyboard Layer 1 (Fail)
//Storyboard Layer 2 (Pass)
//Storyboard Layer 3 (Foreground)
//Storyboard Sound Samples

[TimingPoints]
1002,326.086956521739,3,2,72,50,1,0
1002,-125,3,2,72,50,0,0
15675,-125,3,2,72,60,0,0
16491,-125,3,2,72,50,0,0
16654,-125,3,2,72,60,0,0
17469,-125,3,2,72,50,0,0
17632,-125,3,2,72,60,0,0
19425,-125,3,2,72,50,0,0
19588,-125,3,2,72,60,0,0
20404,-125,3,2,72,50,0,0
20567,-125,3,2,72,60,0,0
21382,-125,3,2,72,50,0,0
21545,-125,3,2,72,60,0,0
23338,-125,3,2,72,50,0,0
23501,-125,3,2,72,60,0,0
24317,-125,3,2,72,50,0,0
24480,-125,3,2,72,60,0,0
25295,-125,3,2,72,50,0,0
25458,-125,3,2,72,60,0,0
27251,-125,3,2,72,50,0,0
27415,-125,3,2,72,60,0,0
28230,-125,3,2,72,50,0,0
28393,-125,3,2,72,60,0,0
29208,-125,3,2,72,50,0,0
29371,-125,3,2,72,60,0,0
31165,-125,3,2,72,50,0,0
31328,-125,3,2,72,60,0,0
32143,-125,3,2,72,50,0,0
32306,-125,3,2,72,60,0,0
33121,-125,3,2,72,50,0,0
33284,-125,3,2,72,60,0,0
34099,-125,3,2,72,50,0,0
34262,-125,3,2,72,60,0,0
35078,-125,3,2,72,50,0,0
35241,-125,3,2,72,60,0,0
36056,-125,3,2,72,50,0,0
36219,-125,3,2,72,60,0,0
37034,-125,3,2,72,50,0,0
37197,-125,3,2,72,60,0,0
38012,-125,3,2,72,50,0,0
38175,-125,3,2,72,60,0,0
38991,-125,3,2,72,50,0,0
39154,-125,3,2,72,60,0,0
39969,-125,3,2,72,50,0,0
40132,-125,3,2,72,60,0,0
40947,-125,3,2,72,50,0,0
41110,-125,3,2,72,60,0,0
41925,-125,3,2,72,50,0,0
42088,-125,3,2,72,60,0,0
42904,-125,3,2,72,50,0,0
43067,-125,3,2,72,60,0,0
43882,-125,3,2,72,50,0,0
44045,-125,3,2,72,60,0,0
44860,-125,3,2,72,50,0,0
45023,-125,3,2,72,60,0,0
45838,-125,3,2,72,50,0,0
46001,-125,3,2,72,60,0,0
46817,-125,3,2,72,50,0,0
46980,-125,3,2,72,60,0,0
47795,-125,3,2,72,50,0,0
47958,-125,3,2,72,60,0,0
48773,-125,3,2,72,50,0,0
48936,-125,3,2,72,60,0,0
49751,-125,3,2,72,50,0,0
49915,-125,3,2,72,60,0,0
50730,-125,3,2,72,50,0,0
50893,-125,3,2,72,60,0,0
51708,-125,3,2,72,50,0,0
51871,-125,3,2,72,60,0,0
52686,-125,3,2,72,50,0,0
52849,-125,3,2,72,60,0,0
53665,-125,3,2,72,50,0,0
53828,-125,3,2,72,60,0,0
55621,-125,3,2,72,50,0,0
55784,-125,3,2,72,60,0,0
56599,-125,3,2,72,50,0,0
56762,-125,3,2,72,60,0,0
57578,-125,3,2,72,50,0,0
57741,-125,3,2,72,60,0,0
58556,-125,3,2,72,50,0,0
58719,-125,3,2,72,60,0,0
59534,-125,3,2,72,50,0,0
59697,-125,3,2,72,60,0,0
60512,-125,3,2,72,50,0,0
60675,-125,3,2,72,60,0,0
61491,-125,3,2,72,50,0,0
61654,-125,3,2,72,60,0,0
62469,-125,3,2,72,50,0,0
62632,-125,3,2,72,60,0,0
63447,-125,3,2,72,50,0,0
63610,-166.666666666667,3,2,72,50,0,0
71273,-166.666666666667,3,2,72,15,0,0
71436,-142.857142857143,3,2,72,50,0,0
75349,-133.333333333333,3,2,72,60,0,0
75675,-133.333333333333,3,2,72,50,0,0
76328,-133.333333333333,3,2,72,60,0,0
76654,-133.333333333333,3,2,72,50,0,0
77306,-133.333333333333,3,2,72,60,0,0
77632,-133.333333333333,3,2,72,50,0,0
78284,-133.333333333333,3,2,72,60,0,0
78610,-133.333333333333,3,2,72,50,0,0
79262,-125,3,2,72,60,0,0
79588,-125,3,2,72,50,0,0
80241,-125,3,2,72,60,0,0
80567,-125,3,2,72,50,0,0
81219,-125,3,2,72,60,0,0
83012,-125,3,2,72,50,0,0
83175,-125,3,2,72,60,0,1
83991,-125,3,2,72,50,0,1
84154,-125,3,2,72,60,0,1
84969,-125,3,2,72,50,0,1
85132,-125,3,2,72,60,0,1
85947,-125,3,2,72,50,0,1
86110,-125,3,2,72,60,0,1
86925,-125,3,2,72,50,0,1
87088,-125,3,2,72,60,0,1
87904,-125,3,2,72,50,0,1
88067,-125,3,2,72,60,0,1
88882,-125,3,2,72,50,0,1
89045,-125,3,2,72,60,0,1
90838,-125,3,2,72,50,0,1
91001,-125,3,2,72,60,0,1
91817,-125,3,2,72,50,0,1
91980,-125,3,2,72,60,0,1
92795,-125,3,2,72,50,0,1
92958,-125,3,2,72,60,0,1
93773,-125,3,2,72,50,0,1
93936,-125,3,2,72,60,0,1
94751,-125,3,2,72,50,0,1
94915,-125,3,2,72,60,0,1
95730,-125,3,2,72,50,0,1
95893,-125,3,2,72,60,0,1
96708,-125,3,2,72,50,0,1
96871,-125,3,2,72,60,0,1
97849,-125,3,2,72,60,0,0
98665,-125,3,2,72,50,0,0
98828,-125,3,2,72,60,0,1
99643,-125,3,2,72,50,0,1
99806,-125,3,2,72,60,0,1
100621,-125,3,2,72,50,0,1
100784,-125,3,2,72,60,0,1
101599,-125,3,2,72,50,0,1
101762,-125,3,2,72,60,0,1
102578,-125,3,2,72,50,0,1
102741,-125,3,2,72,60,0,1
103556,-125,3,2,72,50,0,1
103719,-125,3,2,72,60,0,1
104534,-125,3,2,72,50,0,1
104697,-125,3,2,72,60,0,1
106491,-125,3,2,72,50,0,1
106654,-125,3,2,72,60,0,1
107469,-125,3,2,72,50,0,1
107632,-125,3,2,72,60,0,1
108447,-125,3,2,72,50,0,1
108610,-125,3,2,72,60,0,1
109425,-125,3,2,72,50,0,1
109588,-125,3,2,72,60,0,1
110404,-125,3,2,72,50,0,1
110567,-125,3,2,72,60,0,1
111382,-125,3,2,72,50,0,1
111545,-125,3,2,72,60,0,1
112360,-125,3,2,72,50,0,1
112523,-125,3,2,72,60,0,1
114317,-125,3,2,72,50,0,1
114480,-125,3,2,72,60,0,0
122143,-125,3,2,72,50,0,0
122306,-125,3,2,72,60,0,0
123121,-125,3,2,72,50,0,0
123284,-125,3,2,72,60,0,0
125078,-125,3,2,72,50,0,0
125241,-125,3,2,72,60,0,0
126056,-125,3,2,72,50,0,0
126219,-125,3,2,72,60,0,0
127034,-125,3,2,72,50,0,0
127197,-125,3,2,72,60,0,0
128991,-125,3,2,72,50,0,0
129154,-200,3,2,72,60,0,0
129969,-200,3,2,72,15,0,0
130132,-166.666666666667,3,2,72,50,0,0
137958,-125,3,2,12,50,0,0
144806,-125,3,2,72,60,0,0
145621,-125,3,2,72,50,0,0
145784,-125,3,2,72,60,0,0
146599,-125,3,2,72,50,0,0
146762,-125,3,2,72,60,0,0
147578,-125,3,2,72,50,0,0
147741,-125,3,2,72,60,0,0
148556,-125,3,2,72,50,0,0
148719,-125,3,2,72,60,0,0
149534,-125,3,2,72,50,0,0
149697,-125,3,2,72,60,0,0
150512,-125,3,2,72,50,0,0
150675,-125,3,2,72,60,0,0
151491,-125,3,2,72,50,0,0
151654,-125,3,2,72,60,0,0
153447,-125,3,2,72,50,0,0
153610,-125,3,2,72,60,0,0
154425,-125,3,2,72,50,0,0
154588,-125,3,2,72,60,0,0
155404,-125,3,2,72,50,0,0
155567,-125,3,2,72,60,0,0
156382,-125,3,2,72,50,0,0
156545,-125,3,2,72,60,0,0
157360,-125,3,2,72,50,0,0
157523,-125,3,2,72,60,0,0
158338,-125,3,2,72,50,0,0
158501,-125,3,2,72,60,0,0
159317,-125,3,2,72,50,0,0
159480,-125,3,2,72,60,0,0
161273,-125,3,2,72,60,0,0
161436,-166.666666666667,3,2,72,50,0,0
169099,-166.666666666667,3,2,72,15,0,0
169262,-142.857142857143,3,2,72,50,0,0
173175,-133.333333333333,3,2,72,60,0,0
173501,-133.333333333333,3,2,72,50,0,0
174154,-133.333333333333,3,2,72,60,0,0
174480,-133.333333333333,3,2,72,50,0,0
175132,-133.333333333333,3,2,72,60,0,0
175458,-133.333333333333,3,2,72,50,0,0
176110,-133.333333333333,3,2,72,60,0,0
176436,-133.333333333333,3,2,72,50,0,0
177088,-125,3,2,72,60,0,0
177415,-125,3,2,72,50,0,0
178067,-125,3,2,72,60,0,0
178393,-125,3,2,72,50,0,0
179045,-125,3,2,72,60,0,0
180023,-200,3,2,72,60,0,0
180064,-200,3,2,72,10,0,0
180186,-200,3,2,72,20,0,0
180349,-200,3,2,72,30,0,0
180512,-200,3,2,72,40,0,0
180675,-200,3,2,72,50,0,0
180838,-200,3,2,72,15,0,0
181001,-166.666666666667,3,2,72,50,0,0
195675,-125,3,2,72,60,0,0
196491,-125,3,2,72,50,0,0
196654,-125,3,2,72,60,0,1
197469,-125,3,2,72,50,0,1
197632,-125,3,2,72,60,0,1
198447,-125,3,2,72,50,0,1
198610,-125,3,2,72,60,0,1
199425,-125,3,2,72,50,0,1
199588,-125,3,2,72,60,0,1
200404,-125,3,2,72,50,0,1
200567,-125,3,2,72,60,0,1
201382,-125,3,2,72,50,0,1
201545,-125,3,2,72,60,0,1
202360,-125,3,2,72,50,0,1
202523,-125,3,2,72,60,0,1
204317,-125,3,2,72,50,0,1
204480,-125,3,2,72,60,0,1
205295,-125,3,2,72,50,0,1
205458,-125,3,2,72,60,0,1
206273,-125,3,2,72,50,0,1
206436,-125,3,2,72,60,0,1
207251,-125,3,2,72,50,0,1
207415,-125,3,2,72,60,0,1
208230,-125,3,2,72,50,0,1
208393,-125,3,2,72,60,0,1
209208,-125,3,2,72,50,0,1
209371,-125,3,2,72,60,0,1
210186,-125,3,2,72,50,0,1
210349,-125,3,2,72,60,0,1
211572,-125,3,2,72,15,0,1
211654,-166.666666666667,3,2,72,60,0,0
211980,-166.666666666667,3,2,72,40,0,0
212306,-166.666666666667,3,2,72,20,0,0
212632,-166.666666666667,3,2,72,5,0,0

[Colours]
Combo1 : 255,253,174
Combo2 : 151,255,255
Combo3 : 43,253,190

[HitObjects]
256,39,1002,6,0,P|218:77|161:75,1,108.8,2|0,0:0|0:0,0:0:0:0:
120,144,1491,1,0,0:0:0:0:
131,223,1654,2,0,P|135:250|139:277,1,54.4,0|2,0:0|0:0,0:0:0:0:
118,356,1980,2,0,B|157:364|184:344|184:344|227:344,1,108.8,2|0,0:0|0:0,0:0:0:0:
355,317,2469,1,0,0:0:0:0:
355,317,2632,2,0,L|300:317,1,54.4,0|2,0:0|0:0,0:0:0:0:
431,291,2958,6,0,P|379:277|346:233,1,108.8,2|0,0:0|0:0,0:0:0:0:
340,153,3447,2,0,P|338:131|336:107,2,27.2
347,235,3773,1,0,0:0:0:0:
355,317,3936,2,0,B|393:317|393:317|423:304|423:304|463:304,1,108.8,2|0,0:0|0:0,0:0:0:0:
256,244,4588,1,2,0:0:0:0:
51,303,4915,6,0,B|89:304|89:304|119:317|119:317|157:317,1,108.8,2|0,0:0|0:0,0:0:0:0:
284,360,5404,1,2,0:0:0:0:
284,360,5567,2,0,P|256:359|229:360,1,54.4,2|0,0:0|0:0,0:0:0:0:
355,317,5893,2,0,P|382:317|409:316,1,54.4,2|0,0:0|0:0,0:0:0:0:
483,349,6219,2,0,P|452:307|459:248,1,108.8,2|2,0:0|0:0,0:0:0:0:
407,44,6871,6,0,L|399:112,1,54.4,2|0,0:0|0:0,0:0:0:0:
374,175,7197,2,0,B|401:183|427:175|427:175|454:167|482:174,1,108.8,2|0,0:0|0:0,0:0:0:0:
298,148,7686,1,2,0:0:0:0:
298,148,7849,2,0,P|269:147|240:148,1,54.4,2|0,0:0|0:0,0:0:0:0:
264,69,8175,2,0,P|222:102|166:103,1,108.8
168,280,8828,6,0,P|221:281|264:315,1,108.8,2|0,0:0|0:0,0:0:0:0:
342,294,9317,1,0,0:0:0:0:
421,274,9480,2,0,P|447:276|482:278,2,54.4,0|2|2,0:0|0:0|0:0,0:0:0:0:
263,314,10132,2,0,P|232:311|203:309,1,54.4
89,266,10458,2,0,P|116:264|143:261,1,54.4,0|2,0:0|0:0,0:0:0:0:
11,240,10784,6,0,P|63:227|97:182,1,108.8,2|0,0:0|0:0,0:0:0:0:
106,104,11273,2,0,L|109:74,2,27.2
96,184,11599,1,0,0:0:0:0:
89,266,11762,2,0,P|85:316|79:374,1,108.8,2|0,0:0|0:0,0:0:0:0:
255,338,12415,1,2,0:0:0:0:
433,374,12741,6,0,P|427:320|423:266,1,108.8,2|0,0:0|0:0,0:0:0:0:
512,170,13230,1,2,0:0:0:0:
512,170,13393,2,0,P|481:189|450:193,1,54.4,2|0,0:0|0:0,0:0:0:0:
447,55,13719,2,0,P|454:80|453:108,1,54.4,2|0,0:0|0:0,0:0:0:0:
317,96,14045,2,0,P|353:92|382:102,1,54.4,2|0,0:0|0:0,0:0:0:0:
324,226,14371,2,0,P|328:199|341:175,1,54.4,2|0,0:0|0:0,0:0:0:0:
256,306,14697,5,2,0:0:0:0:
131,130,15023,1,2,0:0:0:0:
256,306,15349,1,2,0:0:0:0:
381,130,15675,5,6,1:2:0:0:
468,100,15838,2,0,L|494:89,2,27.2,8|8|10,0:0|0:0|0:0,0:0:0:0:
291,106,16165,1,8,0:0:0:0:
385,218,16328,2,0,L|388:278,1,54.4,2|0,1:2|1:2,0:0:0:0:
381,130,16654,6,0,P|354:177|305:200,1,108.8,6|0,1:2|0:0,0:0:0:0:
291,291,17143,2,0,P|243:266|185:269,1,108.8,10|0,0:0|1:2,0:0:0:0:
110,153,17632,2,0,P|114:180|119:207,1,54.4,2|0,1:2|0:0,0:0:0:0:
210,72,17958,2,0,P|205:98|201:125,1,54.4,10|0,0:0|0:0,0:0:0:0:
189,267,18284,1,0,1:2:0:0:
188,278,18610,6,0,P|235:252|289:257,1,108.8,2|0,1:2|0:0,0:0:0:0:
365,307,19099,2,0,B|404:308|404:308|434:329|470:323,1,108.8,10|0,0:0|1:2,0:0:0:0:
465,177,19588,2,0,P|460:203|457:231,1,54.4,2|0,1:2|0:0,0:0:0:0:
512,357,19915,2,0,P|490:337|469:322,1,54.4,10|0,0:0|0:0,0:0:0:0:
334,309,20241,2,0,P|361:300|385:289,1,54.4,0|0,1:2|1:2,0:0:0:0:
375,384,20567,6,0,P|325:362|268:370,1,108.8,2|0,1:2|0:0,0:0:0:0:
180,356,21056,2,0,P|132:380|75:370,1,108.8,10|0,0:0|1:2,0:0:0:0:
120,232,21545,2,0,P|119:259|116:286,1,54.4,2|0,1:2|0:0,0:0:0:0:
172,157,21871,2,0,P|169:130|168:102,1,54.4,10|0,0:0|0:0,0:0:0:0:
162,9,22197,1,0,1:2:0:0:
161,0,22523,6,0,P|210:25|262:21,1,108.8,2|0,1:2|0:0,0:0:0:0:
347,57,23012,2,0,B|423:56|423:56|406:49|395:37,1,108.8,10|0,0:0|1:2,0:0:0:0:
405,142,23501,1,6,1:2:0:0:
411,234,23665,2,0,L|414:274,2,27.2,8|8|10,0:0|0:0|0:0,0:0:0:0:
488,184,23991,1,8,0:0:0:0:
325,194,24154,2,0,P|291:197|255:199,1,54.4,0|0,1:2|1:2,0:0:0:0:
118,298,24480,6,0,P|164:323|224:314,1,108.8,6|0,1:2|0:0,0:0:0:0:
282,382,24969,2,0,B|309:368|309:368|356:368|356:368|385:355,1,108.8,10|0,0:0|1:2,0:0:0:0:
446,286,25458,2,0,P|463:307|474:333,1,54.4,2|0,1:2|0:0,0:0:0:0:
419,197,25784,2,0,P|444:192|472:196,1,54.4,10|0,0:0|0:0,0:0:0:0:
306,226,26110,1,0,1:2:0:0:
296,231,26436,6,0,B|268:247|230:239|230:239|199:212,1,108.8,2|0,1:2|0:0,0:0:0:0:
142,139,26925,2,0,P|141:204|93:244,1,108.8,10|0,0:0|1:2,0:0:0:0:
77,369,27415,2,0,P|74:342|69:315,1,54.4,2|0,1:2|0:0,0:0:0:0:
0,217,27741,2,0,P|21:200|42:183,1,54.4,10|0,0:0|0:0,0:0:0:0:
123,84,28067,2,0,P|147:94|173:104,1,54.4,0|0,1:2|1:2,0:0:0:0:
58,26,28393,6,0,P|112:30|159:4,1,108.8,2|0,1:2|0:0,0:0:0:0:
122,111,28882,2,0,B|122:156|122:156|146:180|147:219,1,108.8,10|0,0:0|1:2,0:0:0:0:
109,297,29371,2,0,P|77:311|52:315,1,54.4,2|0,1:2|0:0,0:0:0:0:
200,289,29697,2,0,P|232:297|257:307,1,54.4,10|0,0:0|0:0,0:0:0:0:
384,345,30023,1,0,1:2:0:0:
395,348,30349,6,0,B|427:347|464:348|464:348|444:342|429:328,1,108.8,2|0,1:2|0:0,0:0:0:0:
367,260,30838,2,0,B|357:236|369:207|369:207|379:176|370:151,1,108.8,10|0,0:0|1:2,0:0:0:0:
370,60,31328,1,6,1:2:0:0:
448,108,31491,2,0,L|478:106,2,27.2,8|8|8,0:0|0:0|0:0,0:0:0:0:
370,43,31817,1,8,0:0:0:0:
295,107,31980,2,0,P|265:109|239:111,1,54.4,0|0,1:2|1:2,0:0:0:0:
117,214,32306,6,0,P|158:243|216:239,1,108.8,6|0,1:2|0:0,0:0:0:0:
298,201,32795,2,0,B|333:198|333:198|366:206|366:206|410:200,1,108.8,10|0,0:0|1:2,0:0:0:0:
475,140,33284,2,0,L|467:75,1,54.4,2|0,1:2|0:0,0:0:0:0:
405,200,33610,2,0,L|416:318,1,108.8,10|0,0:2|1:2,0:0:0:0:
468,383,34099,1,0,0:0:0:0:
468,383,34262,6,0,P|418:365|343:376,1,108.8,2|0,1:2|0:0,0:0:0:0:
277,334,34751,2,0,B|232:334|232:334|210:351|170:350,1,108.8,10|0,0:0|1:2,0:0:0:0:
174,203,35241,2,0,P|177:229|180:256,1,54.4,2|0,1:2|0:0,0:0:0:0:
136,118,35567,2,0,P|184:145|237:133,1,108.8,10|0,0:0|1:2,0:0:0:0:
316,92,36056,1,0,0:0:0:0:
174,203,36219,6,0,B|169:237|169:237|175:273|175:273|169:310,1,108.8,2|0,1:2|0:0,0:0:0:0:
121,384,36708,2,0,P|173:367|230:377,1,108.8,10|0,0:0|1:2,0:0:0:0:
366,341,37197,2,0,P|339:342|312:344,1,54.4,2|0,1:2|0:0,0:0:0:0:
440,288,37523,2,0,P|468:289|495:290,1,54.4,10|0,0:0|0:0,0:0:0:0:
352,252,37849,1,0,1:2:0:0:
444,177,38012,1,0,0:0:0:0:
326,107,38175,6,0,P|331:134|336:161,1,54.4,2|10,1:2|0:0,0:0:0:0:
366,341,38665,1,10,0:0:0:0:
444,177,38991,1,10,0:0:0:0:
352,252,39154,1,6,1:2:0:0:
353,135,39317,2,0,L|353:106,2,27.2,8|8|10,0:0|0:0|0:0,0:0:0:0:
352,252,39643,1,8,0:0:0:0:
263,177,39806,2,0,P|235:177|208:178,1,54.4,0|0,1:2|1:2,0:0:0:0:
103,244,40132,6,0,B|141:244|141:244|164:271|205:273,1,108.8,6|0,1:2|0:0,0:0:0:0:
294,257,40621,2,0,B|323:256|323:256|368:267|368:267|401:267,1,108.8,10|0,0:0|1:2,0:0:0:0:
452,139,41110,2,0,P|454:167|458:194,1,54.4,2|0,1:2|0:0,0:0:0:0:
457,46,41436,2,0,P|423:88|370:96,1,108.8,10|0,0:0|1:2,0:0:0:0:
371,96,41925,1,0,0:0:0:0:
270,186,42088,6,0,L|278:294,1,108.8,2|0,1:2|0:0,0:0:0:0:
324,375,42578,2,0,P|275:355|220:360,1,108.8,10|0,0:0|1:2,0:0:0:0:
159,289,43067,2,0,P|161:264|164:235,1,54.4,2|0,1:2|0:0,0:0:0:0:
130,380,43393,2,0,P|74:386|23:362,1,108.8,10|0,0:0|1:2,0:0:0:0:
27,365,43882,1,0,1:2:0:0:
6,247,44045,6,0,B|10:212|10:212|2:178|2:178|6:140,1,108.8,2|0,1:2|0:0,0:0:0:0:
11,47,44534,2,0,P|40:92|94:105,1,108.8,10|0,0:0|1:2,0:0:0:0:
234,82,45023,2,0,P|207:82|180:81,1,54.4,2|0,1:2|0:0,0:0:0:0:
219,171,45349,2,0,P|277:162|311:127,1,108.8,10|0,0:0|1:2,0:0:0:0:
313,35,45838,1,0,0:0:0:0:
219,171,46001,6,0,L|229:290,1,108.8,2|0,1:2|0:0,0:0:0:0:
293,345,46491,2,0,P|346:358|398:334,1,108.8,10|0,0:0|1:2,0:0:0:0:
336,235,46980,1,6,1:2:0:0:
336,235,47143,2,0,L|338:263,2,27.2,8|8|8,0:0|0:0|0:0,0:0:0:0:
320,50,47632,2,0,P|345:47|379:42,1,54.4,0|0,1:2|1:2,0:0:0:0:
239,104,47958,6,0,B|214:115|186:104|186:104|158:94|132:104,1,108.8,6|0,1:2|0:0,0:0:0:0:
66,167,48447,2,0,P|48:217|70:267,1,108.8,10|0,0:0|1:2,0:0:0:0:
96,354,48936,2,0,P|66:353|41:354,1,54.4,2|0,1:2|0:0,0:0:0:0:
158,286,49262,2,0,B|192:286|192:286|230:296|230:296|265:296,1,108.8,10|0,0:2|1:2,0:0:0:0:
357,293,49751,1,0,0:2:0:0:
435,242,49915,6,0,P|381:240|344:203,1,108.8,2|0,1:2|0:0,0:0:0:0:
331,111,50404,2,0,B|319:32|319:32|328:43|339:54,1,108.8,10|0,0:0|1:2,0:0:0:0:
426,188,50893,2,0,P|430:217|437:256,1,54.4,2|0,1:2|0:0,0:0:0:0:
316,231,51219,2,0,P|264:244|215:220,1,108.8,10|0,0:0|1:2,0:0:0:0:
209,128,51708,1,0,0:0:0:0:
374,170,51871,6,0,L|388:287,1,108.8,2|0,1:2|0:0,0:0:0:0:
431,359,52360,2,0,P|486:363|536:337,1,108.8,10|0,0:0|1:2,0:0:0:0:
342,353,52849,2,0,P|312:352|279:353,1,54.4,2|0,1:2|0:0,0:0:0:0:
201,314,53175,2,0,P|171:315|138:314,1,54.4,10|0,0:0|0:0,0:0:0:0:
63,352,53501,2,0,P|30:351|0:352,1,54.4,0|0,1:2|0:0,0:0:0:0:
58,170,53828,5,2,1:2:0:0:
62,261,53991,2,0,P|95:303|148:315,1,108.8,10|10,0:0|0:0,0:0:0:0:
56,82,54643,1,10,0:0:0:0:
58,170,54806,1,6,1:2:0:0:
62,261,54969,2,0,L|63:300,2,27.2,8|8|10,0:0|0:0|0:0,0:0:0:0:
62,175,55295,1,8,0:2:0:0:
56,82,55458,2,0,P|54:54|53:27,1,54.4,0|0,1:2|1:2,0:0:0:0:
138,124,55784,6,0,P|190:136|240:110,1,108.8,6|0,1:2|0:0,0:0:0:0:
322,74,56273,2,0,B|360:74|360:74|393:84|393:84|432:84,1,108.8,10|0,0:0|1:2,0:0:0:0:
474,164,56762,2,0,P|471:191|469:218,1,54.4,2|0,1:2|0:0,0:0:0:0:
409,287,57088,2,0,P|458:309|511:300,1,108.8,10|0,0:0|1:2,0:0:0:0:
511,299,57578,1,0,0:0:0:0:
394,382,57741,6,0,B|367:373|347:356|347:356|289:356,1,108.8,2|0,1:2|0:0,0:0:0:0:
210,312,58230,2,0,B|183:326|183:326|136:326|136:326|107:339,1,108.8,10|0,0:0|1:2,0:0:0:0:
55,261,58719,2,0,L|5:283,1,54.4,2|0,1:2|0:0,0:0:0:0:
142,232,59045,2,0,P|154:180|137:128,1,108.8,10|0,0:0|1:2,0:0:0:0:
137,128,59534,1,0,0:0:0:0:
245,181,59697,6,0,B|287:181|287:181|312:200|350:195,1,108.8,2|0,1:2|0:0,0:0:0:0:
442,117,60186,2,0,B|400:117|400:117|375:98|337:103,1,108.8,10|0,0:0|1:2,0:0:0:0:
350,194,60675,2,0,P|353:226|358:262,1,54.4,2|0,1:2|0:0,0:0:0:0:
368,339,61001,2,0,P|329:301|274:294,1,108.8,10|0,0:0|1:2,0:0:0:0:
237,156,61491,1,0,0:0:0:0:
208,242,61654,6,0,P|262:242|306:212,1,108.8,2|0,1:2|0:0,0:0:0:0:
263,70,62143,2,0,P|209:70|166:101,1,108.8,10|0,0:0|1:1,0:0:0:0:
349,125,62632,2,0,P|377:124|411:120,1,54.4,6|8,1:2|0:0,0:0:0:0:
417,121,62876,1,8,0:0:0:0:
430,120,62958,1,8,0:0:0:0:
310,260,63284,1,8,1:2:0:0:
402,257,63447,1,0,1:2:0:0:
310,260,63610,6,0,P|265:261|222:264,1,81.5999975097657,0|2,0:0|0:0,0:0:0:0:
72,212,64588,2,0,P|117:211|160:208,1,81.5999975097657,0|2,0:0|0:0,0:0:0:0:
272,307,65567,2,0,P|240:339|212:372,1,81.5999975097657,0|2,0:0|0:0,0:0:0:0:
110,175,66545,2,0,P|141:142|169:109,1,81.5999975097657,0|2,0:0|0:0,0:0:0:0:
300,0,67523,5,0,0:0:0:0:
375,48,67849,1,2,0:0:0:0:
248,53,68501,1,0,0:0:0:0:
298,129,68828,1,2,0:0:0:0:
178,67,69480,1,0,0:0:0:0:
200,163,69806,1,2,0:0:0:0:
111,47,70458,1,0,0:0:0:0:
81,162,70784,2,0,B|94:192|81:220|81:220|67:251|83:280,1,122.399996264649,2|0,0:0|0:0,0:0:0:0:
74,293,71436,6,0,B|105:293|105:293|138:304|138:304|168:303,1,95.1999970947267,2|0,0:0|0:0,0:0:0:0:
325,267,72088,1,2,0:0:0:0:
471,336,72415,1,2,0:0:0:0:
471,336,73067,2,0,L|468:383,1,47.5999985473633,2|0,0:0|0:0,0:0:0:0:
475,253,73393,6,0,P|445:289|394:297,1,95.1999970947267,2|0,0:0|0:0,0:0:0:0:
271,198,74045,1,2,0:0:0:0:
174,327,74371,2,0,P|105:348|47:305,1,142.79999564209,2|0,0:0|0:0,0:0:0:0:
50,310,75023,1,2,0:0:0:0:
240,376,75349,5,6,1:2:0:0:
131,164,75675,2,0,L|119:266,1,102.000003890991,0|0,0:0|0:0,0:0:0:0:
242,355,76328,1,2,1:2:0:0:
85,135,76654,2,0,P|117:184|125:229,1,102.000003890991,2|0,0:0|0:0,0:0:0:0:
244,336,77306,1,2,1:2:0:0:
27,139,77632,2,0,P|77:146|113:181,1,102.000003890991,0|0,0:0|0:0,0:0:0:0:
246,320,78284,1,0,1:2:0:0:
0,194,78610,2,0,P|32:157|81:148,1,102.000003890991,0|2,0:0|0:0,0:0:0:0:
95,8,79262,5,6,1:2:0:0:
73,231,79588,2,0,P|68:281|61:346,1,108.8,0|0,0:0|0:0,0:0:0:0:
15,112,80241,1,2,1:2:0:0:
248,142,80567,2,0,P|301:146|359:150,1,108.8,2|0,0:0|0:0,0:0:0:0:
141,58,81219,6,0,P|144:29|148:4,2,54.4,6|8|8,1:2|0:0|0:0,0:0:0:0:
48,134,81708,2,0,P|45:106|41:80,2,54.4,6|8|8,1:2|0:0|0:0,0:0:0:0:
61,232,82197,1,6,1:2:0:0:
157,265,82360,2,0,L|159:302,2,27.2,8|8|8,0:0|0:0|0:0,0:0:0:0:
241,212,82686,1,8,0:0:0:0:
233,110,82849,2,0,P|233:82|236:52,1,54.4,0|0,1:2|1:2,0:0:0:0:
150,169,83175,6,0,P|152:194|154:231,1,54.4,6|0,1:2|0:0,0:0:0:0:
135,340,83501,2,0,P|158:324|181:309,1,54.4,0|8,0:0|0:0,0:0:0:0:
289,267,83828,2,0,P|264:255|240:242,1,54.4,2|0,0:0|1:2,0:0:0:0:
286,356,84154,2,0,B|325:353|346:333|346:333|390:334,1,108.8,2|8,1:2|0:0,0:0:0:0:
474,370,84643,1,0,0:0:0:0:
459,278,84806,2,0,P|455:247|452:213,1,54.4,2|0,1:2|0:0,0:0:0:0:
435,110,85132,6,0,P|419:136|399:154,1,54.4,2|0,1:2|0:0,0:0:0:0:
452,223,85458,2,0,P|425:237|398:243,1,54.4,0|8,0:0|0:0,0:0:0:0:
417,333,85784,2,0,P|386:332|360:323,1,54.4,2|0,0:0|1:2,0:0:0:0:
292,384,86110,2,0,B|259:373|259:373|219:373|219:373|185:355,1,108.8,2|8,1:2|0:0,0:0:0:0:
105,316,86599,1,0,0:0:0:0:
41,382,86762,2,0,P|10:386|-20:378,1,54.4,2|0,1:2|0:0,0:0:0:0:
26,269,87088,6,0,P|12:245|4:219,1,54.4,2|0,1:2|0:0,0:0:0:0:
105,146,87415,2,0,L|106:201,1,54.4,0|8,0:0|0:0,0:0:0:0:
182,269,87741,2,0,P|196:245|205:219,1,54.4,2|0,0:0|1:2,0:0:0:0:
105,146,88067,1,2,1:2:0:0:
254,92,88393,1,10,0:0:0:0:
79,29,88719,2,0,P|48:29|24:29,1,54.4,2|0,1:2|0:2,0:0:0:0:
215,16,89045,5,2,1:2:0:0:
154,79,89208,2,0,P|202:102|254:92,1,108.8,8|8,0:0|0:0,0:0:0:0:
431,35,89860,1,8,0:0:0:0:
421,126,90023,1,6,1:2:0:0:
411,218,90186,2,0,L|406:258,2,27.2,8|8|8,0:0|0:0|0:0,0:0:0:0:
497,185,90512,1,8,0:0:0:0:
336,164,90675,2,0,P|305:165|272:164,1,54.4,2|0,1:2|1:2,0:0:0:0:
376,83,91001,6,0,P|376:53|376:28,1,54.4,6|0,1:2|0:0,0:0:0:0:
457,121,91328,2,0,P|485:120|512:120,1,54.4,0|8,0:0|0:0,0:0:0:0:
419,214,91654,2,0,P|419:244|419:278,1,54.4,2|0,0:0|1:2,0:0:0:0:
453,354,91980,2,0,P|406:327|345:331,1,108.8,2|8,1:2|0:0,0:0:0:0:
262,347,92469,1,0,0:0:0:0:
171,366,92632,2,0,P|141:366|104:365,1,54.4,2|0,1:2|0:0,0:0:0:0:
21,256,92958,6,0,P|36:278|47:304,1,54.4,2|0,1:2|0:0,0:0:0:0:
145,184,93284,2,0,P|134:209|128:235,1,54.4,0|8,0:0|0:0,0:0:0:0:
22,107,93610,2,0,P|37:129|48:155,1,54.4,2|0,0:0|1:2,0:0:0:0:
94,51,93936,2,0,P|42:55|1:22,1,108.8,2|8,1:2|0:0,0:0:0:0:
182,26,94425,1,0,0:0:0:0:
183,26,94588,2,0,L|237:25,1,54.4,2|0,1:2|0:0,0:0:0:0:
181,160,94915,6,0,P|175:133|164:108,1,54.4,2|0,1:2|0:0,0:0:0:0:
225,251,95241,2,0,P|198:248|170:250,1,54.4,0|8,0:0|0:0,0:0:0:0:
320,247,95567,2,0,P|309:271|303:298,1,54.4,2|0,0:0|1:2,0:0:0:0:
334,144,95893,2,0,P|353:161|377:176,1,54.4,2|0,1:2|0:0,0:0:0:0:
256,93,96219,2,0,P|312:88|352:55,1,108.8,10|0,0:0|1:2,0:0:0:0:
275,0,96708,1,2,0:0:0:0:
237,185,96871,6,0,P|241:213|243:240,1,54.4,2|0,1:2|0:0,0:0:0:0:
280,54,97197,2,0,P|276:26|274:-1,1,54.4,0|8,0:0|0:0,0:0:0:0:
197,98,97523,2,0,P|169:102|142:104,1,54.4,2|8,0:0|0:0,0:0:0:0:
322,139,97849,2,0,P|350:135|377:133,1,54.4,6|8,1:2|0:0,0:0:0:0:
391,132,98094,1,8,0:0:0:0:
405,130,98175,1,8,0:0:0:0:
309,323,98501,1,2,1:2:0:0:
315,230,98665,1,0,1:2:0:0:
322,139,98828,6,0,P|324:111|325:84,1,54.4,6|0,1:2|0:0,0:0:0:0:
212,171,99154,2,0,P|214:198|215:225,1,54.4,0|8,0:0|0:0,0:0:0:0:
311,307,99480,2,0,P|313:279|314:252,1,54.4,2|0,0:0|1:2,0:0:0:0:
354,383,99806,2,0,P|304:364|245:370,1,108.8,2|8,1:2|0:2,0:0:0:0:
158,383,100295,1,0,0:0:0:0:
66,368,100458,2,0,P|38:368|11:368,1,54.4,2|0,1:2|0:0,0:0:0:0:
224,248,100784,6,0,P|211:272|203:298,1,54.4,2|0,1:2|0:0,0:0:0:0:
118,296,101110,2,0,P|109:271|97:247,1,54.4,0|8,0:0|0:0,0:0:0:0:
249,368,101436,2,0,P|280:369|313:368,1,54.4,2|0,0:0|1:2,0:0:0:0:
158,383,101762,2,0,P|201:346|203:297,1,108.8,2|8,1:2|0:0,0:0:0:0:
175,208,102251,1,0,0:0:0:0:
151,118,102415,2,0,P|153:89|155:58,1,54.4,2|0,1:2|0:0,0:0:0:0:
175,208,102741,6,0,B|174:237|186:264,1,54.4,2|0,1:2|0:0,0:0:0:0:
222,368,103067,2,0,B|197:352|168:349,1,54.4,0|8,0:0|0:0,0:0:0:0:
63,327,103393,2,0,B|88:313|105:289,1,54.4,2|0,0:0|1:2,0:0:0:0:
175,208,103719,1,2,1:2:0:0:
306,58,104045,1,8,0:0:0:0:
162,155,104371,2,0,P|170:184|175:208,1,54.4,2|0,1:2|0:0,0:0:0:0:
124,78,104697,5,2,1:2:0:0:
124,78,104860,2,0,P|171:104|224:97,1,108.8,8|8,0:0|0:0,0:0:0:0:
391,20,105512,1,8,0:0:0:0:
467,127,105675,1,6,1:2:0:0:
480,38,105838,2,0,L|512:13,2,27.2,8|8|8,0:0|0:0|0:0,0:0:0:0:
376,112,106165,1,8,0:0:0:0:
269,182,106328,2,0,P|243:199|219:214,1,54.4,2|0,1:2|1:2,0:0:0:0:
252,46,106654,6,0,P|245:76|247:101,1,54.4,6|0,1:2|0:0,0:0:0:0:
376,112,106980,2,0,P|353:91|330:80,1,54.4,0|8,0:0|0:0,0:0:0:0:
256,190,107306,2,0,P|285:180|306:166,1,54.4,2|0,0:0|1:2,0:0:0:0:
291,270,107632,2,0,P|244:244|190:248,1,108.8,2|8,1:2|0:0,0:0:0:0:
133,174,108121,1,0,0:0:0:0:
81,97,108284,2,0,P|83:67|84:33,1,54.4,2|0,1:2|0:0,0:0:0:0:
81,191,108610,6,0,P|106:180|133:173,1,54.4,2|0,1:2|0:0,0:0:0:0:
197,87,108936,2,0,P|222:98|248:104,1,54.4,0|8,0:0|0:0,0:0:0:0:
343,142,109262,2,0,P|370:139|407:137,1,54.4,2|0,0:0|1:2,0:0:0:0:
489,82,109588,2,0,P|505:135|493:186,1,108.8,2|8,1:2|0:0,0:0:0:0:
446,264,110078,1,0,0:0:0:0:
446,264,110241,2,0,P|445:295|445:326,1,54.4,2|0,1:2|0:0,0:0:0:0:
403,182,110567,6,0,P|370:182|340:181,1,54.4,2|0,1:2|0:0,0:0:0:0:
270,82,110893,2,0,P|294:81|330:79,1,54.4,0|8,0:0|0:0,0:0:0:0:
245,180,111219,2,0,P|212:180|182:179,1,54.4,2|0,0:0|1:2,0:0:0:0:
108,93,111545,2,0,P|132:92|168:90,1,54.4,2|0,1:2|0:0,0:0:0:0:
328,213,111871,2,0,P|296:257|245:269,1,108.8,10|0,0:0|1:2,0:0:0:0:
245,269,112360,1,2,0:0:0:0:
409,240,112523,6,0,P|435:235|463:233,1,54.4,2|0,1:2|0:0,0:0:0:0:
390,156,112849,2,0,P|373:135|358:113,1,54.4,0|8,0:0|0:0,0:0:0:0:
328,213,113175,2,0,P|318:239|307:264,1,54.4,2|8,0:0|0:0,0:0:0:0:
357,112,113501,1,6,1:2:0:0:
390,18,113665,2,0,L|399:-13,2,27.2,8|8|10,0:0|0:0|0:0,0:0:0:0:
445,239,114154,2,0,P|453:213|462:188,1,54.4,2|0,1:2|1:0,0:0:0:0:
483,321,114480,6,0,P|435:297|381:300,1,108.8,6|0,1:2|0:0,0:0:0:0:
297,272,114969,2,0,B|243:272|243:272|218:291|183:290,1,108.8,2|0,0:0|0:0,0:0:0:0:
363,209,115458,2,0,P|365:181|375:156,1,54.4,2|0,1:2|0:0,0:0:0:0:
381,299,115784,2,0,P|403:314|420:335,1,54.4,2|0,0:0|0:0,0:0:0:0:
297,272,116110,1,0,0:0:0:0:
286,272,116436,6,0,B|248:272|248:272|215:285|215:285|173:286,1,108.8,2|0,1:2|0:0,0:0:0:0:
164,377,116925,2,0,P|140:331|86:311,1,108.8,2|0,0:0|0:0,0:0:0:0:
36,234,117415,2,0,P|40:206|40:173,1,54.4,2|0,1:2|0:0,0:0:0:0:
160,193,117741,2,0,P|141:170|119:147,1,54.4,2|0,0:0|0:0,0:0:0:0:
222,80,118067,2,0,P|190:78|161:76,1,54.4,0|0,0:0|0:0,0:0:0:0:
303,115,118393,6,0,P|354:128|409:104,1,108.8,6|0,1:2|0:0,0:0:0:0:
474,47,118882,2,0,P|463:100|490:144,1,108.8,2|0,0:0|0:0,0:0:0:0:
503,287,119371,2,0,P|505:260|511:234,1,54.4,2|0,1:2|0:0,0:0:0:0:
362,297,119697,2,0,P|386:310|409:326,1,54.4,2|0,0:0|0:0,0:0:0:0:
488,384,120023,1,0,0:0:0:0:
488,384,120349,6,0,P|492:353|497:323,2,54.4,6|8|8,1:2|0:0|0:0,0:0:0:0:
408,325,120838,2,0,P|404:294|399:264,2,54.4,6|8|8,1:2|0:0|0:0,0:0:0:0:
328,384,121328,1,6,1:2:0:0:
250,329,121491,2,0,L|250:302,2,27.2,8|8|10,0:0|0:0|0:0,0:0:0:0:
173,384,121817,1,8,0:0:0:0:
99,325,121980,2,0,P|103:294|108:264,1,54.4,0|0,1:2|1:2,0:0:0:0:
177,208,122306,6,0,P|124:213|81:180,1,108.8,6|0,1:2|0:0,0:0:0:0:
258,165,122795,2,0,B|292:165|292:165|333:177|333:177|368:177,1,108.8,10|0,0:0|1:2,0:0:0:0:
454,202,123284,2,0,P|457:173|451:140,1,54.4,2|0,1:2|0:0,0:0:0:0:
386,264,123610,2,0,P|409:281|441:292,1,54.4,10|0,0:2|0:0,0:0:0:0:
365,177,123936,1,0,1:2:0:0:
365,167,124262,6,0,P|346:214|294:232,1,108.8,2|0,1:2|0:0,0:0:0:0:
216,282,124751,2,0,B|191:265|191:265|145:265|145:265|118:245,1,108.8,10|0,0:0|1:2,0:0:0:0:
66,168,125241,2,0,P|45:188|25:204,1,54.4,2|0,1:2|0:0,0:0:0:0:
119,90,125567,2,0,P|137:112|155:130,1,54.4,10|0,0:0|0:0,0:0:0:0:
61,17,125893,2,0,P|40:37|20:53,1,54.4,0|0,1:2|1:2,0:0:0:0:
119,90,126219,6,0,B|162:90|162:90|191:110|225:104,1,108.8,2|0,1:2|0:0,0:0:0:0:
309,68,126708,2,0,P|280:112|297:164,1,108.8,10|0,0:0|1:2,0:0:0:0:
351,235,127197,2,0,P|375:233|408:230,1,54.4,2|0,1:2|0:0,0:0:0:0:
288,300,127523,2,0,P|259:302|231:305,1,54.4,10|0,0:0|0:0,0:0:0:0:
84,320,127849,1,0,1:2:0:0:
85,331,128175,5,2,1:2:0:0:
76,230,128338,2,0,L|71:187,2,27.2,8|8|8,0:0|0:0|0:0,0:0:0:0:
5,290,128665,1,2,1:2:0:0:
164,272,128828,2,0,P|191:269|234:265,1,54.4,8|0,0:0|1:2,0:0:0:0:
146,135,129154,2,0,P|68:151|9:86,1,170,6|0,1:2|0:0,0:0:0:0:
7,79,130132,6,0,P|8:137|10:211,2,122.399996264649,2|2|2,0:0|0:0|0:0,0:0:0:0:
92,72,131436,1,2,0:0:0:0:
271,133,132088,6,0,P|332:140|381:104,2,122.399996264649,2|2|2,0:0|0:0|0:0,0:0:0:0:
310,57,133393,1,2,0:0:0:0:
232,232,134045,6,0,P|296:235|360:242,2,122.399996264649,2|2|2,0:0|0:0|0:0,0:0:0:0:
153,196,135349,1,2,0:0:0:0:
201,50,136001,5,2,0:0:0:0:
147,111,136165,2,0,P|119:140|77:150,2,81.5999975097657,2|2|2,0:0|0:0|0:0,0:0:0:0:
201,50,136980,1,2,0:0:0:0:
330,99,137306,2,0,P|395:106|444:74,1,122.399996264649,2|0,0:0|0:0,0:0:0:0:
449,68,137958,6,0,L|457:179,1,108.8,10|10,3:2|3:2,0:0:0:0:
502,307,138447,1,0,3:2:0:0:
502,307,138610,2,0,P|499:276|498:251,1,54.4,10|0,3:2|3:2,0:0:0:0:
380,330,138936,2,0,P|382:357|383:384,1,54.4,10|0,3:2|0:0,0:0:0:0:
414,253,139262,2,0,P|366:282|305:270,1,108.8,2|8,3:2|3:2,0:0:0:0:
238,224,139751,1,0,3:2:0:0:
157,177,139915,6,0,B|121:177|121:177|86:189|86:189|51:190,1,108.8,10|10,3:2|3:2,0:0:0:0:
50,190,140404,1,0,3:2:0:0:
192,97,140567,2,0,P|213:117|239:128,1,54.4,8|0,3:2|3:2,0:0:0:0:
194,254,140893,2,0,P|215:234|241:223,1,54.4,8|0,3:2|3:2,0:0:0:0:
390,168,141219,2,0,B|310:169|310:169|319:159|328:147,1,108.8,8|10,3:2|3:2,0:0:0:0:
328,146,141708,1,0,3:2:0:0:
328,254,141871,6,0,B|328:293|328:293|306:331|271:338,1,108.8,10|8,3:2|3:2,0:0:0:0:
195,381,142360,1,0,3:2:0:0:
102,373,142523,2,0,P|70:369|36:368,1,54.4,10|0,3:2|3:2,0:0:0:0:
172,331,142849,2,0,P|184:360|200:390,1,54.4,10|0,3:2|3:2,0:0:0:0:
105,294,143175,2,0,P|124:268|142:239,1,54.4,10|0,3:2|3:2,0:0:0:0:
47,367,143501,1,10,3:2:0:0:
131,158,143828,6,0,P|167:199|219:207,1,108.8,10|8,3:2|3:2,0:0:0:0:
296,256,144317,1,0,3:2:0:0:
364,193,144480,2,0,P|390:189|418:186,1,54.4,10|0,3:2|3:2,0:0:0:0:
239,118,144806,1,6,1:2:0:0:
296,256,144969,2,0,L|303:293,2,27.2,8|8|8,0:2|0:0|0:0,0:0:0:0:
329,107,145295,1,8,0:0:0:0:
218,207,145458,2,0,P|192:211|164:214,1,54.4,0|0,1:2|1:2,0:0:0:0:
239,118,145784,6,0,P|287:138|330:105,1,108.8,6|0,1:2|0:0,0:0:0:0:
407,58,146273,2,0,P|411:113|419:185,1,108.8,10|0,0:0|1:2,0:0:0:0:
465,296,146762,2,0,P|467:270|469:242,1,54.4,2|0,1:2|0:0,0:0:0:0:
500,380,147088,2,0,P|453:354|396:356,1,108.8,10|0,0:0|1:2,0:0:0:0:
310,326,147578,1,0,0:0:0:0:
222,356,147741,6,0,B|181:356|181:356|154:337|115:341,1,108.8,2|0,1:2|0:0,0:0:0:0:
50,276,148230,2,0,P|59:329|29:373,1,108.8,10|0,0:0|1:2,0:0:0:0:
139,249,148719,2,0,P|139:221|139:194,1,54.4,2|0,1:2|0:0,0:0:0:0:
201,127,149045,2,0,P|148:138|103:111,1,108.8,10|0,0:0|1:2,0:0:0:0:
103,111,149534,1,0,0:0:0:0:
223,215,149697,6,0,B|253:208|275:191|275:191|328:191,1,108.8,2|0,1:2|0:0,0:0:0:0:
410,220,150186,2,0,P|462:229|511:206,1,108.8,10|0,0:0|1:2,0:0:0:0:
450,136,150675,2,0,P|445:110|441:78,1,54.4,2|0,1:2|0:0,0:0:0:0:
480,250,151001,2,0,P|494:228|514:202,1,54.4,10|0,0:0|0:0,0:0:0:0:
425,353,151328,2,0,P|451:348|483:343,1,54.4,0|0,1:2|0:0,0:0:0:0:
292,309,151654,5,2,1:2:0:0:
375,282,151817,2,0,P|375:335|344:379,1,108.8,10|10,0:0|0:0,0:0:0:0:
93,262,152469,1,10,0:0:0:0:
179,283,152632,1,6,1:2:0:0:
265,304,152795,2,0,L|292:309,2,27.2,8|8|10,0:0|0:0|0:0,0:0:0:0:
155,367,153121,1,8,0:0:0:0:
208,199,153284,2,0,P|214:173|223:140,1,54.4,0|0,1:2|1:2,0:0:0:0:
277,255,153610,6,0,P|231:285|178:282,1,108.8,6|0,1:2|0:0,0:0:0:0:
208,199,154099,2,0,B|201:161|201:161|209:129|209:129|203:93,1,108.8,10|0,0:0|1:2,0:0:0:0:
110,85,154588,2,0,P|75:88|42:91,1,54.4,2|0,1:2|0:0,0:0:0:0:
165,10,154915,2,0,P|211:33|272:23,1,108.8,10|0,0:0|1:2,0:0:0:0:
266,25,155404,1,0,0:0:0:0:
329,140,155567,6,0,B|305:117|281:113|281:113|305:108|330:92,1,108.8,2|0,1:2|0:0,0:0:0:0:
263,200,156056,2,0,B|226:191|226:191|199:216|157:213,1,108.8,10|0,0:0|1:2,0:0:0:0:
167,121,156545,2,0,P|168:98|170:66,1,54.4,2|0,1:2|0:0,0:0:0:0:
160,213,156871,2,0,P|157:269|153:337,1,108.8,10|0,0:0|1:2,0:0:0:0:
64,344,157360,1,0,0:0:0:0:
244,300,157523,6,0,B|285:301|285:301|310:318|353:314,1,108.8,2|0,1:2|0:0,0:0:0:0:
427,365,158012,2,0,P|407:316|427:266,1,108.8,10|0,0:0|1:2,0:0:0:0:
464,181,158501,2,0,P|459:155|456:125,1,54.4,2|0,1:2|0:0,0:0:0:0:
337,147,158828,2,0,P|351:125|370:101,1,54.4,10|0,0:0|0:0,0:0:0:0:
277,34,159154,2,0,P|304:31|330:26,1,54.4,0|0,1:2|0:0,0:0:0:0:
337,147,159480,5,2,1:2:0:0:
260,195,159643,2,0,P|313:202|355:237,1,108.8,10|10,0:0|0:0,0:0:0:0:
354,236,160295,1,10,0:2:0:0:
423,128,160458,1,6,1:2:0:0:
444,218,160621,2,0,L|472:235,2,27.2,8|8|8,0:0|0:0|0:0,0:0:0:0:
337,147,160947,1,8,0:0:0:0:
238,73,161110,2,0,P|214:57|192:40,1,54.4,0|0,1:2|1:2,0:0:0:0:
362,27,161436,6,0,P|404:26|448:20,1,81.5999975097657,0|2,0:0|0:0,0:0:0:0:
320,150,162415,2,0,P|336:188|348:227,1,81.5999975097657,0|2,0:0|0:0,0:0:0:0:
190,150,163393,2,0,P|175:187|163:226,1,81.5999975097657,0|2,0:0|0:0,0:0:0:0:
149,27,164371,2,0,P|109:26|68:20,1,81.5999975097657,0|2,0:0|0:0,0:0:0:0:
256,63,165349,5,0,0:0:0:0:
348,81,165675,1,2,0:0:0:0:
256,77,166328,1,0,0:0:0:0:
164,93,166654,1,2,0:0:0:0:
256,89,167306,1,0,0:0:0:0:
356,107,167632,1,2,0:0:0:0:
256,103,168284,1,0,0:0:0:0:
156,117,168610,2,0,P|96:118|50:73,1,122.399996264649,2|0,0:0|0:0,0:0:0:0:
49,66,169262,6,0,P|53:122|56:176,1,95.1999970947267,2|0,0:0|0:0,0:0:0:0:
65,322,169915,1,2,0:0:0:0:
200,233,170241,1,2,0:0:0:0:
200,233,170893,2,0,P|174:250|151:264,1,47.5999985473633,2|0,0:0|0:0,0:0:0:0:
233,151,171219,6,0,P|248:195|292:218,1,95.1999970947267,2|0,0:0|0:0,0:0:0:0:
446,181,171871,1,2,0:0:0:0:
305,101,172197,2,0,L|162:96,1,142.79999564209,2|0,0:0|0:0,0:0:0:0:
162,96,172849,1,2,0:0:0:0:
318,22,173175,5,6,1:2:0:0:
295,183,173501,2,0,P|302:237|306:297,1,102.000003890991,0|0,0:0|0:0,0:0:0:0:
298,34,174154,1,2,1:2:0:0:
335,154,174480,2,0,P|311:198|303:260,1,102.000003890991,2|0,0:0|0:0,0:0:0:0:
276,34,175132,1,2,1:2:0:0:
386,164,175458,2,0,P|342:170|306:229,1,102.000003890991,0|0,0:0|0:0,0:0:0:0:
257,26,176110,1,0,1:2:0:0:
423,198,176436,2,0,P|379:174|330:182,1,102.000003890991,0|2,0:0|0:0,0:0:0:0:
441,353,177088,5,6,1:2:0:0:
423,198,177415,2,0,P|418:148|415:88,1,108.8,0|0,0:0|0:0,0:0:0:0:
231,166,178067,1,2,1:2:0:0:
379,274,178393,2,0,P|431:289|480:264,1,108.8,2|0,0:0|0:0,0:0:0:0:
308,219,179045,6,0,P|279:217|248:219,2,54.4,6|8|8,1:2|0:0|0:0,0:0:0:0:
409,171,179534,2,0,P|424:146|439:119,2,54.4,6|8|8,1:2|0:0|0:0,0:0:0:0:
398,281,180023,2,0,B|421:324|445:382|445:382|442:348|459:322,1,170,6|0,1:2|0:0,0:0:0:0:
456,325,181001,5,2,0:0:0:0:
375,358,181328,1,0,0:0:0:0:
295,338,181654,1,2,0:0:0:0:
257,265,181980,2,0,P|261:199|263:135,1,122.399996264649,2|0,0:0|0:0,0:0:0:0:
262,142,182632,1,2,0:0:0:0:
262,20,182958,5,2,0:0:0:0:
343,39,183284,1,0,0:0:0:0:
425,52,183610,1,2,0:0:0:0:
506,65,183936,2,0,P|443:92|411:138,1,122.399996264649,2|0,0:0|0:0,0:0:0:0:
412,134,184588,1,2,0:0:0:0:
340,275,184915,6,0,P|380:280|418:293,2,81.5999975097657,2|0|2,0:0|0:0|0:0,0:0:0:0:
210,185,185893,2,0,P|250:179|288:166,2,81.5999975097657,2|0|2,0:0|0:0|0:0,0:0:0:0:
140,284,186871,2,0,P|194:312|251:296,1,122.399996264649,2|0,0:0|0:0,0:0:0:0:
202,225,187523,2,0,L|209:184,1,40.7999987548829,2|0,0:0|0:0,0:0:0:0:
222,100,187849,1,2,0:0:0:0:
222,100,188501,1,2,0:0:0:0:
253,215,188828,5,2,0:0:0:0:
278,298,189154,1,0,0:0:0:0:
336,236,189480,1,2,0:0:0:0:
361,315,189806,2,0,P|326:368|271:384,1,122.399996264649,2|0,0:0|0:0,0:0:0:0:
271,384,190458,1,2,0:0:0:0:
134,362,190784,5,2,0:0:0:0:
122,277,191110,1,0,0:0:0:0:
110,195,191436,1,2,0:0:0:0:
95,111,191762,2,0,P|134:162|195:163,1,122.399996264649,2|0,0:0|0:0,0:0:0:0:
188,165,192415,1,2,0:0:0:0:
350,134,192741,6,0,P|305:133|265:135,1,81.5999975097657,2|0,0:0|0:0,0:0:0:0:
422,79,193393,2,0,P|445:40|463:4,1,81.5999975097657,2|2,0:0|0:0,0:0:0:0:
434,163,194045,2,0,P|456:210|493:278,1,122.399996264649,2|0,0:0|0:0,0:0:0:0:
489,272,194697,1,2,0:0:0:0:
408,298,195023,1,0,0:0:0:0:
473,353,195349,1,2,0:0:0:0:
489,272,195675,5,6,1:2:0:0:
328,323,195838,2,0,L|299:332,2,27.2,8|8|8,0:0|0:0|0:0,0:0:0:0:
435,378,196165,1,8,0:0:0:0:
382,219,196328,2,0,P|372:193|364:167,1,54.4,2|0,1:2|1:2,0:0:0:0:
385,71,196654,6,0,P|355:75|326:71,1,54.4,6|0,1:2|0:0,0:0:0:0:
196,118,196980,2,0,L|251:118,1,54.4,0|8,0:0|0:0,0:0:0:0:
116,70,197306,2,0,P|89:74|62:72,1,54.4,2|0,0:2|1:2,0:0:0:0:
113,175,197632,2,0,P|121:228|132:301,1,108.8,2|8,1:2|0:0,0:0:0:0:
204,384,198121,1,0,0:0:0:0:
204,384,198284,2,0,P|205:349|209:306,1,54.4,2|0,1:2|0:0,0:0:0:0:
208,209,198610,6,0,P|181:217|155:223,1,54.4,2|0,1:2|0:0,0:0:0:0:
269,141,198936,2,0,P|275:114|283:88,1,54.4,0|8,0:0|0:0,0:0:0:0:
298,228,199262,2,0,P|320:250|348:281,1,54.4,2|0,0:0|1:2,0:0:0:0:
465,150,199588,2,0,B|428:150|428:150|394:161|394:161|358:161,1,108.8,2|8,1:2|0:0,0:0:0:0:
269,141,200078,1,0,0:0:0:0:
178,161,200241,2,0,L|117:162,1,54.4,2|0,1:2|0:0,0:0:0:0:
205,78,200567,6,0,P|199:50|207:24,1,54.4,2|0,1:2|0:0,0:0:0:0:
333,26,200893,2,0,P|340:52|333:79,1,54.4,0|8,0:0|0:0,0:0:0:0:
269,230,201219,2,0,L|269:298,1,54.4,2|0,0:2|1:2,0:0:0:0:
269,141,201545,1,2,1:2:0:0:
418,249,201871,1,10,0:0:0:0:
271,369,202197,2,0,P|240:362|211:361,1,54.4,2|0,1:2|0:0,0:0:0:0:
346,310,202523,1,2,1:2:0:0:
346,310,202686,6,0,P|392:340|445:340,2,108.8,8|8|8,0:0|0:0|0:0,0:0:0:0:
279,200,203501,1,6,1:2:0:0:
255,320,203665,2,0,L|248:358,2,27.2,8|8|8,0:0|0:0|0:0,0:0:0:0:
279,200,203991,1,8,0:0:0:0:
186,263,204154,2,0,P|157:264|128:263,1,54.4,2|0,1:2|1:2,0:0:0:0:
265,147,204480,6,0,P|270:174|278:199,1,54.4,6|0,1:2|0:0,0:0:0:0:
336,326,204806,2,0,P|310:317|284:312,1,54.4,0|8,0:0|0:0,0:0:0:0:
148,301,205132,2,0,P|169:282|186:262,1,54.4,2|0,0:0|1:2,0:0:0:0:
179,384,205458,2,0,P|133:355|77:360,1,108.8,2|8,1:2|0:0,0:0:0:0:
24,225,205947,1,0,0:2:0:0:
24,225,206110,2,0,P|28:249|33:279,1,54.4,2|0,1:2|0:0,0:0:0:0:
125,140,206436,6,0,P|122:167|120:195,1,54.4,2|0,1:2|0:0,0:0:0:0:
202,241,206762,2,0,P|183:272|168:306,1,54.4,0|8,0:0|0:0,0:0:0:0:
17,232,207088,2,0,P|21:256|26:286,1,54.4,2|0,0:0|1:2,0:0:0:0:
5,146,207415,2,0,P|40:184|96:185,1,108.8,2|8,1:2|0:0,0:0:0:0:
231,144,207904,1,0,0:0:0:0:
231,144,208067,2,0,P|203:142|177:144,1,54.4,2|0,1:2|0:0,0:0:0:0:
390,114,208393,6,0,P|413:99|433:82,1,54.4,2|0,1:2|0:0,0:0:0:0:
286,224,208719,2,0,P|275:250|269:275,1,54.4,0|8,0:0|0:0,0:0:0:0:
298,63,209045,2,0,P|291:35|281:11,1,54.4,2|0,0:0|1:2,0:0:0:0:
371,203,209371,2,0,P|392:221|414:234,1,54.4,2|0,1:2|0:0,0:0:0:0:
231,144,209697,2,0,B|194:144|194:144|159:155|159:155|123:156,1,108.8,10|0,0:0|1:2,0:0:0:0:
123,155,210186,1,0,0:0:0:0:
186,252,210349,5,2,1:2:0:0:
231,144,210512,2,8,L|231:104,2,27.2,8|8|8,0:0|0:0|0:0,0:2:0:0:
293,251,210838,1,0,1:2:0:0:
334,155,211001,2,0,P|361:155|399:155,1,54.4,10|8,0:0|0:0,0:0:0:0:
504,120,211328,1,2,1:2:0:0:
504,120,211654,6,0,P|408:184|540:184,1,326.399990039063,2|2,3:2|3:0,0:0:0:0:
