osu file format v14

[General]
AudioFilename: Renaissance.mp3
AudioLeadIn: 1500
PreviewTime: 92455
Countdown: 0
SampleSet: Soft
StackLeniency: 0.7
Mode: 0
LetterboxInBreaks: 0
WidescreenStoryboard: 0

[Editor]
DistanceSpacing: 1
BeatDivisor: 4
GridSize: 32
TimelineZoom: 3.499998

[Metadata]
Title:Renaissance
TitleUnicode:Renaissance
Artist:LhoU
ArtistUnicode:LhoU
Creator:sahuang
Version:Insane
Source:BMS
Tags:mei pho LunaSaika buhei
BeatmapID:1078110
BeatmapSetID:506863

[Difficulty]
HPDrainRate:6
CircleSize:3.8
OverallDifficulty:7.5
ApproachRate:9
SliderMultiplier:1.9
SliderTickRate:1

[Events]
//Background and Video events
0,0,"Renaissance.jpg",0,0
//Break Periods
2,63232,66124
//Storyboard Layer 0 (Background)
//Storyboard Layer 1 (Fail)
//Storyboard Layer 2 (Pass)
//Storyboard Layer 3 (Foreground)
//Storyboard Sound Samples

[TimingPoints]
263,461.538461538462,4,2,9,45,1,0
7647,-83.3333333333333,4,2,9,60,0,0
13186,-71.4285714285714,4,2,9,65,0,0
14109,-100,4,2,9,40,0,0
14570,-74.0740740740741,4,2,9,50,0,0
15032,-100,4,2,9,50,0,0
16878,-86.9565217391304,4,2,9,50,0,0
17339,-76.9230769230769,4,2,9,50,0,0
17801,-68.9655172413793,4,2,9,50,0,0
18147,-86.9565217391304,4,2,9,50,0,0
18724,-100,4,2,9,50,0,0
24263,-86.9565217391304,4,2,9,50,0,0
24724,-76.9230769230769,4,2,9,50,0,0
25186,-68.9655172413793,4,2,9,50,0,0
25532,-86.9565217391304,4,2,9,50,0,0
26109,-100,4,2,9,50,0,0
27955,-62.5,4,2,9,50,0,0
28186,-83.3333333333333,4,2,9,50,0,0
28878,-62.5,4,2,9,50,0,0
29109,-83.3333333333333,4,2,9,50,0,0
29570,-166.666666666667,4,2,9,50,0,0
33263,-166.666666666667,4,2,9,5,0,0
33493,-100,4,2,9,50,0,0
39955,-83.3333333333333,4,2,9,50,0,0
40878,-80,4,2,9,60,0,0
43647,-80,4,2,9,50,0,0
43878,-80,4,2,9,60,0,0
44109,-80,4,2,9,70,0,0
44570,-71.4285714285714,4,2,9,60,0,0
48263,-68.9655172413793,4,2,9,65,0,0
51955,-111.111111111111,4,2,9,65,0,0
53801,-86.9565217391304,4,2,9,65,0,0
54724,-76.9230769230769,4,2,9,65,0,0
55647,-68.9655172413793,4,2,9,65,0,0
59339,-111.111111111111,4,2,9,65,0,0
60263,-76.9230769230769,4,2,9,65,0,0
61186,-50,4,2,9,75,0,0
61301,-50,4,2,9,15,0,0
61878,-62.5,4,2,9,40,0,0
62109,-71.4285714285714,4,2,9,20,0,0
62916,-71.4285714285714,4,2,9,5,0,0
63032,-100,4,2,9,55,0,0
66724,-76.9230769230769,4,2,9,50,0,0
69032,-90.9090909090909,4,2,9,50,0,0
70416,-100,4,2,9,50,0,0
75955,-76.9230769230769,4,2,9,50,0,0
76878,-62.5,4,2,9,70,0,0
77686,-62.5,4,2,9,5,0,0
77801,-100,4,2,9,50,0,0
85186,-83.3333333333333,4,2,9,50,0,0
90724,-71.4285714285714,4,2,9,50,0,0
91647,-90.9090909090909,4,2,9,50,0,0
92109,-62.5,4,2,9,50,0,0
92570,-100,4,2,9,50,0,0
94416,-86.9565217391304,4,2,9,50,0,0
94878,-76.9230769230769,4,2,9,50,0,0
95339,-68.9655172413793,4,2,9,50,0,0
95686,-86.9565217391304,4,2,9,50,0,0
96263,-100,4,2,9,50,0,0
101801,-86.9565217391304,4,2,9,50,0,0
102263,-76.9230769230769,4,2,9,50,0,0
102724,-68.9655172413793,4,2,9,50,0,0
103070,-86.9565217391304,4,2,9,50,0,0
103647,-66.6666666666667,4,2,9,50,0,0
103993,-90.9090909090909,4,2,9,50,0,0
104570,-66.6666666666667,4,2,9,50,0,0
104916,-90.9090909090909,4,2,9,50,0,0
105493,-66.6666666666667,4,2,9,50,0,0
105839,-90.9090909090909,4,2,9,50,0,0
110109,-200,4,2,9,45,0,0

[Colours]
Combo1 : 201,153,221
Combo2 : 192,182,146
Combo3 : 154,199,222
Combo4 : 189,220,160

[HitObjects]
113,77,263,6,0,L|233:66,1,95,6|0,0:0|3:0,0:0:0:0:
419,196,724,2,0,L|422:218,10,15.8333333333333,2|0|2|0|2|0|2|0|2|0|0,0:0|0:0|0:0|0:0|0:0|0:0|0:0|0:0|0:0|0:0|0:0,0:0:0:0:
419,196,1186,6,0,L|299:207,1,95,4|0,3:2|0:0,0:0:0:0:
118,341,1647,2,0,L|115:319,10,15.8333333333333,2|0|2|0|2|0|2|0|2|0|0,0:0|0:0|0:0|0:0|0:0|0:0|0:0|0:0|0:0|0:0|0:0,0:0:0:0:
118,341,2109,6,0,L|238:330,1,95,4|0,3:2|3:0,0:0:0:0:
419,196,2570,2,0,P|424:135|407:94,1,95,2|0,3:2|0:0,0:0:0:0:
338,44,2916,1,0,3:0:0:0:
321,61,3032,6,0,P|269:75|223:59,2,95,2|0|2,3:2|3:0|0:0,0:0:0:0:
134,8,3724,1,2,0:0:0:0:
134,8,3839,1,0,0:0:0:0:
134,8,3955,6,0,P|121:37|117:54,1,47.5,6|0,3:2|0:0,0:0:0:0:
180,123,4186,2,0,P|193:152|197:169,1,47.5,2|0,3:2|0:0,0:0:0:0:
137,240,4416,2,0,L|133:261,10,15.8333333333333,2|0|2|0|2|0|2|0|2|0|0,0:0|0:0|0:0|0:0|0:0|0:0|0:0|0:0|0:0|0:0|0:0,0:0:0:0:
137,240,4878,6,0,L|201:259,1,47.5,4|0,3:2|0:0,0:0:0:0:
244,326,5109,2,0,L|308:307,1,47.5,2|0,3:2|0:0,0:0:0:0:
365,255,5339,2,0,L|386:251,10,15.8333333333333,2|0|2|0|2|0|2|0|2|0|0,0:0|0:0|0:0|0:0|0:0|0:0|0:0|0:0|0:0|0:0|0:0,0:0:0:0:
365,254,5801,6,0,P|398:318|480:303,1,142.5,4|0,3:2|0:0,0:0:0:0:
481,304,6263,2,0,L|492:236,1,47.5,2|0,3:2|0:0,0:0:0:0:
427,184,6493,2,0,L|416:116,1,47.5,0|0,0:0|0:0,0:0:0:0:
476,60,6724,5,0,3:0:0:0:
365,254,6955,1,0,3:0:0:0:
201,155,7186,1,0,0:0:0:0:
187,261,7416,1,0,0:0:0:0:
187,261,7532,1,0,0:0:0:0:
187,261,7647,6,0,L|120:272,1,56.9999982604981,6|0,1:0|0:0,0:0:0:0:
38,338,7878,2,0,L|94:347,1,56.9999982604981,0|0,3:0|0:0,0:0:0:0:
33,236,8109,2,0,P|23:165|42:109,1,113.999996520996,10|0,3:2|0:0,0:0:0:0:
117,46,8455,1,0,0:0:0:0:
139,63,8570,6,0,L|223:58,1,56.9999982604981,10|0,3:2|0:0,0:0:0:0:
258,159,8801,2,0,L|174:154,1,56.9999982604981,0|0,3:0|0:0,0:0:0:0:
291,59,9032,2,0,B|351:62|351:62|405:88,1,113.999996520996,10|0,3:2|0:0,0:0:0:0:
447,189,9378,1,0,0:0:0:0:
444,217,9493,6,0,P|441:249|443:274,1,56.9999982604981,10|0,3:2|0:0,0:0:0:0:
358,351,9724,2,0,P|359:322|356:294,1,56.9999982604981,0|0,0:0|0:0,0:0:0:0:
285,183,9955,2,0,P|199:193|157:183,1,113.999996520996,10|2,3:2|0:0,0:0:0:0:
113,89,10301,1,0,0:0:0:0:
93,110,10416,6,0,L|24:116,1,56.9999982604981,10|0,3:2|0:0,0:0:0:0:
0,223,10647,2,0,L|56:218,1,56.9999982604981,0|0,0:0|0:0,0:0:0:0:
27,328,10878,1,10,3:2:0:0:
27,328,11109,5,2,0:0:0:0:
81,253,11224,1,0,0:0:0:0:
121,337,11339,6,0,P|147:348|181:350,1,56.9999982604981,8|0,3:2|0:0,0:0:0:0:
167,259,11570,2,0,P|193:248|218:225,1,56.9999982604981,0|0,3:0|0:0,0:0:0:0:
148,166,11801,2,0,P|159:140|161:106,1,56.9999982604981,10|0,3:2|0:0,0:0:0:0:
111,34,12032,5,2,0:0:0:0:
198,10,12147,1,0,0:0:0:0:
275,59,12263,6,0,L|336:66,1,56.9999982604981,8|0,3:2|0:0,0:0:0:0:
317,161,12493,2,0,L|341:217,1,56.9999982604981,2|0,0:0|0:0,0:0:0:0:
259,269,12724,2,0,L|236:326,1,56.9999982604981,10|0,3:2|0:0,0:0:0:0:
304,381,12955,5,0,3:0:0:0:
366,319,13070,1,0,0:0:0:0:
462,357,13186,6,0,P|469:293|429:234,1,132.999995941162,10|0,3:2|0:0,0:0:0:0:
324,185,13532,1,0,0:0:0:0:
312,153,13647,2,0,L|320:76,1,66.4999979705811,8|2,3:2|0:0,0:0:0:0:
198,88,13878,2,0,L|204:154,1,66.4999979705811,2|0,3:2|0:0,0:0:0:0:
193,245,14109,6,0,L|68:245,1,95,4|0,3:2|0:0,0:0:0:0:
186,349,14570,6,0,L|333:349,1,128.250000489235,2|0,0:0|1:0,0:0:0:0:
435,188,15032,6,0,L|435:241,1,47.5,6|0,1:0|0:0,0:0:0:0:
435,188,15263,2,0,L|436:83,1,95,2|8,0:0|1:0,0:0:0:0:
217,30,15724,2,0,L|155:32,1,47.5,0|0,3:0|0:0,0:0:0:0:
107,128,15955,6,0,L|154:129,1,47.5,2|0,1:0|0:0,0:0:0:0:
107,128,16186,2,0,L|2:124,1,95,2|8,0:0|1:0,0:0:0:0:
0,344,16647,1,0,0:0:0:0:
91,280,16763,5,2,0:0:0:0:
100,279,16820,1,0,0:0:0:0:
109,278,16878,2,0,L|240:286,1,109.250002083778,2|0,1:0|0:0,0:0:0:0:
315,188,17224,5,2,0:0:0:0:
305,188,17281,1,0,0:0:0:0:
295,189,17339,2,0,L|164:181,1,123.499994346619,8|0,1:0|0:0,0:0:0:0:
79,74,17686,5,2,0:0:0:0:
89,74,17743,1,0,0:0:0:0:
97,72,17801,2,0,L|252:81,1,137.750004203797,2|2,1:0|3:2,0:0:0:0:
357,52,18147,6,0,L|363:114,1,54.6250010418892,0|8,0:0|1:0,0:0:0:0:
388,323,18493,1,0,3:0:0:0:
375,213,18609,1,2,0:0:0:0:
373,202,18666,1,0,0:0:0:0:
372,191,18724,6,0,L|453:193,1,47.5,2|0,1:0|0:0,0:0:0:0:
307,309,18955,2,0,L|327:388,1,47.5,2|0,0:0|0:0,0:0:0:0:
181,267,19186,2,0,L|109:306,1,47.5,8|0,1:0|0:0,0:0:0:0:
41,336,19416,1,0,0:0:0:0:
41,336,19532,1,2,0:0:0:0:
41,336,19647,6,0,P|46:312|42:287,1,47.5,2|0,1:0|0:0,0:0:0:0:
114,143,19878,2,0,P|138:138|163:142,1,47.5,0|0,3:0|0:0,0:0:0:0:
306,213,20109,2,0,P|301:237|305:262,1,47.5,8|0,1:0|0:0,0:0:0:0:
381,355,20339,1,2,0:0:0:0:
381,355,20455,1,0,0:0:0:0:
381,355,20570,6,0,L|262:358,1,95,2|0,1:0|3:0,0:0:0:0:
463,230,21032,2,0,L|467:183,1,47.5,8|2,1:0|0:0,0:0:0:0:
424,87,21263,2,0,P|401:91|377:89,1,47.5,2|0,3:2|0:0,0:0:0:0:
296,155,21493,6,0,L|298:271,1,95,0|2,1:0|3:2,0:0:0:0:
194,269,21839,1,0,0:0:0:0:
194,269,21955,1,8,1:0:0:0:
215,73,22186,2,0,L|159:75,1,47.5,0|0,3:0|0:0,0:0:0:0:
57,115,22416,6,0,L|56:57,1,47.5,6|0,1:0|0:0,0:0:0:0:
57,115,22647,2,0,L|58:216,1,95,2|8,0:0|1:0,0:0:0:0:
226,365,23109,2,0,L|282:358,1,47.5,2|0,0:0|0:0,0:0:0:0:
321,256,23339,6,0,L|265:249,1,47.5,2|0,1:0|0:0,0:0:0:0:
321,256,23570,2,0,L|428:269,1,95,2|8,0:0|1:0,0:0:0:0:
512,119,24032,1,0,0:0:0:0:
422,49,24147,5,2,0:0:0:0:
413,48,24205,1,0,0:0:0:0:
404,47,24263,2,0,P|358:66|322:129,1,109.250002083778,2|0,1:0|0:0,0:0:0:0:
202,82,24609,5,2,0:0:0:0:
196,89,24667,1,0,0:0:0:0:
191,96,24725,2,0,P|189:148|230:213,1,123.499994346619,8|0,1:0|0:0,0:0:0:0:
147,283,25070,5,2,0:0:0:0:
150,291,25128,1,0,0:0:0:0:
153,299,25186,2,0,P|216:324|282:308,1,137.750004203797,2|2,1:0|3:2,0:0:0:0:
224,208,25532,6,0,L|166:208,1,54.6250010418892,0|8,0:0|1:0,0:0:0:0:
431,209,25878,1,0,3:0:0:0:
308,137,25993,1,2,0:0:0:0:
306,126,26050,1,0,0:0:0:0:
305,115,26109,6,0,L|386:117,1,47.5,2|0,1:0|0:0,0:0:0:0:
227,22,26339,2,0,L|179:20,1,47.5,2|0,3:2|0:0,0:0:0:0:
62,126,26570,2,0,L|143:128,1,47.5,8|0,1:0|0:0,0:0:0:0:
6,246,26801,1,2,3:2:0:0:
6,246,26916,1,2,0:0:0:0:
6,246,27032,6,0,P|1:272|0:296,1,47.5,2|0,1:0|0:0,0:0:0:0:
141,361,27263,2,0,P|139:337|134:314,1,47.5,2|0,0:0|0:0,0:0:0:0:
198,208,27493,2,0,P|248:205|302:209,1,95,8|0,1:0|3:0,0:0:0:0:
445,310,27955,6,0,P|477:228|464:155,1,152,6|0,1:0|3:0,0:0:0:0:
398,77,28301,1,0,0:0:0:0:
371,87,28416,2,0,P|342:91|314:88,1,56.9999982604981,8|2,1:0|0:0,0:0:0:0:
131,176,28647,2,0,P|159:179|187:176,1,56.9999982604981,2|0,0:0|0:0,0:0:0:0:
52,104,28878,6,0,P|23:174|49:241,1,152,6|0,1:0|0:0,0:0:0:0:
136,317,29224,1,0,0:0:0:0:
118,339,29339,2,0,L|60:336,1,56.9999982604981,2|0,0:1|0:0,0:0:0:0:
183,249,29570,6,0,P|260:225|241:207,1,170.999994781494,0|4,0:0|0:0,0:0:0:0:
256,192,31647,12,0,33263,0:0:0:0:
50,57,33493,6,0,B|35:90|35:90|41:161,2,95,6|0|2,0:0|0:0|0:0,0:0:0:0:
122,212,34186,1,2,0:0:0:0:
122,212,34301,1,0,0:0:0:0:
122,212,34416,2,0,B|137:179|137:179|131:108,2,95,2|0|0,0:0|0:0|3:0,0:0:0:0:
231,44,35109,1,2,0:0:0:0:
231,44,35224,1,0,0:0:0:0:
231,44,35339,6,0,L|333:45,1,95,2|0,0:0|0:0,0:0:0:0:
479,172,35801,2,0,P|508:205|453:186,1,142.5,2|0,0:0|0:0,0:0:0:0:
363,140,36263,2,0,P|346:187|351:237,2,95,0|0|2,3:0|0:0|0:0,0:0:0:0:
272,343,36955,1,2,0:0:0:0:
272,343,37070,1,0,0:0:0:0:
272,343,37186,6,0,B|222:352|222:352|179:340,1,95,2|0,0:0|0:0,0:0:0:0:
52,185,37647,2,0,B|102:176|102:176|145:188,1,95,2|0,3:2|0:0,0:0:0:0:
235,217,37993,1,0,0:0:0:0:
258,217,38109,2,0,P|248:162|259:115,2,95,2|0|2,0:0|0:0|3:2,0:0:0:0:
475,32,38916,1,0,0:0:0:0:
477,55,39032,6,0,L|484:153,1,95,2|0,0:0|0:0,0:0:0:0:
361,307,39493,2,0,L|368:209,1,95,0|2,3:0|0:0,0:0:0:0:
335,122,39839,1,0,0:0:0:0:
308,112,39955,6,0,P|264:129|192:109,1,113.999996520996,2|0,0:0|0:0,0:0:0:0:
0,257,40416,2,0,P|44:240|116:260,1,113.999996520996,0|0,3:0|0:0,0:0:0:0:
240,355,40878,6,0,B|263:368|490:249|315:179|189:245|315:352|421:351,1,356.25,6|0,0:1|3:0,0:0:0:0:
498,277,41686,1,0,0:0:0:0:
493,247,41801,2,0,P|419:128|206:154,1,356.25,2|0,3:2|0:0,0:0:0:0:
162,242,42609,1,0,0:0:0:0:
138,224,42724,6,0,P|100:134|132:58,1,178.125,2|0,3:2|0:0,0:0:0:0:
221,139,43186,2,0,P|259:229|227:305,1,178.125,2|0,3:2|0:0,0:0:0:0:
136,370,43647,6,0,P|131:339|133:306,1,59.375,0|0,3:0|0:0,0:0:0:0:
46,227,43878,2,0,P|68:208|95:194,1,59.375,0|0,0:0|0:0,0:0:0:0:
126,78,44109,2,0,P|153:88|178:104,1,59.375,2|0,0:0|0:0,0:0:0:0:
292,70,44339,1,0,3:0:0:0:
292,70,44455,1,0,3:0:0:0:
292,70,44570,6,0,P|357:51|432:71,1,132.999995941162,6|0,1:0|3:0,0:0:0:0:
356,182,44916,1,0,0:0:0:0:
332,205,45032,2,0,L|489:200,1,132.999995941162,10|0,3:2|0:0,0:0:0:0:
392,313,45378,1,0,0:0:0:0:
416,336,45494,2,0,L|269:331,2,132.999995941162,8|2|10,3:2|3:2|3:2,0:0:0:0:
68,39,46416,6,0,P|50:102|68:173,1,132.999995941162,6|2,1:0|0:0,0:0:0:0:
177,240,46763,1,0,0:0:0:0:
205,222,46878,2,0,P|223:159|205:88,1,132.999995941162,10|0,3:2|0:0,0:0:0:0:
317,17,47224,1,2,0:0:0:0:
335,45,47339,2,0,P|398:63|469:45,2,132.999995941162,6|0|14,1:0|3:0|3:2,0:0:0:0:
19,155,48032,1,2,3:2:0:0:
19,155,48147,1,2,0:0:0:0:
19,155,48263,6,0,P|14:195|21:226,1,68.8750021018983,6|0,1:0|0:0,0:0:0:0:
136,351,48493,2,0,P|98:335|75:313,1,68.8750021018983,0|0,3:0|0:0,0:0:0:0:
131,127,48724,2,0,P|109:154|97:186,1,68.8750021018983,10|0,1:0|0:0,0:0:0:0:
212,264,48955,2,0,P|178:269|145:264,1,68.8750021018983,2|0,3:2|0:0,0:0:0:0:
240,152,49186,6,0,P|280:147|311:154,1,68.8750021018983,2|0,1:0|0:0,0:0:0:0:
436,269,49416,2,0,P|420:231|398:208,1,68.8750021018983,0|0,3:0|0:0,0:0:0:0:
212,264,49647,2,0,P|238:242|270:230,1,68.8750021018983,10|0,1:0|0:0,0:0:0:0:
349,345,49878,2,0,P|354:311|348:277,1,68.8750021018983,2|0,3:2|0:0,0:0:0:0:
207,195,50109,6,0,L|212:273,1,68.8750021018983,2|0,1:0|0:0,0:0:0:0:
51,184,50339,2,0,L|108:145,1,68.8750021018983,0|0,3:0|0:0,0:0:0:0:
114,325,50570,2,0,L|52:294,1,68.8750021018983,8|0,1:0|0:0,0:0:0:0:
207,195,50801,1,2,3:2:0:0:
207,195,50916,1,0,0:0:0:0:
207,195,51032,6,0,B|243:189|243:189|278:197,1,68.8750021018983,2|0,1:0|0:0,0:0:0:0:
403,321,51263,2,0,B|434:328|434:328|470:322,1,68.8750021018983,0|0,3:0|0:0,0:0:0:0:
468,143,51493,2,0,B|432:137|432:137|400:144,1,68.8750021018983,10|0,1:0|0:0,0:0:0:0:
272,269,51724,2,0,B|240:276|240:276|204:270,1,68.8750021018983,2|0,3:2|0:0,0:0:0:0:
68,151,51955,5,6,1:0:0:0:
28,141,52070,1,0,3:0:0:0:
13,103,52185,1,2,3:2:0:0:
36,69,52301,1,0,3:0:0:0:
77,69,52416,2,0,L|127:77,1,42.7499986953736,10|0,1:0|3:0,0:0:0:0:
196,156,52647,2,0,L|245:148,1,42.7499986953736,2|0,3:2|3:0,0:0:0:0:
320,73,52878,5,2,1:0:0:0:
360,59,52993,1,0,3:0:0:0:
402,63,53108,1,2,3:2:0:0:
440,83,53224,1,0,3:0:0:0:
466,116,53339,2,0,L|471:181,1,42.7499986953736,10|0,1:0|3:0,0:0:0:0:
395,262,53570,2,0,L|390:326,1,42.7499986953736,2|0,3:2|0:0,0:0:0:0:
229,339,53801,6,0,P|157:361|103:217,1,218.500004167557,2|10,1:0|1:0,0:0:0:0:
234,204,54493,1,2,3:2:0:0:
171,273,54609,1,2,3:2:0:0:
83,258,54724,6,0,L|-3:257,1,61.7499971733095,2|0,1:0|0:0,0:0:0:0:
95,156,54955,2,0,L|156:156,1,61.7499971733095,0|0,3:0|0:0,0:0:0:0:
332,218,55186,2,0,L|418:219,1,61.7499971733095,10|0,1:0|0:0,0:0:0:0:
320,320,55417,2,0,L|258:319,1,61.7499971733095,2|0,3:2|0:0,0:0:0:0:
16,216,55647,6,0,P|11:176|18:145,1,68.8750021018983,6|0,1:0|0:0,0:0:0:0:
133,20,55877,2,0,P|95:36|72:58,1,68.8750021018983,0|0,3:0|0:0,0:0:0:0:
128,244,56108,2,0,P|106:217|94:185,1,68.8750021018983,10|0,1:0|0:0,0:0:0:0:
209,107,56339,2,0,P|175:102|142:107,1,68.8750021018983,2|0,3:2|0:0,0:0:0:0:
286,255,56570,6,0,L|286:179,1,68.8750021018983,2|0,1:0|0:0,0:0:0:0:
423,70,56801,2,0,L|423:138,1,68.8750021018983,0|0,3:0|0:0,0:0:0:0:
375,312,57032,2,0,L|375:236,1,68.8750021018983,10|0,1:0|0:0,0:0:0:0:
512,127,57263,2,0,L|512:195,1,68.8750021018983,2|0,3:2|0:0,0:0:0:0:
286,186,57493,6,0,L|208:191,1,68.8750021018983,2|0,1:0|0:0,0:0:0:0:
297,30,57724,2,0,L|336:87,1,68.8750021018983,0|0,3:0|0:0,0:0:0:0:
156,93,57955,2,0,L|187:31,1,68.8750021018983,10|0,1:0|0:0,0:0:0:0:
286,186,58185,1,2,3:2:0:0:
286,186,58300,1,0,0:0:0:0:
286,186,58416,6,0,P|254:183|216:189,1,68.8750021018983,2|0,1:0|0:0,0:0:0:0:
105,329,58647,2,0,P|71:334|36:331,1,68.8750021018983,0|0,3:0|0:0,0:0:0:0:
33,151,58878,2,0,P|65:148|103:154,1,68.8750021018983,10|0,1:0|0:0,0:0:0:0:
214,294,59109,2,0,P|247:299|282:296,1,68.8750021018983,2|0,3:2|0:0,0:0:0:0:
426,181,59339,5,6,1:0:0:0:
424,138,59454,1,2,3:2:0:0:
422,95,59569,1,0,3:0:0:0:
420,52,59685,1,0,3:0:0:0:
419,10,59801,2,0,L|358:20,1,42.7499986953736,10|2,1:0|3:2,0:0:0:0:
301,99,60032,2,0,L|239:89,1,42.7499986953736,0|0,3:0|3:0,0:0:0:0:
106,37,60263,5,6,1:0:0:0:
107,94,60378,1,2,3:2:0:0:
110,150,60493,1,0,3:0:0:0:
112,208,60609,1,0,3:0:0:0:
114,264,60725,2,0,L|195:250,1,61.7499971733095,10|0,1:0|3:0,0:0:0:0:
320,183,60955,2,0,L|396:195,1,61.7499971733095,2|0,3:2|3:0,0:0:0:0:
198,262,61186,6,0,P|177:291|189:254,1,95,2|0,0:0|0:0,0:0:0:0:
512,11,61878,6,0,L|423:14,1,76,2|2,0:0|0:0,0:0:0:0:
358,78,62109,6,0,P|191:124|363:129,1,465.499985794068
278,111,63032,5,4,1:0:0:0:
69,69,66724,6,0,B|111:58|111:58|209:73,2,123.499994346619,6|0|0,1:0|0:0|0:0,0:0:0:0:
443,315,67647,2,0,B|400:325|400:325|303:311,2,123.499994346619,6|0|0,1:0|0:0|0:0,0:0:0:0:
256,192,68570,6,0,P|173:246|68:187,1,185.249991519928,6|0,1:0|0:0,0:0:0:0:
164,142,69032,2,0,L|167:88,1,52.2500015945435,2|0,0:0|0:0,0:0:0:0:
271,96,69263,2,0,L|275:42,1,52.2500015945435,2|0,3:2|3:0,0:0:0:0:
256,192,69493,5,6,1:0:0:0:
256,192,69955,1,6,1:0:0:0:
32,352,70416,6,0,P|25:300|38:235,1,95,6|0,3:2|3:0,0:0:0:0:
146,67,70878,2,0,L|119:66,10,15.8333333333333,2|0|2|0|2|0|2|0|2|0|0,0:0|0:0|0:0|0:0|0:0|0:0|0:0|0:0|0:0|0:0|0:0,0:0:0:0:
146,67,71339,6,0,P|153:119|140:184,1,95,6|0,3:2|3:0,0:0:0:0:
276,344,71801,2,0,L|303:345,10,15.8333333333333,2|0|2|0|2|0|2|0|2|0|0,0:0|0:0|0:0|0:0|0:0|0:0|0:0|0:0|0:0|0:0|0:0,0:0:0:0:
276,344,72262,6,0,P|269:292|282:227,1,95,6|0,3:2|3:0,0:0:0:0:
238,28,72724,2,0,P|299:23|340:40,1,95,2|0,0:0|3:0,0:0:0:0:
410,108,73070,1,0,3:0:0:0:
389,119,73186,6,0,L|388:231,1,95,6|0,3:2|0:0,0:0:0:0:
215,338,73647,1,2,0:0:0:0:
446,337,73878,1,2,0:0:0:0:
446,337,73993,1,0,0:0:0:0:
446,337,74109,6,0,P|417:350|400:354,1,47.5,6|0,3:2|0:0,0:0:0:0:
329,271,74340,2,0,P|300:258|283:254,1,47.5,0|0,3:0|0:0,0:0:0:0:
215,338,74570,2,0,P|186:351|169:355,1,47.5,2|0,0:0|0:0,0:0:0:0:
74,301,74801,1,2,0:0:0:0:
74,301,74916,1,0,0:0:0:0:
74,301,75032,6,0,L|55:237,1,47.5,6|0,3:2|0:0,0:0:0:0:
151,193,75263,2,0,L|170:129,1,47.5,0|0,3:0|0:0,0:0:0:0:
80,78,75493,2,0,L|61:14,1,47.5,2|0,3:2|0:0,0:0:0:0:
172,59,75724,1,2,0:0:0:0:
172,59,75839,1,0,0:0:0:0:
267,15,75955,6,0,B|359:62|359:0|449:25,1,185.249991519928,6|0,3:2|0:0,0:0:0:0:
477,120,76416,2,0,L|483:192,1,61.7499971733095,2|0,3:2|0:0,0:0:0:0:
453,257,76647,1,0,3:0:0:0:
372,243,76763,1,2,0:0:0:0:
310,330,76878,6,0,B|269:313|262:252|262:252|142:194|180:354|31:344|27:199|27:199|84:192|133:130,1,532,4|0,0:0|0:0,0:0:0:0:
193,55,77801,6,0,L|320:52,1,95,6|0,3:2|3:0,0:0:0:0:
510,162,78263,2,0,P|511:170|510:178,10,15.8333333333333,2|0|2|0|2|0|2|0|2|0|0,0:0|0:0|0:0|0:0|0:0|0:0|0:0|0:0|0:0|0:0|0:0,0:0:0:0:
510,162,78724,6,0,L|415:159,1,95,6|0,3:2|3:0,0:0:0:0:
194,280,79186,2,0,P|193:288|194:296,10,15.8333333333333,2|0|2|0|2|0|2|0|2|0|0,0:0|0:0|0:0|0:0|0:0|0:0|0:0|0:0|0:0|0:0|0:0,0:0:0:0:
194,280,79647,6,0,L|288:277,1,95,6|0,3:2|3:0,0:0:0:0:
52,320,80108,2,0,P|39:274|46:228,1,95,2|0,3:2|3:0,0:0:0:0:
106,119,80454,1,0,0:0:0:0:
123,102,80570,6,0,P|164:115|221:104,2,95,2|0|2,3:2|3:0|0:0,0:0:0:0:
357,23,81262,1,2,0:0:0:0:
357,23,81377,1,0,0:0:0:0:
357,23,81493,6,0,P|370:52|374:69,1,47.5,6|0,3:2|0:0,0:0:0:0:
319,162,81724,2,0,P|306:191|302:208,1,47.5,0|0,3:0|0:0,0:0:0:0:
374,288,81954,2,0,L|378:309,10,15.8333333333333,2|0|2|0|2|0|2|0|2|0|0,0:0|0:0|0:0|0:0|0:0|0:0|0:0|0:0|0:0|0:0|0:0,0:0:0:0:
374,288,82416,6,0,L|310:307,1,47.5,6|0,3:2|0:0,0:0:0:0:
241,368,82647,2,0,L|177:349,1,47.5,0|0,3:0|0:0,0:0:0:0:
132,265,82878,2,0,L|111:261,10,15.8333333333333,2|0|2|0|2|0|2|0|2|0|0,0:0|0:0|0:0|0:0|0:0|0:0|0:0|0:0|0:0|0:0|0:0,0:0:0:0:
132,264,83339,6,0,P|71:265|65:178,1,142.5,6|0,3:2|0:0,0:0:0:0:
99,97,83801,2,0,L|167:86,1,47.5,2|0,3:2|0:0,0:0:0:0:
232,155,84031,2,0,L|300:166,1,47.5,2|0,0:0|3:0,0:0:0:0:
340,61,84262,5,0,3:0:0:0:
145,89,84493,1,0,0:0:0:0:
340,61,84724,1,0,3:0:0:0:
239,291,84954,1,0,0:0:0:0:
239,291,85070,1,0,0:0:0:0:
239,291,85186,6,0,P|209:296|181:293,1,56.9999982604981,6|0,1:0|0:0,0:0:0:0:
253,183,85416,2,0,P|283:178|311:181,1,56.9999982604981,0|0,3:0|0:0,0:0:0:0:
161,196,85647,2,0,P|170:140|210:99,1,113.999996520996,10|0,3:2|0:0,0:0:0:0:
335,63,85993,1,0,0:0:0:0:
357,80,86109,6,0,L|434:80,1,56.9999982604981,10|0,3:2|0:0,0:0:0:0:
467,199,86339,2,0,L|410:199,1,56.9999982604981,0|0,3:0|0:0,0:0:0:0:
279,271,86570,2,0,P|220:296|155:276,1,113.999996520996,10|0,3:2|3:0,0:0:0:0:
68,205,86916,1,0,0:0:0:0:
56,178,87032,6,0,L|63:115,1,56.9999982604981,10|0,3:2|0:0,0:0:0:0:
160,33,87263,2,0,L|167:96,1,56.9999982604981,0|0,3:0|0:0,0:0:0:0:
279,184,87493,2,0,B|315:196|315:196|406:180,1,113.999996520996,10|2,3:2|3:2,0:0:0:0:
486,93,87839,1,0,0:0:0:0:
508,110,87955,6,0,L|513:172,1,56.9999982604981,10|0,3:2|0:0,0:0:0:0:
440,256,88186,2,0,L|435:312,1,56.9999982604981,0|0,3:0|0:0,0:0:0:0:
314,225,88416,1,10,3:2:0:0:
314,225,88647,5,0,3:0:0:0:
281,316,88763,1,2,0:0:0:0:
208,213,88878,6,0,L|139:216,1,56.9999982604981,6|0,1:0|0:0,0:0:0:0:
33,324,89109,2,0,L|64:262,1,56.9999982604981,2|0,3:2|0:0,0:0:0:0:
23,118,89339,2,0,L|53:166,1,56.9999982604981,10|0,3:2|0:0,0:0:0:0:
128,76,89570,5,2,3:2:0:0:
183,155,89686,1,0,0:0:0:0:
229,33,89801,6,0,P|254:27|284:30,1,56.9999982604981,10|0,3:2|0:0,0:0:0:0:
413,2,90032,2,0,P|430:20|443:48,1,56.9999982604981,2|0,3:2|0:0,0:0:0:0:
510,162,90263,2,0,P|502:186|485:211,1,56.9999982604981,10|0,3:2|0:0,0:0:0:0:
354,195,90493,5,0,0:0:0:0:
387,286,90609,1,0,0:0:0:0:
279,365,90725,6,0,P|215:372|156:332,1,132.999995941162,6|0,1:0|0:0,0:0:0:0:
98,243,91071,1,0,0:0:0:0:
66,231,91186,2,0,L|-11:239,1,66.4999979705811,10|2,3:2|0:0,0:0:0:0:
72,102,91417,2,0,L|138:108,1,66.4999979705811,2|0,3:2|0:0,0:0:0:0:
235,180,91648,6,0,L|235:55,1,104.500003189087,6|0,1:0|0:0,0:0:0:0:
442,228,92109,6,0,L|442:399,1,152,10|0,3:2|0:0,0:0:0:0:
203,315,92570,6,0,L|256:315,1,47.5,6|0,1:0|0:0,0:0:0:0:
203,315,92801,2,0,L|98:316,1,95,2|8,0:0|1:0,0:0:0:0:
16,149,93262,2,0,L|18:87,1,47.5,0|0,3:0|0:0,0:0:0:0:
119,142,93493,6,0,L|120:189,1,47.5,2|0,1:0|0:0,0:0:0:0:
119,142,93724,2,0,L|115:37,1,95,2|8,0:0|1:0,0:0:0:0:
270,201,94185,1,0,3:0:0:0:
325,123,94301,5,2,0:0:0:0:
316,122,94358,1,0,0:0:0:0:
307,121,94416,2,0,P|254:113|195:158,1,109.250002083778,2|0,1:0|0:0,0:0:0:0:
139,246,94763,5,2,0:0:0:0:
139,236,94820,1,0,0:0:0:0:
140,226,94878,2,0,L|132:95,1,123.499994346619,8|0,1:0|0:0,0:0:0:0:
264,45,95224,5,2,0:0:0:0:
263,54,95282,1,0,0:0:0:0:
262,63,95339,2,0,L|271:218,1,137.750004203797,2|2,1:0|3:2,0:0:0:0:
331,312,95686,6,0,L|385:317,1,54.6250010418892,0|8,0:0|1:0,0:0:0:0:
102,286,96032,1,0,3:0:0:0:
209,303,96147,1,2,0:0:0:0:
220,301,96205,1,0,0:0:0:0:
231,300,96263,6,0,L|229:381,1,47.5,2|0,1:0|0:0,0:0:0:0:
206,188,96493,2,0,L|134:226,1,47.5,2|0,0:0|0:0,0:0:0:0:
306,132,96724,2,0,L|236:89,1,47.5,8|0,1:0|0:0,0:0:0:0:
419,159,96955,1,0,3:0:0:0:
419,159,97070,1,2,0:0:0:0:
419,159,97186,6,0,P|424:132|423:111,1,47.5,2|0,1:0|0:0,0:0:0:0:
304,240,97416,2,0,P|299:267|300:288,1,47.5,2|0,0:0|0:0,0:0:0:0:
183,153,97647,2,0,P|188:126|187:105,1,47.5,8|0,1:0|0:0,0:0:0:0:
76,172,97878,1,2,3:2:0:0:
76,172,97993,1,0,0:0:0:0:
76,172,98109,6,0,L|79:291,1,95,2|2,1:0|0:0,0:0:0:0:
327,329,98570,2,0,L|325:258,1,47.5,8|2,1:0|0:0,0:0:0:0:
408,182,98801,2,0,L|409:229,1,47.5,2|0,3:2|0:0,0:0:0:0:
293,171,99032,6,0,L|288:61,1,95,0|2,1:0|3:2,0:0:0:0:
190,54,99378,1,0,0:0:0:0:
190,54,99493,1,8,1:0:0:0:
111,227,99724,2,0,L|113:171,1,47.5,0|0,3:0|0:0,0:0:0:0:
96,66,99955,6,0,L|40:73,1,47.5,6|0,1:0|0:0,0:0:0:0:
96,66,100186,2,0,L|203:53,1,95,2|8,0:0|1:0,0:0:0:0:
429,171,100647,2,0,L|422:227,1,47.5,0|0,3:0|0:0,0:0:0:0:
299,269,100878,6,0,L|292:213,1,47.5,2|0,1:0|0:0,0:0:0:0:
299,269,101109,2,0,L|312:376,1,95,2|8,0:0|1:0,0:0:0:0:
155,170,101570,1,0,3:0:0:0:
154,279,101686,5,2,0:0:0:0:
153,270,101743,1,0,0:0:0:0:
152,261,101801,2,0,P|171:215|234:179,1,109.250002083778,2|0,1:0|0:0,0:0:0:0:
183,60,102147,5,2,0:0:0:0:
190,54,102205,1,0,0:0:0:0:
197,49,102263,2,0,P|249:47|314:88,1,123.499994346619,8|0,1:0|0:0,0:0:0:0:
428,5,102608,5,2,0:0:0:0:
436,8,102666,1,0,0:0:0:0:
444,11,102724,2,0,P|469:74|453:140,1,137.750004203797,2|2,1:0|3:2,0:0:0:0:
309,136,103070,6,0,L|309:78,1,54.6250010418892,0|8,0:0|1:0,0:0:0:0:
310,365,103416,1,0,3:0:0:0:
318,238,103532,1,2,0:0:0:0:
311,232,103590,1,0,0:0:0:0:
304,227,103648,6,0,L|145:228,1,142.500005435944,2|2,1:0|0:0,0:0:0:0:
52,147,103993,1,0,0:0:0:0:
47,172,104109,2,0,P|40:203|41:232,1,52.2500015945435,8|0,1:0|0:0,0:0:0:0:
226,199,104339,2,0,P|225:172|218:147,1,52.2500015945435,2|2,3:2|0:0,0:0:0:0:
348,59,104570,6,0,P|373:136|373:204,1,142.500005435944,2|2,1:0|0:0,0:0:0:0:
291,305,104916,1,0,0:0:0:0:
265,311,105032,6,0,B|194:283|185:343|109:308,1,156.750004783631,8|0,1:0|0:0,0:0:0:0:
33,167,105493,6,0,L|184:164,1,142.500005435944,6|0,1:0|0:0,0:0:0:0:
312,164,105839,1,0,0:0:0:0:
286,171,105955,2,0,P|279:202|280:227,1,52.2500015945435,10|0,1:0|0:0,0:0:0:0:
417,141,106186,2,0,P|417:115|411:90,1,52.2500015945435
442,258,106416,5,6,1:0:0:0:
442,258,106646,1,0,0:0:0:0:
434,310,106762,1,0,0:0:0:0:
396,345,106877,2,0,L|338:335,1,52.2500015945435,8|0,1:0|0:0,0:0:0:0:
279,222,107109,2,0,L|185:237,1,52.2500015945435,0|0,0:0|3:0,0:0:0:0:
102,313,107339,5,6,3:2:0:0:
410,71,108263,1,6,3:2:0:0:
256,192,109186,5,6,3:2:0:0:
256,192,109647,1,6,0:0:0:0:
111,172,110109,6,0,L|147:169,1,23.75,6|0,3:2|0:0,0:0:0:0:
345,76,110339,2,0,L|330:109,1,23.75,0|0,3:0|0:0,0:0:0:0:
311,327,110570,2,0,L|290:297,1,23.75,0|0,3:0|0:0,0:0:0:0:
