osu file format v14

[General]
AudioFilename: audio.mp3
AudioLeadIn: 0
PreviewTime: 87656
Countdown: 0
SampleSet: Soft
StackLeniency: 0.6
Mode: 0
LetterboxInBreaks: 0
WidescreenStoryboard: 0

[Editor]
DistanceSpacing: 0.4
BeatDivisor: 4
GridSize: 32
TimelineZoom: 1.4

[Metadata]
Title:Take Me Away (Cut Ver.)
TitleUnicode:Take Me Away (Cut Ver.)
Artist:Lexurus
ArtistUnicode:Lexurus
Creator:Strategas
Version:Zer0's Insane
Source:
Tags:dnb drum and & bass d&b liquicity alchemy 3 electronic english Zer0-
BeatmapID:3216732
BeatmapSetID:1572918

[Difficulty]
HPDrainRate:5
CircleSize:4
OverallDifficulty:8
ApproachRate:9
SliderMultiplier:1.4
SliderTickRate:1

[Events]
//Background and Video events
0,0,"malware.exe.jpg",0,0
//Break Periods
//Storyboard Layer 0 (Background)
//Storyboard Layer 1 (Fail)
//Storyboard Layer 2 (Pass)
//Storyboard Layer 3 (Foreground)
//Storyboard Layer 4 (Overlay)
//Storyboard Sound Samples

[TimingPoints]
22220,344.827586206897,4,2,25,60,1,0
24676,-100,4,2,25,5,0,0
24978,-100,4,2,25,60,0,0
26056,-100,4,2,25,5,0,0
26357,-100,4,2,25,60,0,0
35711,-100,4,2,25,5,0,0
36013,-100,4,2,25,60,0,0
37090,-100,4,2,25,5,0,0
37391,-100,4,2,25,60,0,0
46745,-100,4,2,25,5,0,0
47047,-100,4,2,25,60,0,0
48125,-100,4,2,25,5,0,0
48426,-100,4,2,25,60,0,0
52263,-100,4,2,25,5,0,0
52564,-100,4,2,25,60,0,0
53944,-100,4,2,25,60,0,0
55323,-100,4,2,25,65,0,0
57780,-100,4,2,25,5,0,0
58082,-100,4,2,25,65,0,0
59159,-100,4,2,25,5,0,0
59461,-100,4,2,25,65,0,0
60840,-100,4,2,25,70,0,0
65668,-100,4,2,25,50,0,0
66013,-200,4,2,25,70,0,0
66357,-83.3333333333333,4,2,25,75,0,0
69375,-83.3333333333333,4,2,25,40,0,0
69460,-83.3333333333333,4,2,25,75,0,0
74892,-83.3333333333333,4,2,25,40,0,0
74977,-83.3333333333333,4,2,25,75,0,0
80409,-83.3333333333333,4,2,25,40,0,0
80495,-83.3333333333333,4,2,25,75,0,0
85926,-83.3333333333333,4,2,25,40,0,0
86012,-83.3333333333333,4,2,25,75,0,0
91098,-83.3333333333333,4,2,25,40,0,0
91185,-83.3333333333333,4,2,25,75,0,0
91444,-83.3333333333333,4,2,25,40,0,0
91529,-83.3333333333333,4,2,25,75,0,0
96961,-83.3333333333333,4,2,25,40,0,0
97046,-83.3333333333333,4,2,25,75,0,0
102478,-83.3333333333333,4,2,25,40,0,0
102564,-83.3333333333333,4,2,25,75,0,0
104978,-83.3333333333333,4,2,25,60,0,0
108426,-83.3333333333333,4,2,25,65,0,0
109116,-83.3333333333333,4,2,25,70,0,0
109806,-83.3333333333333,4,2,25,75,0,0
110495,-76.9230769230769,4,2,25,80,0,1
131185,-153.846153846153,4,2,25,60,0,0

[Colours]
Combo1 : 105,117,146
Combo2 : 66,91,168

[HitObjects]
393,132,22220,6,0,B|264:133|335:235|179:207,1,210,4|2,2:0|2:0,2:0:0:0:
210,211,22909,1,2,2:0:0:0:
99,168,23082,1,2,2:0:0:0:
93,162,23168,1,2,2:0:0:0:
87,156,23254,2,0,L|68:9,1,140,2|0,2:0|2:0,2:0:0:0:
10,201,24288,5,0,2:0:0:0:
10,201,24633,2,0,P|29:229|61:242,1,70,2|0,2:0|2:0,2:0:0:0:
205,188,24978,6,0,B|272:193|272:193|291:205|291:205|411:212,1,210,2|2,2:0|2:0,2:0:0:0:
411,212,25668,1,2,2:0:0:0:
391,318,25840,1,2,2:0:0:0:
389,326,25926,1,2,2:0:0:0:
387,334,26013,2,0,B|350:362|350:362|256:354,1,140,2|0,2:0|2:0,2:0:0:0:
423,54,27047,5,2,2:0:0:0:
456,136,27220,1,2,2:0:0:0:
411,212,27392,2,0,L|339:219,1,70,2|2,2:0|2:0,2:0:0:0:
204,214,27737,6,0,P|190:167|320:154,1,210,2|2,2:0|2:0,2:0:0:0:
309,132,28426,1,2,2:0:0:0:
242,21,28599,1,2,2:0:0:0:
234,24,28685,1,2,2:0:0:0:
226,27,28771,2,0,L|77:49,1,140,2|0,2:0|2:0,2:0:0:0:
40,204,29806,5,0,2:0:0:0:
143,267,30495,5,0,2:0:0:0:
179,355,31185,5,0,2:0:0:0:
255,384,31875,5,0,2:0:0:0:
272,141,32564,5,2,2:0:0:0:
333,199,32737,1,2,2:0:0:0:
412,170,32909,2,0,P|435:144|439:110,1,70,2|2,2:0|2:0,2:0:0:0:
374,10,33254,6,0,P|322:53|197:1,1,210,2|2,2:0|2:0,2:0:0:0:
105,0,33944,1,2,2:0:0:0:
61,78,34116,1,2,2:0:0:0:
61,86,34202,1,2,2:0:0:0:
61,94,34288,2,0,L|76:241,1,140,2|0,2:0|2:0,2:0:0:0:
61,94,35323,5,0,2:0:0:0:
61,94,35668,2,0,P|89:115|124:117,1,70,2|0,2:0|2:0,2:0:0:0:
197,199,36013,6,0,P|298:173|407:168,1,210,2|2,2:0|2:0,2:0:0:0:
490,225,36702,1,2,2:0:0:0:
467,320,36875,1,2,2:0:0:0:
461,326,36961,1,2,2:0:0:0:
456,333,37047,2,0,P|412:333|370:249,1,140,2|0,2:0|2:0,2:0:0:0:
367,258,38082,5,2,2:0:0:0:
296,191,38254,1,2,2:0:0:0:
212,240,38426,2,0,P|199:272|203:306,1,70,2|2,2:0|2:0,2:0:0:0:
107,344,38771,6,0,P|53:355|5:234,1,210,2|2,2:0|2:0,2:0:0:0:
82,171,39461,1,2,2:0:0:0:
177,218,39633,1,2,2:0:0:0:
178,226,39720,1,2,2:0:0:0:
179,234,39806,2,0,L|187:311,1,70,2|0,2:0|2:0,2:0:0:0:
308,375,40151,5,2,2:0:0:0:
449,162,40840,5,2,2:0:0:0:
250,28,41530,5,2,2:0:0:0:
162,149,42220,5,2,2:0:0:0:
256,241,42909,5,2,2:0:0:0:
306,177,43599,5,2,2:0:0:0:
35,41,44116,5,2,2:0:0:0:
34,49,44202,1,2,2:0:0:0:
33,57,44288,2,0,B|44:196,1,140,2|0,2:0|2:0,2:0:0:0:
123,266,44806,1,2,2:0:0:0:
226,253,44978,1,2,2:0:0:0:
263,157,45151,1,2,2:0:0:0:
269,148,45237,1,2,2:0:0:0:
275,139,45323,2,0,L|352:149,1,70,2|0,2:0|2:0,2:0:0:0:
471,185,45668,6,0,P|412:137|398:280,1,280,0|0,2:0|2:0,2:0:0:0:
369,271,46702,2,0,P|384:239|378:205,1,70,2|0,2:0|2:0,2:0:0:0:
275,139,47047,6,0,B|135:149,1,140,2|0,2:0|2:0,2:0:0:0:
97,249,47564,1,2,2:0:0:0:
165,333,47737,1,2,2:0:0:0:
271,323,47909,1,2,2:0:0:0:
281,324,47995,1,2,2:0:0:0:
291,324,48082,2,0,B|378:281|347:158|309:156|270:155|227:62|286:-42|434:-36|489:83|399:190,1,560,2|0,2:0|2:0,2:0:0:0:
244,240,49633,5,2,2:0:0:0:
233,242,49720,1,2,2:0:0:0:
223,245,49806,2,0,P|159:221|139:157,1,140,2|0,2:0|2:0,2:0:0:0:
177,68,50323,1,2,2:0:0:0:
75,41,50495,1,2,2:0:0:0:
3,128,50668,1,2,2:0:0:0:
12,132,50754,1,2,2:0:0:0:
19,138,50840,2,0,P|31:170|31:205,1,70,2|0,2:0|2:0,2:0:0:0:
7,316,51185,6,0,B|119:294|119:294|148:305|148:305|280:281,1,280,2|0,2:0|2:0,2:0:0:0:
280,280,52220,2,0,L|291:350,1,70,2|0,2:0|2:0,2:0:0:0:
256,192,52564,12,0,54978,2:0:0:0:
507,155,55151,5,2,2:0:0:0:
500,146,55237,1,2,2:0:0:0:
492,138,55323,2,0,L|348:118,1,140,4|0,1:2|2:0,2:0:0:0:
289,166,55840,2,0,L|145:146,1,140,2|2,1:2|2:0,2:0:0:0:
73,135,56357,2,0,P|57:104|61:69,1,70,2|0,1:2|2:0,2:0:0:0:
139,262,56702,6,0,P|109:317|38:306,1,140,0|0,1:0|2:0,2:0:0:0:
73,227,57220,2,0,P|142:220|209:238,1,140,0|0,1:0|2:0,2:0:0:0:
276,296,57737,2,0,P|310:299|344:290,1,70,2|0,1:2|2:0,2:0:0:0:
481,316,58082,6,0,B|452:300|452:300|439:193,1,140,0|0,1:0|2:0,2:0:0:0:
402,110,58599,2,0,B|455:68|455:68|501:125,1,140,2|2,1:2|2:0,2:0:0:0:
440,194,59116,2,0,L|359:205,1,70,2|0,1:2|2:0,2:0:0:0:
276,281,59461,6,0,P|263:217|198:205,1,140,0|0,1:0|2:0,2:0:0:0:
106,182,59978,2,0,P|46:205|18:148,1,140,0|0,1:0|2:0,2:0:0:0:
57,57,60495,2,0,P|32:33|0:39,1,70,0|2,1:0|2:0,2:0:0:0:
157,91,60840,6,0,P|167:57|171:22,1,70,2|0,1:2|2:0,2:0:0:0:
252,115,61185,2,0,P|256:80|267:47,1,70,0|2,1:0|2:0,2:0:0:0:
446,190,61530,6,0,P|450:224|461:258,1,70,2|2,1:2|2:0,2:0:0:0:
341,213,61875,2,0,P|351:246|355:281,1,70,2|0,1:2|2:0,2:0:0:0:
215,329,62220,6,0,P|181:335|147:327,1,70,0|0,1:0|2:0,2:0:0:0:
72,278,62564,2,0,P|68:244|61:209,1,70,0|0,1:0|2:0,2:0:0:0:
272,214,62909,6,0,P|306:220|340:212,1,70,0|0,1:0|2:0,2:0:0:0:
415,163,63254,2,0,P|418:128|425:93,1,70,0|0,1:0|2:0,2:0:0:0:
305,48,63599,5,0,1:0:0:0:
209,18,63771,1,0,1:0:0:0:
148,108,63944,1,0,1:0:0:0:
52,78,64116,1,0,1:0:0:0:
25,261,64288,5,0,1:0:0:0:
85,174,64461,1,0,1:0:0:0:
151,278,64633,1,0,1:0:0:0:
211,190,64806,1,0,1:0:0:0:
281,286,64978,5,0,1:0:0:0:
394,131,65151,1,0,1:0:0:0:
211,190,65323,1,0,1:0:0:0:
394,250,65495,1,0,1:0:0:0:
280,93,65668,2,0,P|269:59|269:25,1,70,0|0,1:0|1:0,2:0:0:0:
478,118,66013,6,0,B|483:145|483:145|469:166,1,52.5,8|0,2:0|2:0,2:0:0:0:
472,189,66357,6,0,B|409:182|409:182|390:187|390:187|305:176,1,168,4|8,1:2|2:0,2:0:0:0:
185,190,66875,1,2,2:0:0:0:
181,202,66961,1,2,2:0:0:0:
178,214,67047,2,0,L|164:266,1,42,2|2,2:0|2:0,2:0:0:0:
94,123,67220,1,2,1:2:0:0:
89,140,67306,1,2,2:0:0:0:
85,157,67392,2,0,L|57:259,1,84,10|0,2:0|2:0,2:0:0:0:
2,347,67737,5,2,2:0:0:0:
2,347,67909,1,0,1:0:0:0:
108,315,68082,2,0,P|189:333|267:366,1,168,8|2,2:0|2:0,2:0:0:0:
391,338,68599,1,0,1:0:0:0:
366,187,68771,2,0,P|327:199|306:280,1,126,8|0,2:0|2:0,2:0:0:0:
317,289,69116,6,0,L|306:114,1,168,0|8,1:0|2:0,2:0:0:0:
365,4,69633,1,2,2:0:0:0:
354,10,69720,1,2,2:0:0:0:
342,16,69806,2,0,P|322:22|301:22,1,42,2|2,2:0|2:0,2:0:0:0:
218,92,69978,1,2,1:2:0:0:
202,83,70064,1,2,2:0:0:0:
184,72,70151,2,0,P|144:61|103:71,1,84,10|2,2:0|2:0,2:0:0:0:
34,155,70495,5,2,2:0:0:0:
34,155,70668,1,0,1:0:0:0:
129,237,70840,2,0,L|101:60,1,168,8|2,2:0|2:0,2:0:0:0:
197,3,71357,1,0,1:0:0:0:
240,106,71530,1,8,2:0:0:0:
373,19,71702,5,2,2:0:0:0:
381,9,71788,1,2,2:0:0:0:
390,0,71875,2,0,P|457:44|457:124,1,168,2|8,1:2|2:0,2:0:0:0:
359,189,72392,1,2,2:0:0:0:
346,185,72478,1,2,2:0:0:0:
335,175,72564,2,0,P|325:156|320:136,1,42,2|2,2:0|2:0,2:0:0:0:
441,238,72737,1,2,1:2:0:0:
445,256,72823,1,2,2:0:0:0:
438,273,72909,2,0,P|407:301|366:304,1,84,10|0,2:0|2:0,2:0:0:0:
262,262,73254,5,2,2:0:0:0:
262,262,73426,1,0,1:0:0:0:
200,345,73599,2,0,L|32:333,1,168,8|2,2:0|2:0,2:0:0:0:
0,241,74116,1,0,1:0:0:0:
87,193,74288,2,0,L|212:201,1,126,8|0,2:0|2:0,2:0:0:0:
222,217,74633,6,0,P|260:145|221:75,1,168,0|8,1:0|2:0,2:0:0:0:
73,20,75151,1,2,2:0:0:0:
70,32,75237,1,2,2:0:0:0:
67,44,75323,2,0,L|57:84,1,42,2|2,2:0|2:0,2:0:0:0:
128,137,75495,1,2,1:2:0:0:
132,153,75582,1,2,2:0:0:0:
136,170,75668,2,0,L|154:251,1,84,10|0,2:0|2:0,2:0:0:0:
93,327,76013,5,2,2:0:0:0:
93,327,76185,1,0,1:0:0:0:
229,289,76357,2,0,P|312:296|394:313,1,168,8|2,2:0|2:0,2:0:0:0:
495,366,76875,1,0,1:0:0:0:
512,268,77047,1,8,2:0:0:0:
391,204,77220,5,2,2:0:0:0:
380,197,77306,1,2,2:0:0:0:
375,185,77392,2,0,L|387:17,1,168,4|8,1:2|2:0,2:0:0:0:
281,36,77909,1,2,2:0:0:0:
269,41,77995,1,2,2:0:0:0:
263,52,78082,2,0,L|253:109,1,42,2|2,2:0|2:0,2:0:0:0:
139,132,78254,1,2,1:2:0:0:
155,139,78340,1,2,2:0:0:0:
164,154,78426,2,0,L|178:236,1,84,10|0,2:0|2:0,2:0:0:0:
263,302,78771,5,2,2:0:0:0:
263,302,78944,1,0,1:0:0:0:
182,363,79116,2,0,P|103:343|67:270,1,168,8|2,2:0|2:0,2:0:0:0:
97,164,79633,1,0,1:0:0:0:
211,191,79806,2,0,P|268:156|270:87,1,126,8|0,2:0|2:0,2:0:0:0:
268,88,80151,6,0,L|284:259,1,168,0|8,1:0|2:0,2:0:0:0:
378,339,80668,1,2,2:0:0:0:
390,337,80754,1,2,2:0:0:0:
398,327,80840,2,0,L|403:285,1,42,2|2,2:0|2:0,2:0:0:0:
489,235,81013,1,2,1:2:0:0:
494,218,81099,1,2,2:0:0:0:
487,201,81185,2,0,L|420:149,1,84,10|2,2:0|2:0,2:0:0:0:
388,34,81530,5,2,2:0:0:0:
388,34,81702,1,0,1:0:0:0:
265,70,81875,2,0,P|294:107|282:232,1,168,8|2,2:0|2:0,2:0:0:0:
208,319,82392,1,0,1:0:0:0:
324,348,82564,1,8,2:0:0:0:
201,207,82737,5,2,2:0:0:0:
192,197,82823,1,2,2:0:0:0:
182,188,82909,2,0,L|168:5,1,168,2|8,1:2|2:0,2:0:0:0:
99,147,83426,1,2,2:0:0:0:
90,155,83513,1,2,2:0:0:0:
80,164,83599,2,0,P|80:184|86:205,1,42,2|2,2:0|2:0,2:0:0:0:
189,275,83771,1,2,1:2:0:0:
201,286,83857,1,2,2:0:0:0:
213,297,83944,2,0,P|214:339|204:380,1,84,10|0,2:0|2:0,2:0:0:0:
84,374,84288,5,2,2:0:0:0:
84,374,84461,1,0,1:0:0:0:
19,275,84633,2,0,P|102:283|185:296,1,168,8|2,2:0|2:0,2:0:0:0:
296,354,85151,1,0,1:0:0:0:
316,191,85323,2,0,P|317:250|374:267,1,126,8|0,2:0|2:0,2:0:0:0:
384,283,85668,6,0,L|406:88,1,168,0|8,1:0|2:0,2:0:0:0:
307,17,86185,1,2,2:0:0:0:
297,25,86271,1,2,2:0:0:0:
300,37,86357,2,0,P|320:38|340:30,1,42,2|2,2:0|2:0,2:0:0:0:
229,109,86530,1,2,1:2:0:0:
243,120,86616,1,2,2:0:0:0:
237,137,86702,2,0,P|193:139|153:123,1,84,10|0,2:0|2:0,2:0:0:0:
58,55,87047,5,2,2:0:0:0:
58,55,87220,1,0,1:0:0:0:
100,190,87392,2,0,P|93:252|82:314,1,126,8|2,2:0|2:0,2:0:0:0:
78,329,87737,1,2,2:0:0:0:
194,260,87909,1,0,1:0:0:0:
230,248,87995,1,0,1:0:0:0:
263,263,88082,1,8,2:0:0:0:
372,333,88254,5,2,2:0:0:0:
384,337,88340,1,10,2:0:0:0:
395,330,88426,2,0,B|418:299|418:299|422:169,1,168,4|8,1:2|2:0,2:0:0:0:
419,46,88944,1,2,2:0:0:0:
406,46,89030,1,2,2:0:0:0:
395,53,89116,2,0,P|377:64|369:83,1,42,2|2,2:0|2:0,2:0:0:0:
219,137,89288,1,2,1:2:0:0:
237,137,89375,1,2,2:0:0:0:
252,146,89461,2,0,P|283:172|291:213,1,84,10|0,2:0|2:0,2:0:0:0:
186,332,89806,5,2,2:0:0:0:
289,319,89978,1,0,1:0:0:0:
150,238,90151,2,0,L|158:154,1,84,8|0,2:0|2:0,2:0:0:0:
253,13,90495,1,2,2:0:0:0:
159,59,90668,1,0,1:0:0:0:
336,88,90840,2,0,P|311:142|251:145,1,126,8|0,2:0|2:0,2:0:0:0:
241,137,91185,6,0,P|342:141|427:172,1,168,0|8,1:0|2:0,2:0:0:0:
512,94,91702,1,2,2:0:0:0:
510,81,91788,1,2,2:0:0:0:
507,68,91875,2,0,L|500:26,1,42,2|2,2:0|2:0,2:0:0:0:
405,161,92047,1,2,1:2:0:0:
409,142,92133,1,2,2:0:0:0:
412,122,92220,2,0,L|424:38,1,84,10|2,2:0|2:0,2:0:0:0:
501,191,92564,5,2,2:0:0:0:
448,283,92737,1,0,1:0:0:0:
364,223,92909,1,8,2:0:0:0:
292,318,93082,5,2,2:0:0:0:
292,318,93168,1,2,2:0:0:0:
292,318,93254,1,2,2:0:0:0:
200,227,93426,1,0,1:0:0:0:
99,319,93599,1,8,2:0:0:0:
10,207,93771,5,2,2:0:0:0:
7,194,93857,1,2,2:0:0:0:
11,181,93944,2,0,P|89:152|173:145,1,168,2|8,1:2|2:0,2:0:0:0:
314,69,94461,1,2,2:0:0:0:
318,80,94547,1,2,2:0:0:0:
323,91,94633,2,0,L|319:147,1,42,2|2,2:0|2:0,2:0:0:0:
435,268,94806,1,2,1:2:0:0:
440,252,94892,1,2,2:0:0:0:
447,237,94978,2,0,L|440:150,1,84,10|0,2:0|2:0,2:0:0:0:
316,253,95323,5,2,2:0:0:0:
389,344,95495,1,0,1:0:0:0:
207,262,95668,2,0,P|217:302|221:344,1,84,8|0,2:0|2:0,2:0:0:0:
194,114,96013,1,2,2:0:0:0:
121,205,96185,1,0,1:0:0:0:
302,123,96357,2,0,P|291:163|287:205,1,84,8|0,2:0|2:0,2:0:0:0:
387,12,96702,6,0,P|322:37|210:-19,1,168,0|8,1:0|2:0,2:0:0:0:
76,23,97220,1,2,2:0:0:0:
72,35,97306,1,2,2:0:0:0:
78,45,97392,2,0,P|90:61|108:71,1,42,2|2,2:0|2:0,2:0:0:0:
246,168,97564,1,2,1:2:0:0:
233,154,97651,1,2,2:0:0:0:
216,154,97737,2,0,P|172:159|135:182,1,84,10|0,2:0|2:0,2:0:0:0:
82,280,98082,5,2,2:0:0:0:
182,345,98254,1,0,1:0:0:0:
257,257,98426,1,8,2:0:0:0:
375,351,98599,5,2,2:0:0:0:
375,351,98685,1,2,2:0:0:0:
375,351,98771,1,2,2:0:0:0:
461,238,98944,1,0,1:0:0:0:
498,372,99116,1,8,2:0:0:0:
494,124,99288,5,2,2:0:0:0:
486,134,99375,1,2,2:0:0:0:
479,144,99461,2,0,P|395:135|312:121,1,168,4|8,1:2|2:0,2:0:0:0:
174,59,99978,1,2,2:0:0:0:
165,68,100064,1,2,2:0:0:0:
156,77,100151,2,0,L|115:87,1,42,2|2,2:0|2:0,2:0:0:0:
228,191,100323,1,2,1:2:0:0:
240,203,100409,1,2,2:0:0:0:
253,216,100495,2,0,L|338:238,1,84,10|0,2:0|2:0,2:0:0:0:
215,353,100840,5,2,2:0:0:0:
147,262,101013,1,0,1:0:0:0:
39,291,101185,2,0,P|14:324|18:365,1,84,8|0,2:0|2:0,2:0:0:0:
237,192,101530,1,2,2:0:0:0:
147,262,101702,1,0,1:0:0:0:
50,206,101875,2,0,P|34:166|49:128,1,84,8|0,2:0|2:0,2:0:0:0:
240,112,102220,6,0,P|310:149|310:229,1,168,0|8,1:0|2:0,2:0:0:0:
223,338,102737,1,2,2:0:0:0:
214,347,102823,1,2,2:0:0:0:
201,351,102909,2,0,P|180:351|160:346,1,42,2|2,2:0|2:0,2:0:0:0:
309,229,103082,1,2,1:2:0:0:
296,216,103168,1,2,2:0:0:0:
278,209,103254,2,0,P|234:207|191:219,1,84,10|2,2:0|2:0,2:0:0:0:
329,322,103599,5,2,2:0:0:0:
431,270,103771,1,0,1:0:0:0:
487,364,103944,1,8,2:0:0:0:
360,249,104116,5,2,2:0:0:0:
360,249,104202,1,0,2:0:0:0:
360,249,104288,1,2,2:0:0:0:
457,146,104461,1,0,1:0:0:0:
352,50,104633,1,8,2:0:0:0:
248,159,104806,5,2,2:0:0:0:
242,170,104892,1,2,2:0:0:0:
230,175,104978,2,0,B|152:199|161:115|73:144,1,168,2|0,2:0|2:0,2:0:0:0:
8,234,105495,1,2,2:0:0:0:
3,246,105582,1,2,2:0:0:0:
8,257,105668,1,2,2:0:0:0:
119,326,105840,1,2,2:0:0:0:
124,314,105926,1,2,2:0:0:0:
119,303,106013,1,2,2:0:0:0:
20,348,106185,5,0,2:0:0:0:
20,348,106357,2,0,P|120:329|148:322,2,126,2|0|0,2:0|2:0|2:0,2:0:0:0:
191,241,107047,2,0,P|233:236|273:249,1,84,2|0,2:0|2:0,2:0:0:0:
318,317,107306,2,0,P|357:329|399:325,1,84,0|0,2:0|2:0,2:0:0:0:
470,282,107564,2,0,P|474:261|479:241,1,42,0|0,2:0|2:0,2:0:0:0:
377,146,107737,6,0,P|381:167|386:187,3,42,2|0|0|0,1:2|1:0|1:0|1:0,2:0:0:0:
386,205,108082,2,0,P|381:225|368:240,1,42,0|0,1:0|1:0,2:0:0:0:
278,188,108254,2,0,P|283:167|296:152,1,42,2|2,1:2|1:2,2:0:0:0:
211,96,108426,6,0,P|215:75|220:55,3,42,2|2|2|2,1:2|1:2|1:2|1:2,2:0:0:0:
220,37,108771,2,0,P|215:17|202:2,1,42,2|0,1:2|1:0,2:0:0:0:
112,54,108944,2,0,P|117:75|130:90,1,42,2|0,1:2|1:0,2:0:0:0:
72,186,109116,5,2,1:2:0:0:
92,189,109202,1,0,1:0:0:0:
113,192,109288,1,0,1:0:0:0:
134,196,109375,1,2,1:2:0:0:
154,199,109461,1,0,1:0:0:0:
175,203,109547,1,0,1:0:0:0:
196,206,109633,1,2,1:2:0:0:
217,209,109720,1,0,1:0:0:0:
237,213,109806,6,0,L|249:148,3,42,2|0|0|2,1:2|1:0|1:0|1:2,2:0:0:0:
347,98,110151,2,0,L|359:163,3,42,0|0|2|0,1:0|1:0|1:2|1:0,2:0:0:0:
342,76,110495,6,0,P|299:66|253:68,1,91,4|0,1:2|2:0,2:0:0:0:
245,89,110754,1,2,2:0:0:0:
245,89,110840,1,8,2:0:0:0:
157,12,111013,1,2,2:0:0:0:
57,87,111185,2,0,L|46:177,1,91,2|0,2:0|1:0,2:0:0:0:
53,197,111444,1,2,2:0:0:0:
53,197,111530,1,8,2:0:0:0:
165,220,111702,1,2,2:0:0:0:
179,335,111875,6,0,L|268:321,1,91,2|0,2:0|1:0,2:0:0:0:
298,334,112133,1,2,2:0:0:0:
298,334,112220,1,8,2:0:0:0:
426,351,112392,1,2,2:0:0:0:
439,220,112564,2,0,L|350:206,1,91,2|0,2:0|1:0,2:0:0:0:
320,219,112823,1,2,2:0:0:0:
320,219,112909,1,8,2:0:0:0:
167,241,113082,1,2,2:0:0:0:
132,63,113254,6,0,P|186:77|204:153,1,136.5,2|2,1:2|2:0,2:0:0:0:
197,165,113599,2,0,P|151:162|106:155,1,91,8|2,2:0|2:0,2:0:0:0:
275,64,113944,2,0,P|319:56|365:54,1,91,2|0,2:0|1:0,2:0:0:0:
435,190,114288,2,0,P|391:200|354:176,1,91,8|2,2:0|2:0,2:0:0:0:
473,33,114633,6,0,P|503:65|501:109,1,91,2|0,2:0|1:0,2:0:0:0:
435,190,114978,1,8,2:0:0:0:
365,54,115151,1,2,2:0:0:0:
246,155,115323,2,0,P|215:187|217:231,1,91,2|0,2:0|1:0,2:0:0:0:
234,245,115582,1,2,2:0:0:0:
234,245,115668,1,8,2:0:0:0:
354,176,115840,1,2,2:0:0:0:
492,291,116013,6,0,P|402:304|313:326,1,182,2|8,1:2|2:0,2:0:0:0:
272,215,116530,1,2,2:0:0:0:
254,210,116616,1,2,2:0:0:0:
238,219,116702,1,2,2:0:0:0:
155,304,116875,1,2,1:2:0:0:
137,309,116961,1,2,2:0:0:0:
121,300,117047,1,10,2:0:0:0:
26,203,117220,1,2,2:0:0:0:
134,87,117392,6,0,L|152:188,1,91,2|0,2:0|1:0,2:0:0:0:
142,196,117651,1,2,2:0:0:0:
142,196,117737,1,8,2:0:0:0:
240,102,117909,1,2,2:0:0:0:
313,202,118082,2,0,P|374:190|388:133,1,91,2|0,2:0|1:0,2:0:0:0:
379,145,118340,1,2,2:0:0:0:
379,145,118426,1,8,2:0:0:0:
484,221,118599,1,2,2:0:0:0:
495,53,118771,6,0,P|450:65|323:5,1,182,2|8,1:2|2:0,2:0:0:0:
181,22,119288,1,2,2:0:0:0:
193,34,119375,1,2,2:0:0:0:
196,51,119461,2,0,P|191:73|181:93,1,45.5,2|0,2:0|2:0,2:0:0:0:
275,158,119633,1,0,1:0:0:0:
263,170,119720,1,2,2:0:0:0:
259,187,119806,2,0,P|263:209|273:229,1,45.5,8|0,2:0|2:0,2:0:0:0:
190,325,119978,1,2,2:0:0:0:
12,253,120151,6,0,P|57:249|100:234,1,91,2|0,2:0|1:0,2:0:0:0:
104,215,120409,1,2,2:0:0:0:
104,215,120495,1,8,2:0:0:0:
190,325,120668,1,2,2:0:0:0:
259,187,120840,2,0,P|304:190|347:205,1,91,2|0,2:0|1:0,2:0:0:0:
351,225,121099,1,2,2:0:0:0:
351,225,121185,1,8,2:0:0:0:
437,115,121357,1,2,2:0:0:0:
351,0,121530,6,0,L|329:88,1,91,4|0,1:2|2:0,2:0:0:0:
343,117,121788,1,2,2:0:0:0:
343,117,121875,1,8,2:0:0:0:
247,37,122047,1,2,2:0:0:0:
125,94,122220,2,0,L|103:182,1,91,2|0,2:0|1:0,2:0:0:0:
117,211,122478,1,2,2:0:0:0:
117,211,122564,1,8,2:0:0:0:
21,131,122737,1,2,2:0:0:0:
120,292,122909,6,0,P|164:291|196:260,1,91,2|0,2:0|1:0,2:0:0:0:
192,242,123168,1,2,2:0:0:0:
192,242,123254,1,8,2:0:0:0:
289,329,123426,1,2,2:0:0:0:
310,187,123599,2,0,P|354:187|386:218,1,91,2|0,2:0|1:0,2:0:0:0:
382,236,123857,1,2,2:0:0:0:
382,236,123944,1,8,2:0:0:0:
476,138,124116,1,2,2:0:0:0:
446,282,124288,6,0,P|379:268|311:271,1,136.5,2|2,1:2|2:0,2:0:0:0:
299,281,124633,2,0,P|286:323|304:364,1,91,8|2,2:0|2:0,2:0:0:0:
122,263,124978,2,0,P|153:231|198:228,1,91,2|0,2:0|1:0,2:0:0:0:
212,117,125323,2,0,P|194:77|154:58,1,91,8|2,2:0|2:0,2:0:0:0:
21,111,125668,6,0,P|29:155|34:200,1,91,2|0,2:0|1:0,2:0:0:0:
17,328,126013,1,8,2:0:0:0:
122,263,126185,1,2,2:0:0:0:
275,369,126357,2,0,P|230:364|204:328,1,91,2|0,2:0|1:0,2:0:0:0:
213,311,126616,1,2,2:0:0:0:
213,311,126702,1,8,2:0:0:0:
334,274,126875,1,2,2:0:0:0:
345,133,127047,6,0,P|254:142|165:162,1,182,2|8,1:2|2:0,2:0:0:0:
21,214,127564,1,2,2:0:0:0:
19,233,127651,1,2,2:0:0:0:
30,248,127737,1,2,2:0:0:0:
165,161,127909,1,2,1:2:0:0:
167,142,127995,1,2,2:0:0:0:
156,127,128082,1,10,2:0:0:0:
19,56,128254,1,2,2:0:0:0:
167,3,128426,6,0,P|212:8|257:16,1,91,2|0,2:0|1:0,2:0:0:0:
274,45,128685,1,2,2:0:0:0:
274,45,128771,1,8,2:0:0:0:
388,11,128944,1,2,2:0:0:0:
475,129,129116,2,0,P|429:134|384:142,1,91,2|0,2:0|1:0,2:0:0:0:
368,171,129375,1,2,2:0:0:0:
368,171,129461,1,8,2:0:0:0:
254,137,129633,1,2,2:0:0:0:
135,220,129806,6,0,P|216:239|213:323,1,182,2|8,1:2|2:0,2:0:0:0:
86,367,130323,1,2,2:0:0:0:
68,363,130409,1,2,2:0:0:0:
54,348,130495,2,0,P|46:326|46:303,1,45.5,2|0,2:0|2:0,2:0:0:0:
135,220,130668,1,0,1:0:0:0:
153,216,130754,1,2,2:0:0:0:
165,201,130840,2,0,P|176:157|172:111,1,91,8|2,2:0|2:0,2:0:0:0:
29,93,131185,6,0,L|41:160,2,68.2499968757631,2|2|2,2:0|2:0|2:0,2:0:0:0:
172,111,131875,2,0,L|184:43,2,68.2499968757631,2|2|2,2:0|2:0|2:0,2:0:0:0:
293,160,132564,1,2,2:0:0:0:
