osu file format v14

[General]
AudioFilename: audio.mp3
AudioLeadIn: 0
PreviewTime: 87656
Countdown: 0
SampleSet: Soft
StackLeniency: 0.6
Mode: 0
LetterboxInBreaks: 0
WidescreenStoryboard: 1

[Editor]
DistanceSpacing: 1
BeatDivisor: 4
GridSize: 32
TimelineZoom: 1.4

[Metadata]
Title:Take Me Away (Cut Ver.)
TitleUnicode:Take Me Away (Cut Ver.)
Artist:Lexurus
ArtistUnicode:Lexurus
Creator:Strategas
Version:Hard
Source:
Tags:dnb drum and & bass d&b liquicity alchemy 3 electronic english Zer0-
BeatmapID:3220238
BeatmapSetID:1572918

[Difficulty]
HPDrainRate:4
CircleSize:3.4
OverallDifficulty:6
ApproachRate:8
SliderMultiplier:1.9
SliderTickRate:1

[Events]
//Background and Video events
0,0,"malware.exe.jpg",0,0
//Break Periods
//Storyboard Layer 0 (Background)
//Storyboard Layer 1 (Fail)
//Storyboard Layer 2 (Pass)
//Storyboard Layer 3 (Foreground)
//Storyboard Layer 4 (Overlay)
//Storyboard Sound Samples

[TimingPoints]
22220,344.827586206897,4,2,25,60,1,0
22220,-153.846153846154,4,2,25,60,0,0
24676,-153.846153846154,4,2,25,45,0,0
24978,-153.846153846154,4,2,25,60,0,0
26056,-153.846153846154,4,2,25,45,0,0
26357,-153.846153846154,4,2,25,60,0,0
35711,-153.846153846154,4,2,25,45,0,0
36013,-153.846153846154,4,2,25,60,0,0
36745,-153.846153846154,4,2,25,5,0,0
36788,-153.846153846154,4,2,25,60,0,0
37090,-153.846153846154,4,2,25,45,0,0
37392,-153.846153846154,4,2,25,60,0,0
46745,-153.846153846154,4,2,25,45,0,0
47047,-153.846153846154,4,2,25,60,0,0
48125,-153.846153846154,4,2,25,45,0,0
48426,-153.846153846154,4,2,25,60,0,0
52263,-153.846153846154,4,2,25,45,0,0
52564,-153.846153846154,4,2,25,60,0,0
53642,-153.846153846154,4,2,25,45,0,0
53944,-153.846153846154,4,2,25,60,0,0
55323,-125,4,2,25,65,0,0
56616,-125,4,2,25,5,0,0
56702,-125,4,2,25,65,0,0
57780,-125,4,2,25,50,0,0
58082,-125,4,2,25,65,0,0
59159,-125,4,2,25,50,0,0
59461,-125,4,2,25,65,0,0
60840,-111.111111111111,4,2,25,70,0,0
65668,-111.111111111111,4,2,25,50,0,0
66013,-1000,4,2,25,70,0,0
66357,-97.0873786407767,4,2,25,75,0,0
69375,-97.0873786407767,4,2,25,40,0,0
69461,-97.0873786407767,4,2,25,75,0,0
74892,-97.0873786407767,4,2,25,40,0,0
74978,-97.0873786407767,4,2,25,75,0,0
80409,-97.0873786407767,4,2,25,40,0,0
80495,-97.0873786407767,4,2,25,75,0,0
85926,-97.0873786407767,4,2,25,40,0,0
86013,-97.0873786407767,4,2,25,75,0,0
91099,-97.0873786407767,4,2,25,40,0,0
91185,-97.0873786407767,4,2,25,75,0,0
91444,-97.0873786407767,4,2,25,40,0,0
91530,-97.0873786407767,4,2,25,75,0,0
93340,-97.0873786407767,4,2,25,40,0,0
93426,-97.0873786407767,4,2,25,75,0,0
93513,-97.0873786407767,4,2,25,40,0,0
93599,-97.0873786407767,4,2,25,75,0,0
93685,-97.0873786407767,4,2,25,40,0,0
93771,-97.0873786407767,4,2,25,75,0,0
96961,-97.0873786407767,4,2,25,40,0,0
97047,-97.0873786407767,4,2,25,75,0,0
98857,-97.0873786407767,4,2,25,40,0,0
98944,-97.0873786407767,4,2,25,75,0,0
99030,-97.0873786407767,4,2,25,40,0,0
99116,-97.0873786407767,4,2,25,75,0,0
99202,-97.0873786407767,4,2,25,40,0,0
99288,-97.0873786407767,4,2,25,75,0,0
102133,-97.0873786407767,4,2,25,40,0,0
102220,-97.0873786407767,4,2,25,75,0,0
102478,-97.0873786407767,4,2,25,40,0,0
102564,-97.0873786407767,4,2,25,75,0,0
104375,-97.0873786407767,4,2,25,40,0,0
104461,-97.0873786407767,4,2,25,75,0,0
104547,-97.0873786407767,4,2,25,40,0,0
104633,-97.0873786407767,4,2,25,75,0,0
104720,-97.0873786407767,4,2,25,40,0,0
104806,-97.0873786407767,4,2,25,75,0,0
104978,-133.333333333333,4,2,25,60,0,0
108426,-133.333333333333,4,2,25,65,0,0
109116,-133.333333333333,4,2,25,70,0,0
109806,-133.333333333333,4,2,25,75,0,0
110495,-90.9090909090909,4,2,25,80,0,1
131185,-200,4,2,25,60,0,0

[Colours]
Combo1 : 105,117,146
Combo2 : 66,91,168

[HitObjects]
99,106,22220,6,0,B|234:148|210:73|341:108,1,246.999988693238,4|2,0:0|0:0,0:0:0:0:
341,108,23599,1,0,0:0:0:0:
341,108,24288,1,0,0:0:0:0:
469,223,24633,2,0,B|478:254|478:254|473:285,1,61.7499971733095,2|0,0:0|0:0,0:0:0:0:
401,326,24978,6,0,B|266:284|290:359|159:324,1,246.999988693238,2|2,0:0|0:0,0:0:0:0:
70,254,26013,2,0,B|61:223|61:223|66:192,1,61.7499971733095,2|0,0:0|0:0,0:0:0:0:
121,130,26357,2,0,B|256:88|232:163|363:128,1,246.999988693238,0|2,0:0|0:0,0:0:0:0:
437,180,27220,1,2,0:0:0:0:
437,180,27392,2,0,L|435:246,1,61.7499971733095,2|2,0:0|0:0,0:0:0:0:
435,241,27651,1,2,0:0:0:0:
435,241,27737,5,2,0:0:0:0:
251,318,28254,2,0,L|203:314,2,30.8749985866547,2|2|2,0:0|0:0|0:0,0:0:0:0:
317,267,28599,2,0,L|365:271,2,30.8749985866547,2|2|2,0:0|0:0|0:0,0:0:0:0:
294,70,29116,1,0,0:0:0:0:
220,315,29806,1,0,0:0:0:0:
294,70,30495,5,0,0:0:0:0:
49,144,31185,1,0,0:0:0:0:
294,70,31875,1,0,0:0:0:0:
220,319,32564,1,2,0:0:0:0:
207,235,32737,1,2,0:0:0:0:
194,151,32909,2,0,L|187:90,1,61.7499971733095,2|2,0:0|0:0,0:0:0:0:
190,93,33168,1,2,0:0:0:0:
194,97,33254,6,0,B|329:55|305:130|436:95,1,246.999988693238,2|2,0:0|0:0,0:0:0:0:
496,153,34116,2,0,L|492:201,2,30.8749985866547,2|2|2,0:0|0:0|0:0,0:0:0:0:
480,351,34633,1,0,0:0:0:0:
480,351,35323,1,0,0:0:0:0:
328,269,35668,2,0,B|298:264|298:264|267:273,1,61.7499971733095,2|0,0:0|0:0,0:0:0:0:
175,289,36013,6,0,B|217:154|142:178|177:47,1,246.999988693238,2|2,0:0|0:0,0:0:0:0:
261,16,36875,1,2,0:0:0:0:
261,16,36961,1,2,0:0:0:0:
261,16,37047,2,0,B|292:7|292:7|321:11,1,61.7499971733095,2|0,0:0|0:0,0:0:0:0:
402,54,37392,1,0,0:0:0:0:
386,190,38082,2,0,L|325:197,1,61.7499971733095,2|2,0:0|0:0,0:0:0:0:
240,204,38426,2,0,L|179:211,1,61.7499971733095,2|2,0:0|0:0,0:0:0:0:
133,283,38771,6,0,L|114:96,1,185.249991519928,2|2,0:0|0:0,0:0:0:0:
114,98,39375,1,2,0:0:0:0:
114,98,39461,1,2,0:0:0:0:
185,49,39633,2,0,L|189:1,2,30.8749985866547,2|2|2,0:0|0:0|0:0,0:0:0:0:
13,31,40151,1,2,0:0:0:0:
14,349,40840,1,0,0:0:0:0:
332,348,41530,5,0,0:0:0:0:
331,30,42220,1,2,0:0:0:0:
14,349,42909,1,2,0:0:0:0:
13,31,43599,1,0,0:0:0:0:
171,183,44116,1,2,0:0:0:0:
171,183,44202,1,2,0:0:0:0:
171,183,44288,6,0,B|306:225|282:150|413:185,1,246.999988693238,2|2,0:0|0:0,0:0:0:0:
381,267,45151,1,2,0:0:0:0:
381,267,45237,1,2,0:0:0:0:
381,267,45323,2,0,P|348:258|314:270,1,61.7499971733095,2|0,0:0|0:0,0:0:0:0:
255,316,45668,1,0,0:0:0:0:
255,316,46357,1,0,0:0:0:0:
144,221,46702,2,0,B|135:190|135:190|139:160,1,61.7499971733095,2|0,0:0|0:0,0:0:0:0:
168,81,47047,5,2,0:0:0:0:
448,33,47564,2,0,L|496:37,2,30.8749985866547,2|2|2,0:0|0:0|0:0,0:0:0:0:
388,91,47909,1,2,0:0:0:0:
388,91,47995,1,2,0:0:0:0:
388,91,48082,2,0,B|358:86|358:86|327:95,1,61.7499971733095,2|0,0:0|0:0,0:0:0:0:
264,40,48426,1,0,0:0:0:0:
248,344,49116,1,0,0:0:0:0:
256,192,49633,1,2,0:0:0:0:
256,192,49720,1,2,0:0:0:0:
256,192,49806,6,0,L|69:211,1,185.249991519928,2|2,0:0|0:0,0:0:0:0:
71,210,50409,1,2,0:0:0:0:
71,210,50495,1,2,0:0:0:0:
21,146,50668,2,0,L|25:98,2,30.8749985866547,2|2|2,0:0|0:0|0:0,0:0:0:0:
99,20,51185,1,2,0:0:0:0:
413,20,51875,1,0,0:0:0:0:
480,131,52220,2,0,B|484:160|484:160|475:191,1,61.7499971733095,2|0,0:0|0:0,0:0:0:0:
436,266,52564,5,2,0:0:0:0:
436,266,53254,1,0,0:0:0:0:
309,355,53599,2,0,B|279:359|279:359|248:350,1,61.7499971733095,2|0,0:0|0:0,0:0:0:0:
179,305,53944,1,2,0:0:0:0:
179,305,54633,1,0,0:0:0:0:
50,167,55151,1,2,0:0:0:0:
50,167,55237,1,2,0:0:0:0:
50,167,55323,6,0,B|84:144|84:144|196:152,1,152,4|0,1:2|0:0,0:0:0:0:
240,43,55840,2,0,B|206:66|206:66|94:58,1,152,2|2,1:2|0:0,0:0:0:0:
12,51,56357,1,2,1:2:0:0:
194,151,56702,6,0,P|235:212|223:285,1,152,0|0,1:0|0:0,0:0:0:0:
162,368,57220,2,0,P|223:326|296:338,1,152,0|0,1:0|0:0,0:0:0:0:
447,367,57737,2,0,P|411:358|375:368,1,76,2|0,1:2|0:0,0:0:0:0:
329,259,58082,6,0,B|306:225|306:225|314:113,1,152,0|0,1:0|0:0,0:0:0:0:
348,37,58599,2,0,B|371:71|371:71|364:182,1,152,2|2,1:2|0:0,0:0:0:0:
240,114,59116,2,0,B|276:104|276:104|316:115,1,76,2|0,1:2|0:0,0:0:0:0:
329,259,59461,6,0,P|267:300|194:288,1,152,0|0,1:0|0:0,0:0:0:0:
141,361,59978,2,0,P|153:288|112:227,1,152,0|0,1:0|0:0,0:0:0:0:
32,202,60495,1,0,1:0:0:0:
82,105,60668,1,2,0:0:0:0:
82,105,60754,1,2,0:0:0:0:
82,105,60840,5,2,1:2:0:0:
335,65,61185,1,0,1:0:0:0:
372,153,61357,1,2,0:0:0:0:
372,153,61444,1,2,0:0:0:0:
372,153,61530,2,0,L|363:251,1,85.4999973907472,2|2,1:2|0:0,0:0:0:0:
364,238,61788,1,2,0:0:0:0:
364,238,61875,1,2,1:2:0:0:
32,192,62220,5,0,1:0:0:0:
256,32,62564,1,0,1:0:0:0:
256,352,62909,1,0,1:0:0:0:
480,192,63254,1,0,1:0:0:0:
424,19,63599,6,0,P|383:7|334:19,1,85.4999973907472,0|0,1:0|1:0,0:0:0:0:
173,35,63944,2,0,P|214:23|263:35,1,85.4999973907472,0|0,1:0|1:0,0:0:0:0:
315,176,64288,2,0,P|322:134|311:94,1,85.4999973907472,0|0,1:0|1:0,0:0:0:0:
240,212,64633,2,0,P|232:253|244:294,1,85.4999973907472,0|0,1:0|1:0,0:0:0:0:
183,353,64978,6,0,L|85:344,1,85.4999973907472,0|0,1:0|1:0,0:0:0:0:
39,285,65323,2,0,L|48:187,1,85.4999973907472,0|0,1:0|1:0,0:0:0:0:
62,120,65668,1,0,1:0:0:0:
62,120,65840,1,0,1:0:0:0:
16,17,66013,1,8,0:0:0:0:
195,46,66357,6,0,B|271:40|271:40|291:50|291:50|310:39|310:39|391:32,1,195.69999835762,4|8,1:2|0:0,0:0:0:0:
451,85,66875,2,0,L|508:80,2,48.9249995894051,2|2|2,0:0|0:0|0:0,0:0:0:0:
406,158,67220,1,2,1:2:0:0:
406,158,67306,1,2,0:0:0:0:
406,158,67392,2,0,B|412:234|412:234|402:254|402:254|413:273|413:273|420:354,1,195.69999835762,10|2,0:0|0:0,0:0:0:0:
333,318,67909,5,0,1:0:0:0:
253,345,68082,2,0,P|153:366|76:317,1,195.69999835762,8|2,0:0|0:0,0:0:0:0:
34,245,68599,1,0,1:0:0:0:
74,168,68771,2,0,P|122:152|177:164,1,97.8499991788101,8|0,0:0|0:0,0:0:0:0:
223,223,69116,6,0,L|210:22,1,195.69999835762,0|8,1:0|0:0,0:0:0:0:
131,4,69633,1,2,0:0:0:0:
131,4,69720,1,2,0:0:0:0:
131,4,69806,1,2,0:0:0:0:
43,42,69978,1,2,1:2:0:0:
43,42,70064,1,2,0:0:0:0:
43,42,70151,2,0,B|49:118|49:118|39:138|39:138|51:157|51:157|57:232,1,195.69999835762,10|2,0:0|0:0,0:0:0:0:
67,316,70668,5,0,1:0:0:0:
133,263,70840,2,0,B|165:251|165:251|249:265,2,97.8499991788101,8|2|2,0:0|0:0|0:0,0:0:0:0:
176,337,71357,1,0,1:0:0:0:
300,304,71530,2,0,B|312:272|312:272|298:188,1,97.8499991788101,8|2,0:0|0:0,0:0:0:0:
301,209,71788,1,2,0:0:0:0:
301,209,71875,5,2,1:2:0:0:
465,44,72220,2,0,P|480:89|473:137,1,97.8499991788101,8|2,0:0|0:0,0:0:0:0:
473,137,72478,1,2,0:0:0:0:
473,137,72564,1,2,0:0:0:0:
426,207,72737,1,2,1:2:0:0:
426,207,72823,1,2,0:0:0:0:
426,207,72909,6,0,P|407:289|495:349,1,195.69999835762,10|2,0:0|0:0,0:0:0:0:
487,265,73426,1,0,1:0:0:0:
401,187,73599,2,0,P|336:178|246:264,1,195.69999835762,8|2,0:0|0:0,0:0:0:0:
248,347,74116,1,0,1:0:0:0:
174,305,74288,2,0,P|130:302|88:331,1,97.8499991788101,8|0,0:0|0:0,0:0:0:0:
21,384,74633,6,0,L|34:183,1,195.69999835762,0|8,1:0|0:0,0:0:0:0:
0,123,75151,1,2,0:0:0:0:
0,123,75237,1,2,0:0:0:0:
0,123,75323,2,0,L|5:22,1,97.8499991788101,2|2,0:0|1:2,0:0:0:0:
4,25,75582,1,2,0:0:0:0:
4,25,75668,6,0,B|110:58|91:-1|195:26,1,195.69999835762,10|2,0:0|0:0,0:0:0:0:
147,102,76185,1,0,1:0:0:0:
196,26,76357,2,0,B|302:-7|283:52|387:25,1,195.69999835762,8|2,0:0|0:0,0:0:0:0:
468,0,76875,1,0,1:0:0:0:
429,111,77047,2,0,P|413:158|426:207,1,97.8499991788101,8|2,0:0|0:0,0:0:0:0:
424,203,77306,1,2,0:0:0:0:
424,203,77392,6,0,B|348:209|348:209|328:199|328:199|309:210|309:210|228:217,1,195.69999835762,4|8,1:2|0:0,0:0:0:0:
170,161,77909,2,0,L|165:104,2,48.9249995894051,2|2|2,0:0|0:0|0:0,0:0:0:0:
216,46,78254,1,2,1:2:0:0:
216,46,78340,1,2,0:0:0:0:
216,46,78426,2,0,B|292:40|292:40|312:50|312:50|331:39|331:39|412:32,1,195.69999835762,10|2,0:0|0:0,0:0:0:0:
379,120,78944,5,0,1:0:0:0:
406,200,79116,2,0,P|427:300|378:377,1,195.69999835762,8|2,0:0|0:0,0:0:0:0:
304,340,79633,1,0,1:0:0:0:
221,356,79806,2,0,P|205:308|217:253,1,97.8499991788101,8|0,0:0|0:0,0:0:0:0:
287,225,80151,6,0,L|86:238,1,195.69999835762,0|8,1:0|0:0,0:0:0:0:
53,316,80668,1,2,0:0:0:0:
53,316,80754,1,2,0:0:0:0:
53,316,80840,1,2,0:0:0:0:
14,205,81013,1,2,1:2:0:0:
14,205,81099,1,2,0:0:0:0:
14,205,81185,2,0,B|90:199|90:199|110:209|110:209|129:197|129:197|204:191,1,195.69999835762,10|2,0:0|0:0,0:0:0:0:
299,183,81702,5,0,1:0:0:0:
246,117,81875,2,0,B|234:85|234:85|248:1,2,97.8499991788101,8|2|2,0:0|0:0|0:0,0:0:0:0:
320,74,82392,1,0,1:0:0:0:
237,18,82564,2,0,B|205:6|205:6|121:20,1,97.8499991788101,8|2,0:0|0:0,0:0:0:0:
142,16,82823,1,2,0:0:0:0:
142,16,82909,5,2,1:2:0:0:
6,129,83254,2,0,P|51:97|99:104,1,97.8499991788101,8|2,0:0|0:0,0:0:0:0:
91,100,83513,1,2,0:0:0:0:
91,100,83599,1,2,0:0:0:0:
155,188,83771,1,2,1:2:0:0:
155,188,83857,1,2,0:0:0:0:
155,188,83944,6,0,P|237:207|297:119,1,195.69999835762,10|2,0:0|0:0,0:0:0:0:
336,5,84461,1,0,1:0:0:0:
258,52,84633,2,0,P|249:117|335:207,1,195.69999835762,8|2,0:0|0:0,0:0:0:0:
418,205,85151,1,0,1:0:0:0:
376,279,85323,2,0,P|378:332|410:372,1,97.8499991788101,8|0,0:0|0:0,0:0:0:0:
456,301,85668,6,0,L|255:288,1,195.69999835762,0|8,1:0|0:0,0:0:0:0:
195,337,86185,1,2,0:0:0:0:
195,337,86271,1,2,0:0:0:0:
195,337,86357,2,0,L|94:332,1,97.8499991788101,2|2,0:0|1:2,0:0:0:0:
97,331,86616,1,2,0:0:0:0:
97,331,86702,6,0,B|130:225|71:244|98:140,1,195.69999835762,10|2,0:0|0:0,0:0:0:0:
168,94,87220,1,0,1:0:0:0:
217,170,87392,2,0,B|323:203|304:144|408:171,1,195.69999835762,8|2,0:0|0:0,0:0:0:0:
479,91,87909,1,0,1:0:0:0:
463,97,87995,1,0,1:0:0:0:
446,95,88082,2,0,P|430:48|443:-1,1,97.8499991788101,8|2,0:0|0:0,0:0:0:0:
441,2,88340,1,10,0:0:0:0:
441,2,88426,5,4,1:2:0:0:
251,27,88771,2,0,P|156:17|129:44,1,97.8499991788101,8|2,0:0|0:0,0:0:0:0:
160,14,89030,1,2,0:0:0:0:
160,14,89116,1,2,0:0:0:0:
93,68,89288,1,2,1:2:0:0:
93,68,89375,1,2,0:0:0:0:
93,68,89461,6,0,B|129:105|129:105|118:249,1,195.69999835762,10|2,0:0|0:0,0:0:0:0:
158,323,89978,1,0,1:0:0:0:
239,285,90151,2,0,B|203:248|203:248|214:104,1,195.69999835762,8|2,0:0|0:0,0:0:0:0:
291,69,90668,1,0,1:0:0:0:
368,103,90840,2,0,L|360:209,1,97.8499991788101,8|0,0:0|0:0,0:0:0:0:
426,254,91185,6,0,P|330:235|235:295,1,195.69999835762,0|8,1:0|0:0,0:0:0:0:
204,355,91702,1,2,0:0:0:0:
204,355,91788,1,2,0:0:0:0:
204,355,91875,1,2,0:0:0:0:
131,296,92047,1,2,1:2:0:0:
131,296,92133,1,2,0:0:0:0:
131,296,92220,6,0,B|125:220|125:220|135:200|135:200|123:181|123:181|117:106,1,195.69999835762,10|2,0:0|0:0,0:0:0:0:
70,37,92737,1,0,1:0:0:0:
33,113,92909,2,0,B|39:189|39:189|29:209|29:209|41:228|41:228|47:303,1,195.69999835762,8|2,0:0|0:0,0:0:0:0:
93,372,93426,1,0,1:0:0:0:
177,366,93599,1,8,0:0:0:0:
241,310,93771,1,2,0:0:0:0:
241,310,93857,1,2,0:0:0:0:
241,310,93944,6,0,P|334:290|419:335,1,195.69999835762,2|8,1:2|0:0,0:0:0:0:
488,286,94461,2,0,L|491:236,2,48.9249995894051,2|2|2,0:0|0:0|0:0,0:0:0:0:
427,182,94806,1,2,1:2:0:0:
427,182,94892,1,2,0:0:0:0:
427,182,94978,6,0,P|403:87|452:3,1,195.69999835762,10|2,0:0|0:0,0:0:0:0:
492,79,95495,1,0,1:0:0:0:
375,47,95668,2,0,P|280:23|196:72,1,195.69999835762,8|2,0:0|0:0,0:0:0:0:
239,144,96185,1,0,1:0:0:0:
127,110,96357,2,0,P|79:98|37:122,1,97.8499991788101,8|0,0:0|0:0,0:0:0:0:
0,202,96702,6,0,L|199:216,1,195.69999835762,0|8,1:0|0:0,0:0:0:0:
255,274,97220,2,0,L|252:324,2,48.9249995894051,2|2|2,0:0|0:0|0:0,0:0:0:0:
329,229,97564,1,2,1:2:0:0:
329,229,97651,1,2,0:0:0:0:
329,229,97737,6,0,B|293:192|293:192|304:48,1,195.69999835762,10|2,0:0|0:0,0:0:0:0:
384,24,98254,1,0,1:0:0:0:
466,5,98426,2,0,B|502:42|502:42|491:186,1,195.69999835762,8|2,0:0|0:0,0:0:0:0:
484,269,98944,1,0,1:0:0:0:
479,352,99116,1,8,0:0:0:0:
370,307,99288,1,2,0:0:0:0:
370,307,99375,1,2,0:0:0:0:
370,307,99461,6,0,B|264:274|283:333|179:306,1,195.69999835762,4|8,1:2|0:0,0:0:0:0:
107,255,99978,1,2,0:0:0:0:
107,255,100064,1,2,0:0:0:0:
107,255,100151,2,0,P|95:207|117:162,1,97.8499991788101,2|2,0:0|1:2,0:0:0:0:
122,172,100409,1,2,0:0:0:0:
122,172,100495,6,0,B|159:136|159:136|303:147,1,195.69999835762,10|2,0:0|0:0,0:0:0:0:
346,220,101013,1,0,1:0:0:0:
303,147,101185,2,0,B|340:111|340:111|484:122,1,195.69999835762,8|2,0:0|0:0,0:0:0:0:
512,201,101702,1,0,1:0:0:0:
461,268,101875,2,0,B|444:305|444:305|452:361,1,97.8499991788101,8|0,0:0|0:0,0:0:0:0:
343,384,102220,6,0,P|362:288|302:193,1,195.69999835762,0|8,1:0|0:0,0:0:0:0:
248,157,102737,1,2,0:0:0:0:
248,157,102823,1,2,0:0:0:0:
248,157,102909,1,2,0:0:0:0:
301,89,103082,1,2,1:2:0:0:
301,89,103168,1,2,0:0:0:0:
301,89,103254,6,0,B|377:83|377:83|397:93|397:93|416:81|416:81|491:75,1,195.69999835762,10|2,0:0|0:0,0:0:0:0:
512,156,103771,1,0,1:0:0:0:
500,240,103944,2,0,B|424:246|424:246|404:236|404:236|385:248|385:248|310:254,1,195.69999835762,8|2,0:0|0:0,0:0:0:0:
226,259,104461,1,0,1:0:0:0:
142,262,104633,1,8,0:0:0:0:
81,203,104806,2,0,L|80:150,2,48.9249995894051,2|2|2,0:0|0:0|0:2,0:0:0:0:
213,43,105495,6,0,L|265:40,2,35.625001358986,2|2|2,0:0|0:0|0:0,0:0:0:0:
296,38,105840,2,0,L|348:35,2,35.625001358986,2|2|2,0:0|0:0|0:0,0:0:0:0:
472,35,106357,5,2,0:0:0:0:
256,288,107047,1,2,0:0:0:0:
40,35,107737,6,0,L|36:81,15,35.625001358986,2|0|0|0|0|0|2|2|2|2|2|2|2|0|2|0,1:2|1:0|1:0|1:0|1:0|1:0|1:2|1:2|1:2|1:2|1:2|1:2|1:2|1:0|1:2|1:0,0:0:0:0:
85,139,109116,6,0,L|89:185,7,35.625001358986,2|0|0|2|0|0|2|0,1:2|1:0|1:0|1:2|1:0|1:0|1:2|1:0,0:0:0:0:
35,240,109806,2,0,L|31:286,7,35.625001358986,2|0|0|2|0|0|2|0,1:2|1:0|1:0|1:2|1:0|1:0|1:2|1:0,0:0:0:0:
99,337,110495,6,0,B|170:302|170:302|244:336,1,156.750004783631,4|2,1:2|0:0,0:0:0:0:
254,338,110840,2,0,L|361:334,1,104.500003189087,8|2,0:0|0:0,0:0:0:0:
423,280,111185,2,0,L|419:173,1,104.500003189087,2|0,0:0|1:0,0:0:0:0:
419,175,111444,1,2,0:0:0:0:
419,175,111530,1,8,0:0:0:0:
483,118,111702,6,0,B|464:69|464:69|479:11,2,104.500003189087,2|2|0,0:0|0:0|1:0,0:0:0:0:
483,118,112133,1,2,0:0:0:0:
483,118,112220,1,8,0:0:0:0:
381,71,112392,1,2,0:0:0:0:
303,100,112564,2,0,B|289:150|289:150|308:199,1,104.500003189087,2|0,0:0|1:0,0:0:0:0:
308,199,112823,1,2,0:0:0:0:
308,199,112909,1,8,0:0:0:0:
271,278,113082,1,2,0:0:0:0:
197,237,113254,6,0,P|120:230|54:279,1,156.750004783631,2|2,1:2|0:0,0:0:0:0:
47,290,113599,2,0,B|11:176|74:196|45:85,2,209.000006378174,8|2|8,0:0|0:0|0:0,0:0:0:0:
106,349,114461,1,2,0:0:0:0:
192,325,114633,6,0,P|245:321|303:349,1,104.500003189087,2|0,0:0|1:0,0:0:0:0:
291,340,114892,1,2,0:0:0:0:
291,340,114978,2,0,P|344:344|402:316,2,104.500003189087,8|2|2,0:0|0:0|0:0,0:0:0:0:
273,235,115495,1,0,1:0:0:0:
273,235,115582,1,2,0:0:0:0:
273,235,115668,2,0,P|253:186|258:135,1,104.500003189087,8|2,0:0|0:0,0:0:0:0:
219,59,116013,6,0,P|139:63|81:135,1,156.750004783631,2|2,1:2|0:0,0:0:0:0:
98,129,116357,2,0,B|108:180|108:180|96:239,1,104.500003189087,8|2,0:0|0:0,0:0:0:0:
47,298,116702,2,0,B|98:288|98:288|149:298,1,104.500003189087,2|0,0:0|1:0,0:0:0:0:
149,298,116961,1,2,0:0:0:0:
149,298,117047,1,8,0:0:0:0:
223,355,117220,6,0,B|274:365|274:365|325:355,2,104.500003189087,2|2|0,0:0|0:0|1:0,0:0:0:0:
316,271,117737,2,0,B|373:261|373:261|424:271,1,104.500003189087,8|2,0:0|0:0,0:0:0:0:
495,329,118082,2,0,B|485:278|485:278|495:227,1,104.500003189087,2|0,0:0|1:0,0:0:0:0:
495,226,118340,1,2,0:0:0:0:
495,226,118426,2,0,B|505:175|505:175|495:124,1,104.500003189087,8|2,0:0|0:0,0:0:0:0:
424,69,118771,6,0,P|319:54|239:113,1,209.000006378174,2|8,1:2|0:0,0:0:0:0:
207,189,119288,1,2,0:0:0:0:
132,151,119461,2,0,P|58:140|2:181,1,104.500003189087,2|0,0:0|1:0,0:0:0:0:
32,151,119720,1,2,0:0:0:0:
32,151,119806,1,8,0:0:0:0:
7,239,119978,1,2,0:0:0:0:
79,283,120151,6,0,P|89:356|48:412,1,104.500003189087,2|0,0:0|1:0,0:0:0:0:
148,333,120495,2,0,P|221:322|277:363,1,104.500003189087,8|2,0:0|0:0,0:0:0:0:
314,384,120840,2,0,P|303:310|344:254,1,104.500003189087,2|0,0:0|1:0,0:0:0:0:
313,284,121099,1,2,0:0:0:0:
313,284,121185,1,8,0:0:0:0:
366,218,121357,1,2,0:0:0:0:
321,120,121530,6,0,B|250:85|250:85|176:119,1,156.750004783631,4|2,1:2|0:0,0:0:0:0:
166,121,121875,2,0,L|59:117,1,104.500003189087,8|2,0:0|0:0,0:0:0:0:
0,201,122220,2,0,L|107:205,1,104.500003189087,2|0,0:0|1:0,0:0:0:0:
104,204,122478,1,2,0:0:0:0:
104,204,122564,1,8,0:0:0:0:
191,311,122737,6,0,B|142:292|142:292|84:307,2,104.500003189087,2|2|0,0:0|0:0|1:0,0:0:0:0:
191,311,123168,1,2,0:0:0:0:
191,311,123254,1,8,0:0:0:0:
307,324,123426,1,2,0:0:0:0:
353,249,123599,2,0,B|303:235|303:235|254:254,1,104.500003189087,2|0,0:0|1:0,0:0:0:0:
250,250,123857,1,2,0:0:0:0:
246,246,123944,1,8,0:0:0:0:
166,216,124116,1,2,0:0:0:0:
231,163,124288,6,0,P|238:86|189:20,1,156.750004783631,2|2,1:2|0:0,0:0:0:0:
178,30,124633,2,0,B|292:-23|272:40|383:11,2,209.000006378174,8|2|8,0:0|0:0|0:0,0:0:0:0:
97,12,125495,1,2,0:0:0:0:
121,98,125668,6,0,P|125:151|97:209,1,104.500003189087,2|0,0:0|1:0,0:0:0:0:
106,197,125926,1,2,0:0:0:0:
106,197,126013,2,0,P|102:250|130:308,2,104.500003189087,8|2|2,0:0|0:0|0:0,0:0:0:0:
198,201,126530,1,0,1:0:0:0:
198,201,126616,1,2,0:0:0:0:
198,201,126702,2,0,P|247:181|298:186,1,104.500003189087,8|2,0:0|0:0,0:0:0:0:
377,212,127047,6,0,P|373:132|301:74,1,156.750004783631,2|2,1:2|0:0,0:0:0:0:
307,91,127392,2,0,B|256:101|256:101|197:89,1,104.500003189087,8|2,0:0|0:0,0:0:0:0:
141,36,127737,2,0,B|151:70|151:70|141:121,1,104.500003189087,2|0,0:0|1:0,0:0:0:0:
137,137,127995,1,2,0:0:0:0:
137,137,128082,1,8,0:0:0:0:
60,181,128254,6,0,B|50:232|50:232|60:283,2,104.500003189087,2|2|0,0:0|0:0|1:0,0:0:0:0:
144,274,128771,2,0,B|154:331|154:331|144:382,1,104.500003189087,8|2,0:0|0:0,0:0:0:0:
220,333,129116,2,0,B|271:323|271:323|322:333,1,104.500003189087,2|0,0:0|1:0,0:0:0:0:
323,333,129375,1,2,0:0:0:0:
323,333,129461,2,0,B|374:343|374:343|425:333,1,104.500003189087,8|2,0:0|0:0,0:0:0:0:
502,367,129806,6,0,P|517:262|458:182,1,209.000006378174,2|8,1:2|0:0,0:0:0:0:
377,167,130323,1,2,0:0:0:0:
429,104,130495,2,0,P|439:31|398:-25,1,104.500003189087,2|0,0:0|1:0,0:0:0:0:
427,4,130754,1,2,0:0:0:0:
427,4,130840,1,8,0:0:0:0:
345,16,131013,1,2,0:0:0:0:
262,10,131185,6,0,B|247:33|247:33|250:82,2,71.25,2|2|2,0:0|0:0|0:0,0:0:0:0:
163,30,131875,2,0,B|165:73|165:73|150:96,2,71.25,2|2|2,0:0|0:0|0:0,0:0:0:0:
81,52,132564,1,2,0:0:0:0:
