osu file format v14

[General]
AudioFilename: audio.mp3
AudioLeadIn: 0
PreviewTime: 87656
Countdown: 0
SampleSet: Soft
StackLeniency: 0.6
Mode: 0
LetterboxInBreaks: 0
WidescreenStoryboard: 1

[Editor]
DistanceSpacing: 1
BeatDivisor: 4
GridSize: 32
TimelineZoom: 1.4

[Metadata]
Title:Take Me Away (Cut Ver.)
TitleUnicode:Take Me Away (Cut Ver.)
Artist:Lexurus
ArtistUnicode:Lexurus
Creator:Strategas
Version:Easy
Source:
Tags:dnb drum and & bass d&b liquicity alchemy 3 electronic english Zer0-
BeatmapID:3248482
BeatmapSetID:1572918

[Difficulty]
HPDrainRate:0.5
CircleSize:3
OverallDifficulty:1
ApproachRate:4
SliderMultiplier:0.8
SliderTickRate:1

[Events]
//Background and Video events
0,0,"malware.exe.jpg",0,0
//Break Periods
//Storyboard Layer 0 (Background)
//Storyboard Layer 1 (Fail)
//Storyboard Layer 2 (Pass)
//Storyboard Layer 3 (Foreground)
//Storyboard Layer 4 (Overlay)
//Storyboard Sound Samples

[TimingPoints]
22220,344.827586206897,4,2,25,60,1,0
22220,-153.846153846154,4,2,25,60,0,0
24676,-153.846153846154,4,2,25,45,0,0
24978,-153.846153846154,4,2,25,60,0,0
26056,-153.846153846154,4,2,25,45,0,0
26357,-153.846153846154,4,2,25,60,0,0
35711,-153.846153846154,4,2,25,45,0,0
36013,-153.846153846154,4,2,25,60,0,0
36745,-153.846153846154,4,2,25,5,0,0
36788,-153.846153846154,4,2,25,60,0,0
37090,-153.846153846154,4,2,25,45,0,0
37392,-153.846153846154,4,2,25,60,0,0
46745,-153.846153846154,4,2,25,45,0,0
47047,-153.846153846154,4,2,25,60,0,0
48125,-153.846153846154,4,2,25,45,0,0
48426,-153.846153846154,4,2,25,60,0,0
52263,-153.846153846154,4,2,25,45,0,0
52564,-153.846153846154,4,2,25,60,0,0
53642,-153.846153846154,4,2,25,45,0,0
53944,-153.846153846154,4,2,25,60,0,0
55323,-125,4,2,25,65,0,0
56616,-125,4,2,25,5,0,0
56702,-125,4,2,25,65,0,0
57780,-125,4,2,25,50,0,0
58082,-125,4,2,25,65,0,0
59159,-125,4,2,25,50,0,0
59461,-125,4,2,25,65,0,0
60840,-111.111111111111,4,2,25,70,0,0
65668,-111.111111111111,4,2,25,50,0,0
66013,-111.111111111111,4,2,25,70,0,0
66357,-97.0873786407767,4,2,25,75,0,0
69375,-97.0873786407767,4,2,25,40,0,0
69461,-97.0873786407767,4,2,25,75,0,0
74892,-97.0873786407767,4,2,25,40,0,0
74978,-97.0873786407767,4,2,25,75,0,0
80409,-97.0873786407767,4,2,25,40,0,0
80495,-97.0873786407767,4,2,25,75,0,0
85926,-97.0873786407767,4,2,25,40,0,0
86013,-97.0873786407767,4,2,25,75,0,0
91099,-97.0873786407767,4,2,25,40,0,0
91185,-97.0873786407767,4,2,25,75,0,0
91444,-97.0873786407767,4,2,25,40,0,0
91530,-97.0873786407767,4,2,25,75,0,0
93340,-97.0873786407767,4,2,25,40,0,0
93426,-97.0873786407767,4,2,25,75,0,0
93513,-97.0873786407767,4,2,25,40,0,0
93599,-97.0873786407767,4,2,25,75,0,0
93685,-97.0873786407767,4,2,25,40,0,0
93771,-97.0873786407767,4,2,25,75,0,0
96961,-97.0873786407767,4,2,25,40,0,0
97047,-97.0873786407767,4,2,25,75,0,0
98857,-97.0873786407767,4,2,25,40,0,0
98944,-97.0873786407767,4,2,25,75,0,0
99030,-97.0873786407767,4,2,25,40,0,0
99116,-97.0873786407767,4,2,25,75,0,0
99202,-97.0873786407767,4,2,25,40,0,0
99288,-97.0873786407767,4,2,25,75,0,0
102133,-97.0873786407767,4,2,25,40,0,0
102220,-97.0873786407767,4,2,25,75,0,0
102478,-97.0873786407767,4,2,25,40,0,0
102564,-97.0873786407767,4,2,25,75,0,0
104375,-97.0873786407767,4,2,25,40,0,0
104461,-97.0873786407767,4,2,25,75,0,0
104547,-97.0873786407767,4,2,25,40,0,0
104633,-97.0873786407767,4,2,25,75,0,0
104720,-97.0873786407767,4,2,25,40,0,0
104806,-97.0873786407767,4,2,25,75,0,0
104978,-133.333333333333,4,2,25,60,0,0
108426,-133.333333333333,4,2,25,65,0,0
109116,-133.333333333333,4,2,25,70,0,0
109806,-133.333333333333,4,2,25,75,0,0
110495,-90.9090909090909,4,2,25,80,0,1
131185,-200,4,2,25,60,0,0

[Colours]
Combo1 : 105,117,146
Combo2 : 66,91,168

[HitObjects]
157,152,22220,6,0,P|285:172|156:244,1,363.999983337403,4|2,0:0|0:0,0:0:0:0:
93,203,24978,1,2,0:0:0:0:
59,26,26013,1,2,0:0:0:0:
59,26,26357,1,0,0:0:0:0:
24,146,27047,1,2,0:0:0:0:
56,268,27737,6,0,B|107:275|107:275|159:260,1,103.999995239258,2|2,0:0|0:0,0:0:0:0:
243,201,29116,2,0,B|293:186|293:186|344:193,1,103.999995239258,0|0,0:0|0:0,0:0:0:0:
444,166,30495,2,0,B|451:115|451:115|436:63,1,103.999995239258,0|0,0:0|0:0,0:0:0:0:
337,31,31875,2,0,B|286:38|286:38|234:23,1,103.999995239258,0|2,0:0|0:0,0:0:0:0:
132,14,33254,6,0,B|72:210|186:164|130:373,1,363.999983337403,2|2,0:0|0:0,0:0:0:0:
50,372,36013,1,2,0:0:0:0:
42,244,36702,2,0,P|38:214|46:189,2,51.999997619629,2|2|0,0:0|0:0|0:0,0:0:0:0:
331,185,38771,5,2,0:0:0:0:
337,60,39461,1,2,0:0:0:0:
212,54,40151,1,2,0:0:0:0:
206,179,40840,1,0,0:0:0:0:
81,173,41530,1,0,0:0:0:0:
89,44,42220,1,2,0:0:0:0:
212,54,42909,1,2,0:0:0:0:
206,179,43599,1,0,0:0:0:0:
200,304,44288,6,0,P|243:325|300:320,1,103.999995239258,2|2,0:0|0:0,0:0:0:0:
335,201,45668,2,0,P|292:180|235:185,1,103.999995239258,0|0,0:0|0:0,0:0:0:0:
162,211,46702,1,2,0:0:0:0:
87,241,47047,2,0,P|66:198|71:141,1,103.999995239258,2|2,0:0|0:0,0:0:0:0:
139,97,48082,1,2,0:0:0:0:
220,86,48426,2,0,P|241:129|236:186,1,103.999995239258,0|0,0:0|0:0,0:0:0:0:
185,331,49806,6,0,L|76:337,2,103.999995239258,2|2|2,0:0|0:0|0:0,0:0:0:0:
304,274,51875,2,0,L|358:271,2,51.999997619629,0|2|2,0:0|0:0|0:0,0:0:0:0:
194,216,53254,2,0,L|139:219,2,51.999997619629,0|2|2,0:0|0:0|0:0,0:0:0:0:
299,165,54633,1,0,0:0:0:0:
465,196,55323,6,0,P|478:144|471:89,2,96,4|2|2,1:2|1:2|1:2,0:0:0:0:
389,229,56702,2,0,P|376:281|383:336,2,96,0|0|2,1:0|1:0|1:2,0:0:0:0:
354,153,58082,1,0,1:0:0:0:
230,140,58599,1,2,1:2:0:0:
106,127,59116,1,2,1:2:0:0:
41,179,59461,2,0,P|28:231|35:286,2,96,0|0|0,1:0|1:0|1:0,0:0:0:0:
0,103,60840,5,2,1:2:0:0:
59,39,61185,1,0,1:0:0:0:
112,106,61530,1,2,1:2:0:0:
171,42,61875,1,2,1:2:0:0:
227,107,62220,2,0,P|256:113|309:106,1,71.9999978027344,0|0,1:0|1:0,0:0:0:0:
361,51,62909,2,0,P|396:47|431:53,1,71.9999978027344,0|0,1:0|1:0,0:0:0:0:
454,137,63599,6,0,L|533:127,2,71.9999978027344,0|0|0,1:0|1:0|1:0,0:0:0:0:
385,190,64633,1,0,1:0:0:0:
317,244,64978,2,0,L|238:254,2,71.9999978027344,0|0|0,1:0|1:0|1:0,0:0:0:0:
384,298,66013,1,8,0:0:0:0:
474,291,66357,6,0,P|481:328|479:390,2,82.3999993084717,4|8|2,1:2|0:0|0:0,0:0:0:0:
423,215,67392,1,10,0:0:0:0:
423,33,68082,1,8,0:0:0:0:
241,31,68771,1,8,0:0:0:0:
235,121,69116,5,0,1:0:0:0:
231,211,69461,1,8,0:0:0:0:
50,224,70151,2,0,B|55:152|55:152|61:143|61:143|56:132|56:132|61:57,2,164.799998616943,10|8|8,0:0|0:0|0:0,0:0:0:0:
44,314,71875,5,2,1:2:0:0:
121,361,72220,2,0,P|160:351|206:361,1,82.3999993084717,8|2,0:0|0:0,0:0:0:0:
287,331,72909,1,10,0:0:0:0:
351,161,73599,2,0,P|312:151|266:161,1,82.3999993084717,8|2,0:0|0:0,0:0:0:0:
186,131,74288,1,8,0:0:0:0:
169,220,74633,5,0,1:0:0:0:
152,309,74978,1,8,0:0:0:0:
330,339,75668,2,0,B|384:337|384:337|392:339|392:339|429:339|429:339|436:342|436:342|495:340,2,164.799998616943,10|8|8,0:0|0:0|0:0,0:0:0:0:
258,282,77392,6,0,P|221:289|159:287,2,82.3999993084717,4|8|2,1:2|0:0|0:0,0:0:0:0:
343,252,78426,1,10,0:0:0:0:
283,84,79116,1,8,0:0:0:0:
413,200,79806,1,8,0:0:0:0:
323,194,80151,5,0,1:0:0:0:
233,190,80495,1,8,0:0:0:0:
174,20,81185,2,0,B|102:15|102:15|93:9|93:9|82:14|82:14|7:9,2,164.799998616943,10|8|8,0:0|0:0|0:0,0:0:0:0:
264,31,82909,5,2,1:2:0:0:
220,110,83254,2,0,P|210:149|220:195,1,82.3999993084717,8|2,0:0|0:0,0:0:0:0:
247,274,83944,1,10,0:0:0:0:
423,233,84633,2,0,P|433:194|423:148,1,82.3999993084717,8|2,0:0|0:0,0:0:0:0:
397,66,85323,1,8,0:0:0:0:
308,49,85668,5,0,1:0:0:0:
219,32,86013,1,8,0:0:0:0:
116,181,86702,2,0,B|117:235|117:235|115:243|115:243|115:280|115:280|112:287|112:287|114:346,1,164.799998616943,10|8,0:0|0:0,0:0:0:0:
205,341,87737,1,2,0:0:0:0:
295,338,88082,1,8,0:0:0:0:
385,333,88426,6,0,B|393:292|393:292|383:246,1,82.3999993084717,4|8,1:2|0:0,0:0:0:0:
223,168,89461,2,0,B|214:128|214:128|222:87,1,82.3999993084717,10|2,0:0|0:0,0:0:0:0:
286,23,90151,2,0,B|325:14|325:14|366:22,1,82.3999993084717,8|2,0:0|0:0,0:0:0:0:
452,51,90840,1,8,0:0:0:0:
440,141,91185,5,0,1:0:0:0:
459,229,91530,1,8,0:0:0:0:
298,313,92220,2,0,B|226:308|226:308|217:302|217:302|206:307|206:307|131:302,1,164.799998616943,10|8,0:0|0:0,0:0:0:0:
45,298,93254,1,2,0:0:0:0:
41,207,93599,1,8,0:0:0:0:
41,116,93944,6,0,P|80:94|130:90,1,82.3999993084717,2|8,1:2|0:0,0:0:0:0:
297,70,94978,2,0,P|319:109|323:159,1,82.3999993084717,10|2,0:0|0:0,0:0:0:0:
282,226,95668,2,0,P|278:315|343:375,1,164.799998616943,8|8,0:0|0:0,0:0:0:0:
413,343,96702,5,0,1:0:0:0:
443,257,97047,1,8,0:0:0:0:
417,77,97737,2,0,B|363:78|363:78|355:76|355:76|318:76|318:76|311:73|311:73|252:75,1,164.799998616943,10|8,0:0|0:0,0:0:0:0:
162,74,98771,1,2,0:0:0:0:
71,74,99116,1,8,0:0:0:0:
19,148,99461,6,0,B|11:189|11:189|21:235,1,82.3999993084717,4|8,1:2|0:0,0:0:0:0:
197,192,100495,2,0,B|236:183|236:183|277:191,1,82.3999993084717,10|2,0:0|0:0,0:0:0:0:
271,282,101185,2,0,B|231:290|231:290|190:282,1,82.3999993084717,8|2,0:0|0:0,0:0:0:0:
114,232,101875,1,8,0:0:0:0:
108,141,102220,5,0,1:0:0:0:
105,50,102564,1,8,0:0:0:0:
279,99,103254,2,0,B|274:171|274:171|268:180|268:180|273:191|273:191|268:266,1,164.799998616943,10|8,0:0|0:0,0:0:0:0:
213,332,104288,1,2,0:0:0:0:
126,358,104633,1,8,0:0:0:0:
50,315,104978,5,2,0:2:0:0:
256,192,105064,12,2,109116,1:2:0:0:
257,321,110495,5,4,1:2:0:0:
250,233,110840,1,8,0:0:0:0:
243,145,111185,1,2,0:0:0:0:
236,57,111530,1,8,0:0:0:0:
411,73,112220,2,0,B|429:99|429:99|423:167,1,88.000002685547,8|2,0:0|0:0,0:0:0:0:
410,242,112909,1,8,0:0:0:0:
400,329,113254,5,2,1:2:0:0:
324,283,113599,2,0,P|292:275|240:292,2,88.000002685547,8|2|8,0:0|0:0|0:0,0:0:0:0:
292,109,114978,2,0,B|266:91|266:91|198:97,1,88.000002685547,8|2,0:0|0:0,0:0:0:0:
121,96,115668,1,8,0:0:0:0:
57,157,116013,5,2,1:2:0:0:
52,244,116357,1,8,0:0:0:0:
190,353,117047,1,8,0:0:0:0:
337,257,117737,1,8,0:0:0:0:
488,346,118426,1,8,0:0:0:0:
479,258,118771,5,2,1:2:0:0:
474,170,119116,1,8,0:0:0:0:
345,55,119806,1,8,0:0:0:0:
231,183,120495,1,8,0:0:0:0:
359,298,121185,1,8,0:0:0:0:
443,269,121530,6,0,B|442:235|442:235|443:230|443:230|443:208|443:208|445:204|445:204|444:167,1,88.000002685547,4|8,1:2|0:0,0:0:0:0:
293,92,122564,1,8,0:0:0:0:
116,92,123254,2,0,B|98:118|98:118|104:186,1,88.000002685547,8|2,0:0|0:0,0:0:0:0:
117,261,123944,1,8,0:0:0:0:
127,348,124288,5,2,1:2:0:0:
203,302,124633,2,0,P|235:294|287:311,2,88.000002685547,8|2|8,0:0|0:0|0:0,0:0:0:0:
368,241,126013,2,0,B|386:215|386:215|380:147,1,88.000002685547,8|2,0:0|0:0,0:0:0:0:
381,71,126702,1,8,0:0:0:0:
319,7,127047,5,2,1:2:0:0:
232,2,127392,1,8,0:0:0:0:
105,124,128082,1,8,0:0:0:0:
227,251,128771,1,8,0:0:0:0:
354,129,129461,1,8,0:0:0:0:
423,74,129806,6,0,P|456:80|507:109,2,88.000002685547,2|8|2,1:2|0:0|0:0,0:0:0:0:
354,18,130840,1,8,0:0:0:0:
284,72,131185,6,0,B|195:99|216:47|121:72,1,160,2|2,0:0|0:0,0:0:0:0:
