osu file format v14

[General]
AudioFilename: audio.mp3
AudioLeadIn: 0
PreviewTime: 87656
Countdown: 0
SampleSet: Soft
StackLeniency: 0.6
Mode: 0
LetterboxInBreaks: 0
WidescreenStoryboard: 0

[Editor]
DistanceSpacing: 1
BeatDivisor: 4
GridSize: 32
TimelineZoom: 1.4

[Metadata]
Title:Take Me Away (Cut Ver.)
TitleUnicode:Take Me Away (Cut Ver.)
Artist:Lexurus
ArtistUnicode:Lexurus
Creator:Strategas
Version:Difficult
Source:
Tags:dnb drum and & bass d&b liquicity alchemy 3 electronic english Zer0-
BeatmapID:3211586
BeatmapSetID:1572918

[Difficulty]
HPDrainRate:6
CircleSize:3.9
OverallDifficulty:10
ApproachRate:9.3
SliderMultiplier:1.9
SliderTickRate:1

[Events]
//Background and Video events
0,0,"malware.exe.jpg",0,0
//Break Periods
//Storyboard Layer 0 (Background)
//Storyboard Layer 1 (Fail)
//Storyboard Layer 2 (Pass)
//Storyboard Layer 3 (Foreground)
//Storyboard Layer 4 (Overlay)
//Storyboard Sound Samples

[TimingPoints]
22220,344.827586206897,4,2,25,60,1,0
22220,-153.846153846154,4,2,25,60,0,0
24676,-153.846153846154,4,2,25,5,0,0
24978,-153.846153846154,4,2,25,60,0,0
26056,-153.846153846154,4,2,25,5,0,0
26357,-153.846153846154,4,2,25,60,0,0
35711,-153.846153846154,4,2,25,5,0,0
36013,-153.846153846154,4,2,25,60,0,0
36745,-153.846153846154,4,2,25,5,0,0
36788,-153.846153846154,4,2,25,60,0,0
37090,-153.846153846154,4,2,25,5,0,0
37392,-153.846153846154,4,2,25,60,0,0
46745,-153.846153846154,4,2,25,5,0,0
47047,-153.846153846154,4,2,25,60,0,0
48125,-153.846153846154,4,2,25,5,0,0
48426,-153.846153846154,4,2,25,60,0,0
52263,-153.846153846154,4,2,25,5,0,0
52564,-153.846153846154,4,2,25,60,0,0
53642,-153.846153846154,4,2,25,5,0,0
53944,-153.846153846154,4,2,25,60,0,0
55323,-125,4,2,25,65,0,0
56616,-125,4,2,25,5,0,0
56702,-125,4,2,25,65,0,0
57780,-125,4,2,25,5,0,0
58082,-125,4,2,25,65,0,0
59159,-125,4,2,25,5,0,0
59461,-125,4,2,25,65,0,0
60840,-111.111111111111,4,2,25,70,0,0
65668,-111.111111111111,4,2,25,50,0,0
66013,-1000,4,2,25,70,0,0
66357,-97.0873786407767,4,2,25,75,0,0
69375,-97.0873786407767,4,2,25,40,0,0
69461,-97.0873786407767,4,2,25,75,0,0
74892,-97.0873786407767,4,2,25,40,0,0
74978,-97.0873786407767,4,2,25,75,0,0
80409,-97.0873786407767,4,2,25,40,0,0
80495,-97.0873786407767,4,2,25,75,0,0
85926,-97.0873786407767,4,2,25,40,0,0
86013,-97.0873786407767,4,2,25,75,0,0
91099,-97.0873786407767,4,2,25,40,0,0
91185,-97.0873786407767,4,2,25,75,0,0
91444,-97.0873786407767,4,2,25,40,0,0
91530,-97.0873786407767,4,2,25,75,0,0
93340,-97.0873786407767,4,2,25,40,0,0
93426,-97.0873786407767,4,2,25,75,0,0
93513,-97.0873786407767,4,2,25,40,0,0
93599,-97.0873786407767,4,2,25,75,0,0
93685,-97.0873786407767,4,2,25,40,0,0
93771,-97.0873786407767,4,2,25,75,0,0
96961,-97.0873786407767,4,2,25,40,0,0
97047,-97.0873786407767,4,2,25,75,0,0
98857,-97.0873786407767,4,2,25,40,0,0
98944,-97.0873786407767,4,2,25,75,0,0
99030,-97.0873786407767,4,2,25,40,0,0
99116,-97.0873786407767,4,2,25,75,0,0
99202,-97.0873786407767,4,2,25,40,0,0
99288,-97.0873786407767,4,2,25,75,0,0
102133,-97.0873786407767,4,2,25,40,0,0
102220,-97.0873786407767,4,2,25,75,0,0
102478,-97.0873786407767,4,2,25,40,0,0
102564,-97.0873786407767,4,2,25,75,0,0
104375,-97.0873786407767,4,2,25,40,0,0
104461,-97.0873786407767,4,2,25,75,0,0
104547,-97.0873786407767,4,2,25,40,0,0
104633,-97.0873786407767,4,2,25,75,0,0
104720,-97.0873786407767,4,2,25,40,0,0
104806,-97.0873786407767,4,2,25,75,0,0
104978,-133.333333333333,4,2,25,60,0,0
108426,-133.333333333333,4,2,25,65,0,0
109116,-133.333333333333,4,2,25,70,0,0
109806,-133.333333333333,4,2,25,75,0,0
110495,-71.4285714285714,4,2,25,80,0,1
131185,-200,4,2,25,60,0,0

[Colours]
Combo1 : 105,117,146
Combo2 : 66,91,168

[HitObjects]
203,135,22220,6,0,P|281:97|353:158,1,185.249991519928,4|2,0:0|0:0,0:0:0:0:
344,166,22823,1,2,0:0:0:0:
328,166,22909,1,2,0:0:0:0:
320,152,22995,1,2,0:0:0:0:
328,139,23082,1,2,0:0:0:0:
344,139,23168,1,2,0:0:0:0:
351,152,23254,1,2,0:0:0:0:
334,270,23599,5,0,0:0:0:0:
334,270,24288,1,0,0:0:0:0:
236,262,24633,2,0,L|252:264,1,15.4374992933274,2|0,0:0|0:0,0:0:0:0:
74,315,24978,5,2,0:0:0:0:
74,315,25495,1,2,0:0:0:0:
96,320,25582,1,2,0:0:0:0:
112,307,25668,1,2,0:0:0:0:
112,285,25754,1,2,0:0:0:0:
96,272,25840,1,2,0:0:0:0:
74,277,25926,1,2,0:0:0:0:
65,296,26013,2,0,L|81:298,1,15.4374992933274,2|0,0:0|0:0,0:0:0:0:
26,123,26357,5,0,0:0:0:0:
26,123,27047,1,2,0:0:0:0:
108,118,27220,1,2,0:0:0:0:
190,113,27392,1,2,0:0:0:0:
129,292,27564,1,2,0:0:0:0:
129,292,27651,1,2,0:0:0:0:
129,292,27737,6,0,P|207:330|279:269,1,185.249991519928,2|2,0:0|0:0,0:0:0:0:
270,261,28340,1,2,0:0:0:0:
254,261,28426,1,2,0:0:0:0:
246,275,28513,1,2,0:0:0:0:
254,288,28599,1,2,0:0:0:0:
270,288,28685,1,2,0:0:0:0:
277,275,28771,1,2,0:0:0:0:
457,265,29116,5,0,0:0:0:0:
457,265,29806,1,0,0:0:0:0:
457,265,30495,1,0,0:0:0:0:
457,265,31185,1,0,0:0:0:0:
457,265,31875,1,0,0:0:0:0:
457,265,32564,1,2,0:0:0:0:
462,183,32737,1,2,0:0:0:0:
467,101,32909,1,2,0:0:0:0:
288,162,33082,1,2,0:0:0:0:
288,162,33168,1,2,0:0:0:0:
288,162,33254,6,0,P|250:84|311:12,1,185.249991519928,2|2,0:0|0:0,0:0:0:0:
319,21,33857,1,2,0:0:0:0:
319,37,33944,1,2,0:0:0:0:
305,45,34030,1,2,0:0:0:0:
292,37,34116,1,2,0:0:0:0:
292,21,34202,1,2,0:0:0:0:
305,14,34288,1,2,0:0:0:0:
491,13,34633,5,0,0:0:0:0:
491,13,35323,1,0,0:0:0:0:
479,112,35668,2,0,L|481:96,1,15.4374992933274,2|0,0:0|0:0,0:0:0:0:
503,283,36013,5,2,0:0:0:0:
503,283,36530,1,2,0:0:0:0:
481,278,36616,1,2,0:0:0:0:
465,291,36702,2,0,L|481:293,1,15.4374992933274,2|0,0:0|0:0,0:0:0:0:
465,313,36788,1,2,0:0:0:0:
481,326,36875,1,2,0:0:0:0:
503,321,36961,1,2,0:0:0:0:
512,302,37047,2,0,L|496:300,1,15.4374992933274,2|0,0:0|0:0,0:0:0:0:
317,370,37392,5,0,0:0:0:0:
317,370,38082,1,2,0:0:0:0:
283,294,38254,1,2,0:0:0:0:
235,362,38426,1,2,0:0:0:0:
292,204,38599,1,2,0:0:0:0:
292,204,38685,1,2,0:0:0:0:
292,204,38771,6,0,B|316:103|261:124|289:21,1,185.249991519928,2|2,0:0|0:0,0:0:0:0:
296,8,39375,1,2,0:0:0:0:
312,8,39461,1,2,0:0:0:0:
320,22,39547,1,2,0:0:0:0:
312,35,39633,1,2,0:0:0:0:
296,35,39720,1,2,0:0:0:0:
289,22,39806,1,2,0:0:0:0:
475,61,40151,6,0,B|514:172|444:147|479:279|479:279|495:253,2,246.999988693238,2|0|0,0:0|0:0|0:0,0:0:0:0:
217,173,42047,1,2,0:0:0:0:
221,177,42133,1,2,0:0:0:0:
225,181,42220,1,2,0:0:0:0:
260,230,42306,1,2,0:0:0:0:
224,278,42392,1,2,0:0:0:0:
220,282,42478,1,2,0:0:0:0:
216,286,42564,1,2,0:0:0:0:
160,103,42909,6,0,B|271:64|246:134|378:99|378:99|352:83,1,246.999988693238,2|0,0:0|0:0,0:0:0:0:
225,181,44116,1,2,0:0:0:0:
225,181,44202,1,2,0:0:0:0:
225,181,44288,6,0,B|124:205|145:150|42:178,1,185.249991519928,2|2,0:0|0:0,0:0:0:0:
29,185,44892,1,2,0:0:0:0:
29,201,44978,1,2,0:0:0:0:
43,209,45064,1,2,0:0:0:0:
56,201,45151,1,2,0:0:0:0:
56,185,45237,1,2,0:0:0:0:
43,177,45323,1,2,0:0:0:0:
25,344,45668,5,0,0:0:0:0:
25,344,46357,1,0,0:0:0:0:
123,356,46702,2,0,L|107:354,1,15.4374992933274,2|0,0:0|0:0,0:0:0:0:
313,293,47047,5,2,0:0:0:0:
313,293,47564,1,2,0:0:0:0:
309,289,47651,1,2,0:0:0:0:
305,285,47737,1,2,0:0:0:0:
270,236,47823,1,2,0:0:0:0:
306,188,47909,1,2,0:0:0:0:
310,184,47995,1,2,0:0:0:0:
314,180,48082,2,0,L|330:182,1,15.4374992933274,2|0,0:0|0:0,0:0:0:0:
246,14,48426,5,0,0:0:0:0:
246,14,49116,1,0,0:0:0:0:
253,21,49633,1,2,0:0:0:0:
253,21,49720,1,2,0:0:0:0:
253,21,49806,6,0,B|277:122|222:101|250:204,1,185.249991519928,2|2,0:0|0:0,0:0:0:0:
257,217,50409,1,2,0:0:0:0:
273,217,50495,1,2,0:0:0:0:
281,203,50582,1,2,0:0:0:0:
273,190,50668,1,2,0:0:0:0:
257,190,50754,1,2,0:0:0:0:
249,203,50840,1,2,0:0:0:0:
450,37,51185,6,0,B|339:-2|364:68|232:33|232:33|258:17,1,246.999988693238,2|0,0:0|0:0,0:0:0:0:
394,108,52220,2,0,L|396:124,1,15.4374992933274,2|0,0:0|0:0,0:0:0:0:
282,267,52564,6,0,B|393:306|368:236|500:271|500:271|474:287,1,246.999988693238,2|0,0:0|0:0,0:0:0:0:
340,196,53599,2,0,L|338:180,1,15.4374992933274,2|0,0:0|0:0,0:0:0:0:
97,312,53944,5,2,0:0:0:0:
97,312,54633,1,0,0:0:0:0:
104,319,55151,1,2,0:0:0:0:
104,319,55237,1,2,0:0:0:0:
104,319,55323,6,0,B|159:316|159:316|188:332|188:332|255:328,1,152,4|0,1:2|0:0,0:0:0:0:
436,245,55840,2,0,L|398:247,1,38,2|2,1:2|0:0,0:0:0:0:
325,289,56013,1,2,0:0:0:0:
509,202,56185,1,2,0:0:0:0:
509,202,56271,1,2,0:0:0:0:
509,202,56357,2,0,B|485:174|485:174|491:92,1,114,2|0,1:2|0:0,0:0:0:0:
512,17,56702,6,0,P|440:0|365:23,1,152,0|0,1:0|0:0,0:0:0:0:
152,62,57220,2,0,P|225:44|297:67,1,152,0|0,1:0|0:0,0:0:0:0:
82,20,57737,2,0,L|84:1,1,19,2|0,1:2|0:0,0:0:0:0:
72,27,58082,6,0,L|64:178,1,152,0|0,1:0|0:0,0:0:0:0:
85,326,58599,2,0,L|83:288,1,38,2|2,1:2|0:0,0:0:0:0:
141,229,58771,1,2,0:0:0:0:
141,229,58857,1,2,0:0:0:0:
141,229,58944,1,2,0:0:0:0:
212,236,59030,1,2,0:0:0:0:
283,243,59116,2,0,L|302:245,1,19,2|0,1:2|0:0,0:0:0:0:
302,245,59461,6,0,P|321:172|296:98,1,152,0|0,1:0|0:0,0:0:0:0:
356,309,59978,2,0,P|429:328|503:303,1,152,0|0,1:0|0:0,0:0:0:0:
287,355,60495,2,0,P|252:365|213:352,1,76,0|2,1:0|0:0,0:0:0:0:
89,264,60754,1,2,0:0:0:0:
145,309,60840,6,0,L|149:223,1,85.4999973907472,2|0,1:2|0:0,0:0:0:0:
356,309,61185,2,0,L|360:223,1,85.4999973907472,0|2,1:0|0:0,0:0:0:0:
213,170,61444,1,2,0:0:0:0:
295,173,61530,2,0,L|299:87,1,85.4999973907472,2|2,1:2|0:0,0:0:0:0:
512,90,61788,1,2,0:0:0:0:
429,86,61875,2,0,L|425:172,1,85.4999973907472,2|0,1:2|0:0,0:0:0:0:
152,25,62220,6,0,L|66:21,1,85.4999973907472,0|0,1:0|0:0,0:0:0:0:
144,237,62564,2,0,L|58:233,1,85.4999973907472,0|0,1:0|0:0,0:0:0:0:
299,87,62909,2,0,L|213:83,1,85.4999973907472,0|0,1:0|0:0,0:0:0:0:
291,299,63254,2,0,L|205:295,1,85.4999973907472,0|0,1:0|0:0,0:0:0:0:
430,197,63599,5,0,1:0:0:0:
422,113,63771,1,0,1:0:0:0:
339,121,63944,1,0,1:0:0:0:
347,205,64116,1,0,1:0:0:0:
470,230,64288,5,0,1:0:0:0:
455,72,64461,1,0,1:0:0:0:
299,87,64633,1,0,1:0:0:0:
313,245,64806,1,0,1:0:0:0:
510,263,64978,5,0,1:0:0:0:
486,31,65151,1,0,1:0:0:0:
259,53,65323,1,0,1:0:0:0:
279,285,65495,1,0,1:0:0:0:
430,197,65668,5,0,1:0:0:0:
422,113,65840,1,0,1:0:0:0:
439,295,66013,6,0,P|439:288|438:281,1,14.25,8|0,0:0|0:0,0:0:0:0:
438,281,66357,6,0,B|330:257|348:309|242:285,1,195.69999835762,4|8,1:2|0:0,0:0:0:0:
38,260,66875,1,2,0:0:0:0:
39,252,66961,1,2,0:0:0:0:
40,244,67047,1,2,0:0:0:0:
84,185,67133,1,2,0:0:0:0:
128,126,67220,1,2,1:2:0:0:
129,118,67306,1,2,0:0:0:0:
130,110,67392,6,0,B|238:86|220:138|326:114,1,195.69999835762,10|2,0:0|0:0,0:0:0:0:
512,0,67909,1,0,1:0:0:0:
473,243,68082,2,0,P|424:160|436:65,1,195.69999835762,8|2,0:0|0:0,0:0:0:0:
391,301,68599,1,0,1:0:0:0:
216,267,68771,2,0,P|258:243|306:249,1,97.8499991788101,8|0,0:0|0:0,0:0:0:0:
86,220,69116,6,0,L|92:69,1,146.774998768215,0|0,1:0|0:0,0:0:0:0:
21,3,69461,1,8,0:0:0:0:
184,35,69633,1,2,0:0:0:0:
257,35,69720,1,2,0:0:0:0:
330,35,69806,1,2,0:0:0:0:
331,43,69892,1,2,0:0:0:0:
332,51,69978,1,2,1:2:0:0:
405,51,70064,1,2,0:0:0:0:
478,51,70151,1,10,0:0:0:0:
389,166,70323,5,2,0:0:0:0:
290,156,70495,1,2,0:0:0:0:
488,176,70668,1,0,1:0:0:0:
191,146,70840,1,8,0:0:0:0:
280,255,71013,5,2,0:0:0:0:
290,156,71185,1,2,0:0:0:0:
270,354,71357,1,0,1:0:0:0:
300,57,71530,1,8,0:0:0:0:
190,296,71702,1,2,0:0:0:0:
118,286,71788,1,2,0:0:0:0:
46,276,71875,6,0,B|22:168|74:186|50:80,1,195.69999835762,2|8,1:2|0:0,0:0:0:0:
128,19,72392,1,2,0:0:0:0:
134,25,72478,1,2,0:0:0:0:
140,31,72564,1,2,0:0:0:0:
193,83,72651,1,2,0:0:0:0:
245,30,72737,1,2,1:2:0:0:
251,24,72823,1,2,0:0:0:0:
257,18,72909,6,0,B|365:-6|347:46|453:22,1,195.69999835762,10|2,0:0|0:0,0:0:0:0:
337,177,73426,1,0,1:0:0:0:
512,145,73599,2,0,P|470:121|423:127,2,97.8499991788101,8|0|2,0:0|0:0|0:0,0:0:0:0:
249,223,74116,1,0,1:0:0:0:
483,241,74288,2,0,P|442:264|394:259,1,97.8499991788101,8|0,0:0|0:0,0:0:0:0:
249,223,74633,6,0,L|98:217,1,146.774998768215,0|0,1:0|0:0,0:0:0:0:
32,288,74978,1,8,0:0:0:0:
26,153,75151,1,2,0:0:0:0:
25,145,75237,1,2,0:0:0:0:
24,137,75323,1,2,0:0:0:0:
23,129,75409,1,2,0:0:0:0:
22,121,75495,1,2,1:2:0:0:
105,107,75582,1,2,0:0:0:0:
188,93,75668,6,0,B|261:89|261:89|299:110|299:110|388:104,1,195.69999835762,10|2,0:0|0:0,0:0:0:0:
236,188,76185,1,0,1:0:0:0:
321,8,76357,1,8,0:0:0:0:
288,107,76530,1,2,0:0:0:0:
288,107,76616,1,2,0:0:0:0:
288,107,76702,1,2,0:0:0:0:
477,105,76875,1,0,1:0:0:0:
236,188,77047,1,8,0:0:0:0:
447,358,77220,1,2,0:0:0:0:
505,317,77306,1,2,0:0:0:0:
507,246,77392,6,0,B|399:222|417:274|311:250,1,195.69999835762,4|8,1:2|0:0,0:0:0:0:
221,34,77909,1,2,0:0:0:0:
213,35,77995,1,2,0:0:0:0:
205,36,78082,1,2,0:0:0:0:
146,80,78168,1,2,0:0:0:0:
87,124,78254,1,2,1:2:0:0:
79,125,78340,1,2,0:0:0:0:
71,126,78426,6,0,B|47:234|99:216|75:322,1,195.69999835762,10|2,0:0|0:0,0:0:0:0:
163,177,78944,1,0,1:0:0:0:
337,336,79116,2,0,P|254:384|159:373,1,195.69999835762,8|2,0:0|0:0,0:0:0:0:
429,374,79633,1,0,1:0:0:0:
486,217,79806,2,0,P|510:259|505:307,1,97.8499991788101,8|0,0:0|0:0,0:0:0:0:
425,89,80151,6,0,L|274:83,1,146.774998768215,0|0,1:0|0:0,0:0:0:0:
208,154,80495,1,8,0:0:0:0:
110,16,80668,1,2,0:0:0:0:
110,89,80754,1,2,0:0:0:0:
110,162,80840,1,2,0:0:0:0:
102,163,80926,1,2,0:0:0:0:
94,164,81013,1,2,1:2:0:0:
94,237,81099,1,2,0:0:0:0:
94,310,81185,1,10,0:0:0:0:
298,281,81357,5,2,0:0:0:0:
308,182,81530,1,2,0:0:0:0:
288,380,81702,1,0,1:0:0:0:
318,83,81875,1,8,0:0:0:0:
209,172,82047,5,2,0:0:0:0:
308,182,82220,1,2,0:0:0:0:
110,162,82392,1,0,1:0:0:0:
407,192,82564,1,8,0:0:0:0:
144,68,82737,1,2,0:0:0:0:
73,70,82823,1,2,0:0:0:0:
18,117,82909,6,0,B|-6:225|46:207|22:313,1,195.69999835762,2|8,1:2|0:0,0:0:0:0:
110,162,83426,1,2,0:0:0:0:
116,156,83513,1,2,0:0:0:0:
122,150,83599,1,2,0:0:0:0:
175,98,83685,1,2,0:0:0:0:
227,151,83771,1,2,1:2:0:0:
233,157,83857,1,2,0:0:0:0:
239,163,83944,6,0,B|347:187|329:135|435:159,1,195.69999835762,10|2,0:0|0:0,0:0:0:0:
185,247,84461,1,0,1:0:0:0:
386,253,84633,2,0,P|433:257|469:290,2,97.8499991788101,8|0|2,0:0|0:0|0:0,0:0:0:0:
434,384,85151,1,0,1:0:0:0:
159,345,85323,2,0,P|111:339|68:362,1,97.8499991788101,8|0,0:0|0:0,0:0:0:0:
198,126,85668,6,0,L|345:132,1,146.774998768215,0|0,1:0|0:0,0:0:0:0:
434,89,86013,1,8,0:0:0:0:
506,218,86185,1,2,0:0:0:0:
507,226,86271,1,2,0:0:0:0:
508,234,86357,1,2,0:0:0:0:
509,242,86444,1,2,0:0:0:0:
510,250,86530,1,2,1:2:0:0:
427,264,86616,1,2,0:0:0:0:
344,278,86702,6,0,B|270:281|270:281|232:260|232:260|143:266,1,195.69999835762,10|2,0:0|0:0,0:0:0:0:
0,270,87220,1,0,1:0:0:0:
297,183,87392,1,8,0:0:0:0:
200,369,87564,1,2,0:0:0:0:
200,369,87651,1,2,0:0:0:0:
200,369,87737,1,2,0:0:0:0:
76,207,87909,5,0,1:0:0:0:
80,110,87995,1,0,1:0:0:0:
84,13,88082,1,8,0:0:0:0:
90,19,88254,5,2,0:0:0:0:
86,116,88340,1,10,0:0:0:0:
82,213,88426,1,4,1:2:0:0:
82,213,88771,5,8,0:0:0:0:
250,161,88944,1,2,0:0:0:0:
252,193,89030,1,2,0:0:0:0:
254,225,89116,1,2,0:0:0:0:
325,220,89202,1,2,0:0:0:0:
396,215,89288,1,2,1:2:0:0:
398,247,89375,1,2,0:0:0:0:
400,279,89461,6,0,P|448:196|437:101,1,195.69999835762,10|2,0:0|0:0,0:0:0:0:
197,37,89978,1,0,1:0:0:0:
341,126,90151,2,0,B|233:102|251:154|145:130,1,195.69999835762,8|2,0:0|0:0,0:0:0:0:
0,35,90668,1,0,1:0:0:0:
16,256,90840,2,0,P|11:183|49:122,1,146.774998768215,8|0,0:0|0:0,0:0:0:0:
148,130,91185,6,0,L|154:277,1,146.774998768215,0|0,1:0|0:0,0:0:0:0:
161,377,91530,1,8,0:0:0:0:
283,285,91702,1,2,0:0:0:0:
357,289,91788,1,2,0:0:0:0:
419,329,91875,1,2,0:0:0:0:
417,343,91961,1,2,0:0:0:0:
415,357,92047,1,2,1:2:0:0:
356,299,92133,1,2,0:0:0:0:
385,220,92220,1,10,0:0:0:0:
489,128,92392,5,2,0:0:0:0:
499,228,92564,1,2,0:0:0:0:
479,28,92737,1,0,1:0:0:0:
509,328,92909,1,8,0:0:0:0:
234,203,93082,5,2,0:0:0:0:
234,203,93168,1,2,0:0:0:0:
234,203,93254,2,0,P|241:233|238:256,1,48.9249995894051,2|0,0:0|0:0,0:0:0:0:
175,371,93426,2,0,P|168:348|170:324,1,48.9249995894051,0|0,1:0|0:0,0:0:0:0:
317,146,93599,2,0,P|318:121|311:98,1,48.9249995894051,8|0,0:0|0:0,0:0:0:0:
183,22,93771,1,2,0:0:0:0:
109,29,93857,1,2,0:0:0:0:
47,71,93944,6,0,P|-1:154|10:249,1,195.69999835762,2|8,1:2|0:0,0:0:0:0:
175,371,94461,1,2,0:0:0:0:
206,367,94547,1,2,0:0:0:0:
235,356,94633,1,2,0:0:0:0:
251,282,94720,1,2,0:0:0:0:
296,223,94806,1,2,1:2:0:0:
327,227,94892,1,2,0:0:0:0:
356,238,94978,2,0,P|362:190|339:147,1,97.8499991788101,10|0,0:0|0:0,0:0:0:0:
339,147,95323,5,2,0:0:0:0:
409,323,95495,1,0,1:0:0:0:
390,62,95668,2,0,P|347:39|299:45,1,97.8499991788101,8|0,0:0|0:0,0:0:0:0:
299,45,96013,5,2,0:0:0:0:
482,24,96185,1,0,1:0:0:0:
208,16,96357,2,0,P|185:58|191:106,1,97.8499991788101,8|0,0:0|0:0,0:0:0:0:
102,284,96702,6,0,L|96:137,1,146.774998768215,0|0,1:0|0:0,0:0:0:0:
31,62,97047,1,8,0:0:0:0:
191,106,97220,1,2,0:0:0:0:
223,104,97306,1,2,0:0:0:0:
255,102,97392,1,2,0:0:0:0:
287,100,97478,1,2,0:0:0:0:
319,98,97564,1,2,1:2:0:0:
308,181,97651,1,2,0:0:0:0:
297,264,97737,6,0,B|370:268|370:268|408:247|408:247|497:253,1,195.69999835762,10|2,0:0|0:0,0:0:0:0:
334,366,98254,1,0,1:0:0:0:
447,150,98426,1,8,0:0:0:0:
486,252,98599,1,2,0:0:0:0:
486,252,98685,1,2,0:0:0:0:
486,252,98771,2,0,P|493:282|490:305,1,48.9249995894051,2|0,0:0|0:0,0:0:0:0:
387,70,98944,2,0,P|380:40|383:17,1,48.9249995894051,0|0,1:0|0:0,0:0:0:0:
302,216,99116,2,0,P|295:246|298:269,1,48.9249995894051,8|0,0:0|0:0,0:0:0:0:
229,53,99288,5,2,0:0:0:0:
132,27,99375,1,2,0:0:0:0:
35,45,99461,1,4,1:2:0:0:
35,45,99806,5,8,0:0:0:0:
135,144,99978,1,2,0:0:0:0:
103,146,100064,1,2,0:0:0:0:
71,148,100151,1,2,0:0:0:0:
76,219,100237,1,2,0:0:0:0:
81,290,100323,1,2,1:2:0:0:
49,292,100409,1,2,0:0:0:0:
17,294,100495,6,0,P|100:342|195:331,1,195.69999835762,10|2,0:0|0:0,0:0:0:0:
378,239,101013,1,0,1:0:0:0:
290,384,101185,2,0,B|314:276|262:294|286:188,1,195.69999835762,8|2,0:0|0:0,0:0:0:0:
227,0,101702,1,0,1:0:0:0:
84,84,101875,2,0,P|156:79|218:117,1,146.774998768215,8|0,0:0|0:0,0:0:0:0:
224,105,102220,6,0,L|371:99,1,146.774998768215,0|0,1:0|0:0,0:0:0:0:
471,92,102564,1,8,0:0:0:0:
417,263,102737,1,2,0:0:0:0:
343,259,102823,1,2,0:0:0:0:
281,219,102909,1,2,0:0:0:0:
283,205,102995,1,2,0:0:0:0:
285,191,103082,1,2,1:2:0:0:
344,249,103168,1,2,0:0:0:0:
315,328,103254,1,10,0:0:0:0:
186,183,103426,5,2,0:0:0:0:
196,283,103599,1,2,0:0:0:0:
176,83,103771,1,0,1:0:0:0:
206,383,103944,1,8,0:0:0:0:
106,243,104116,5,2,0:0:0:0:
176,83,104288,2,0,P|206:76|229:79,1,48.9249995894051,2|0,0:0|0:0,0:0:0:0:
300,143,104461,2,0,P|324:145|347:138,1,48.9249995894051,0|0,1:0|0:0,0:0:0:0:
406,58,104633,2,0,P|430:56|453:63,1,48.9249995894051,8|0,0:0|0:0,0:0:0:0:
508,160,104806,1,2,0:0:0:0:
508,160,104892,1,2,0:0:0:0:
508,160,104978,6,0,B|489:241|529:227|511:307,1,142.500005435944,2|0,0:2|0:0,0:0:0:0:
433,273,105495,1,2,0:0:0:0:
421,271,105582,1,2,0:0:0:0:
409,271,105668,1,2,0:0:0:0:
397,274,105754,1,2,0:0:0:0:
386,279,105840,1,2,0:0:0:0:
377,285,105926,1,2,0:0:0:0:
368,293,106013,2,0,P|334:292|303:272,1,71.2500027179719,2|0,0:0|0:0,0:0:0:0:
239,218,106357,6,0,L|120:222,2,106.875004076958,2|0|0,0:0|0:0|0:0,0:0:0:0:
305,165,107047,2,0,L|424:161,2,106.875004076958,2|0|0,0:0|0:0|0:0,0:0:0:0:
239,111,107737,5,2,1:2:0:0:
228,103,107823,1,0,1:0:0:0:
219,93,107909,1,0,1:0:0:0:
212,81,107995,1,0,1:0:0:0:
208,68,108082,1,0,1:0:0:0:
207,55,108168,1,0,1:0:0:0:
208,42,108254,1,2,1:2:0:0:
212,29,108340,1,2,1:2:0:0:
219,18,108426,5,2,1:2:0:0:
199,7,108513,1,2,1:2:0:0:
178,1,108599,1,2,1:2:0:0:
156,0,108685,1,2,1:2:0:0:
134,5,108771,1,2,1:2:0:0:
114,16,108857,1,0,1:0:0:0:
98,31,108944,1,2,1:2:0:0:
86,49,109030,1,0,1:0:0:0:
79,70,109116,5,2,1:2:0:0:
97,99,109202,1,0,1:0:0:0:
105,134,109288,1,0,1:0:0:0:
101,169,109375,1,2,1:2:0:0:
85,201,109461,1,0,1:0:0:0:
69,233,109547,1,0,1:0:0:0:
65,268,109633,1,2,1:2:0:0:
73,303,109720,1,0,1:0:0:0:
91,332,109806,5,2,1:2:0:0:
134,353,109892,1,0,1:0:0:0:
183,355,109978,1,0,1:0:0:0:
227,336,110064,1,2,1:2:0:0:
260,300,110151,1,0,1:0:0:0:
275,254,110237,1,0,1:0:0:0:
269,205,110323,1,2,1:2:0:0:
243,164,110409,1,0,1:0:0:0:
201,140,110495,6,0,B|264:115|264:115|332:125,1,132.999995941162,4|0,1:2|0:0,0:0:0:0:
456,286,110754,1,2,0:0:0:0:
512,193,110840,2,0,B|444:183|444:183|380:207,1,132.999995941162,8|2,0:0|0:0,0:0:0:0:
73,154,111185,2,0,B|140:163|140:163|204:139,1,132.999995941162,2|0,0:0|1:0,0:0:0:0:
140,0,111444,1,2,0:0:0:0:
140,0,111530,2,0,L|131:64,1,66.4999979705811,8|0,0:0|0:0,0:0:0:0:
97,252,111702,1,2,0:0:0:0:
297,137,111875,6,0,B|311:155|311:155|192:139,1,132.999995941162,2|0,0:0|1:0,0:0:0:0:
321,276,112133,1,2,0:0:0:0:
222,265,112220,2,0,B|207:246|207:246|326:262,1,132.999995941162,8|2,0:0|0:0,0:0:0:0:
88,318,112564,2,0,L|97:253,1,66.4999979705811,2|0,0:0|0:0,0:0:0:0:
54,15,112737,1,0,1:0:0:0:
40,97,112823,1,2,0:0:0:0:
26,179,112909,1,8,0:0:0:0:
217,13,113082,2,0,L|153:4,1,66.4999979705811,2|0,0:0|0:0,0:0:0:0:
142,14,113254,6,0,B|214:24|214:24|254:6|254:6|342:20,1,199.499993911743,2|2,1:2|0:0,0:0:0:0:
483,112,113599,6,0,P|404:105|354:136,1,132.999995941162,8|2,0:0|0:0,0:0:0:0:
179,137,113944,2,0,P|242:152|285:202,1,132.999995941162,2|0,0:0|1:0,0:0:0:0:
320,16,114202,1,2,0:0:0:0:
336,19,114288,2,0,P|277:47|212:37,1,132.999995941162,8|2,0:0|0:0,0:0:0:0:
0,216,114633,6,0,B|22:237|22:237|130:225,1,132.999995941162,2|0,0:0|1:0,0:0:0:0:
257,384,114892,1,2,0:0:0:0:
319,308,114978,2,0,B|297:287|297:287|189:299,1,132.999995941162,8|2,0:0|0:0,0:0:0:0:
69,142,115323,1,2,0:0:0:0:
336,19,115495,1,0,1:0:0:0:
350,101,115582,1,2,0:0:0:0:
364,183,115668,1,8,0:0:0:0:
453,1,115840,2,0,L|444:66,1,66.4999979705811,2|0,0:0|0:0,0:0:0:0:
409,249,116013,6,0,P|305:214|223:260,1,199.499993911743,2|2,1:2|0:0,0:0:0:0:
220,352,116357,1,8,0:0:0:0:
59,259,116530,2,0,P|55:227|64:193,1,66.4999979705811,2|0,0:0|0:0,0:0:0:0:
107,30,116702,1,2,0:0:0:0:
162,180,116875,2,0,P|165:147|157:115,1,66.4999979705811,0|2,1:0|0:0,0:0:0:0:
327,28,117047,2,0,P|267:3|206:26,1,132.999995941162,8|2,0:0|0:0,0:0:0:0:
358,154,117392,6,0,B|421:133|421:133|484:154,1,132.999995941162,2|0,0:0|1:0,0:0:0:0:
505,299,117651,1,2,0:0:0:0:
422,363,117737,2,0,B|401:300|401:300|422:237,1,132.999995941162,8|2,0:0|0:0,0:0:0:0:
317,360,118082,2,0,B|254:381|254:381|191:360,1,132.999995941162,2|0,0:0|1:0,0:0:0:0:
170,215,118340,1,2,0:0:0:0:
253,151,118426,2,0,B|274:214|274:214|253:277,1,132.999995941162,8|2,0:0|0:0,0:0:0:0:
66,16,118771,6,0,B|48:2|48:2|64:121,1,132.999995941162,2|0,1:2|0:0,0:0:0:0:
71,225,119030,1,2,0:0:0:0:
170,215,119116,2,0,B|184:197|184:197|65:213,1,132.999995941162,8|2,0:0|0:0,0:0:0:0:
244,343,119461,2,0,L|253:278,1,66.4999979705811,2|0,0:0|0:0,0:0:0:0:
299,47,119633,1,0,1:0:0:0:
313,129,119720,1,2,0:0:0:0:
327,211,119806,1,8,0:0:0:0:
211,0,119978,1,2,0:0:0:0:
437,120,120151,6,0,B|415:141|415:141|313:129,1,132.999995941162,2|0,0:0|1:0,0:0:0:0:
146,90,120409,1,2,0:0:0:0:
87,9,120495,2,0,B|109:-12|109:-12|210:0,1,132.999995941162,8|2,0:0|0:0,0:0:0:0:
82,280,120840,2,0,B|61:258|61:258|73:157,1,132.999995941162,2|0,0:0|1:0,0:0:0:0:
230,215,121099,1,2,0:0:0:0:
230,215,121185,2,0,L|164:217,1,66.4999979705811,8|0,0:0|0:0,0:0:0:0:
15,75,121357,1,2,0:0:0:0:
337,161,121530,6,0,B|402:171|402:171|465:146,1,132.999995941162,4|0,1:2|0:0,0:0:0:0:
454,6,121788,1,2,0:0:0:0:
443,21,121875,2,0,B|375:11|375:11|315:34,1,132.999995941162,8|2,0:0|0:0,0:0:0:0:
216,343,122220,2,0,B|207:276|207:276|230:215,1,132.999995941162,2|0,0:0|1:0,0:0:0:0:
369,273,122478,1,2,0:0:0:0:
369,275,122564,2,0,L|305:284,1,66.4999979705811,8|0,0:0|0:0,0:0:0:0:
117,318,122737,1,2,0:0:0:0:
175,38,122909,6,0,B|193:24|193:24|177:143,1,132.999995941162,2|0,0:0|1:0,0:0:0:0:
308,121,123168,1,2,0:0:0:0:
299,17,123254,2,0,B|285:125|285:125|304:110,1,132.999995941162,8|2,0:0|0:0,0:0:0:0:
447,38,123599,2,0,L|456:103,1,66.4999979705811,2|0,0:0|0:0,0:0:0:0:
414,340,123771,1,0,1:0:0:0:
400,258,123857,1,2,0:0:0:0:
386,176,123944,1,8,0:0:0:0:
252,307,124116,2,0,L|318:317,1,66.4999979705811,2|0,0:0|0:0,0:0:0:0:
327,306,124288,6,0,B|255:296|255:296|215:314|215:314|127:300,1,199.499993911743,2|2,1:2|0:0,0:0:0:0:
0,195,124633,6,0,P|79:202|129:171,1,132.999995941162,8|2,0:0|0:0,0:0:0:0:
313,184,124978,2,0,P|250:169|207:119,1,132.999995941162,2|0,0:0|1:0,0:0:0:0:
133,301,125237,1,2,0:0:0:0:
117,298,125323,2,0,P|176:270|241:280,1,132.999995941162,8|2,0:0|0:0,0:0:0:0:
508,266,125668,6,0,B|486:245|486:245|378:257,1,132.999995941162,2|0,0:0|1:0,0:0:0:0:
251,98,125926,1,2,0:0:0:0:
189,174,126013,2,0,B|211:195|211:195|319:183,1,132.999995941162,8|2,0:0|0:0,0:0:0:0:
439,340,126357,1,2,0:0:0:0:
415,70,126530,1,0,1:0:0:0:
333,84,126616,1,2,0:0:0:0:
251,98,126702,1,8,0:0:0:0:
108,26,126875,2,0,L|173:35,1,66.4999979705811,2|0,0:0|0:0,0:0:0:0:
333,84,127047,6,0,P|368:188|322:270,1,199.499993911743,2|2,1:2|0:0,0:0:0:0:
230,273,127392,1,8,0:0:0:0:
132,128,127564,2,0,P|128:160|137:194,1,66.4999979705811,2|0,0:0|0:0,0:0:0:0:
180,357,127737,1,2,0:0:0:0:
235,208,127909,2,0,P|238:241|230:273,1,66.4999979705811,0|2,1:0|0:0,0:0:0:0:
400,359,128082,2,0,P|340:384|279:361,1,132.999995941162,8|2,0:0|0:0,0:0:0:0:
265,54,128426,6,0,B|328:33|328:33|391:54,1,132.999995941162,2|0,0:0|1:0,0:0:0:0:
424,194,128685,1,2,0:0:0:0:
358,257,128771,2,0,B|337:194|337:194|358:131,1,132.999995941162,8|2,0:0|0:0,0:0:0:0:
230,273,129116,2,0,B|167:294|167:294|104:273,1,132.999995941162,2|0,0:0|1:0,0:0:0:0:
102,142,129375,1,2,0:0:0:0:
169,79,129461,2,0,B|190:142|190:142|169:205,1,132.999995941162,8|2,0:0|0:0,0:0:0:0:
453,260,129806,6,0,B|467:242|467:242|348:258,1,132.999995941162,2|0,1:2|0:0,0:0:0:0:
265,290,130064,1,2,0:0:0:0:
271,374,130151,2,0,B|289:388|289:388|273:269,1,132.999995941162,8|2,0:0|0:0,0:0:0:0:
178,13,130495,2,0,L|169:78,1,66.4999979705811,2|0,0:0|0:0,0:0:0:0:
115,225,130668,1,0,1:0:0:0:
108,184,130754,1,2,0:0:0:0:
101,143,130840,1,8,0:0:0:0:
48,293,131013,1,2,0:0:0:0:
262,192,131185,5,2,0:0:0:0:
262,192,131444,1,2,0:0:0:0:
262,192,131702,1,2,0:0:0:0:
355,233,131875,5,2,0:0:0:0:
355,233,132133,1,2,0:0:0:0:
355,233,132392,2,0,L|358:268,2,23.75,2|2|2,0:0|0:0|0:0,0:0:0:0:
