osu file format v14

[General]
AudioFilename: audio.mp3
AudioLeadIn: 0
PreviewTime: 88563
Countdown: 0
SampleSet: Soft
StackLeniency: 0.7
Mode: 0
LetterboxInBreaks: 0
WidescreenStoryboard: 1

[Editor]
Bookmarks: 44152,66221,77175,88290,97946,99325,110359,120795,121744,132515,143468,154497,198635,242859,264842
DistanceSpacing: 0.2
BeatDivisor: 4
GridSize: 32
TimelineZoom: 2.299999

[Metadata]
Title:Gravity
TitleUnicode:Gravity
Artist:Lexurus
ArtistUnicode:Lexurus
Creator:Milan-
Version:Expert
Source:
Tags:featured artist dnb drum and bass high tea music kibbleru pishifat pho
BeatmapID:1656879
BeatmapSetID:789529

[Difficulty]
HPDrainRate:7
CircleSize:4
OverallDifficulty:8
ApproachRate:9.2
SliderMultiplier:2.4
SliderTickRate:1

[Events]
//Background and Video events
0,0,"osu! Spring Fanart 2018 - Evaine.jpg",0,0
//Break Periods
//Storyboard Layer 0 (Background)
//Storyboard Layer 1 (Fail)
//Storyboard Layer 2 (Pass)
//Storyboard Layer 3 (Foreground)
//Storyboard Sound Samples

[TimingPoints]
29,344.827586206897,4,2,0,22,1,0
44080,-100,4,2,0,5,0,0
44166,-133.333333333333,4,2,0,30,0,0
55201,-133.333333333333,4,2,0,35,0,0
63477,-111.111111111111,4,2,0,40,0,0
65201,-83.3333333333333,4,2,0,50,0,0
65891,-55.5555555555556,4,2,0,60,0,0
66580,-1000,4,2,0,70,0,0
67097,-66.6666666666667,4,2,0,70,0,0
67270,-1000,4,2,0,70,0,0
67615,-66.6666666666667,4,2,0,70,0,0
68132,-1000,4,2,0,70,0,0
68649,-100,4,2,0,70,0,0
69339,-1000,4,2,0,70,0,0
69856,-66.6666666666667,4,2,0,70,0,0
70028,-1000,4,2,0,70,0,0
70373,-66.6666666666667,4,2,0,70,0,0
70891,-1000,4,2,0,70,0,0
71408,-100,4,2,0,70,0,0
72097,-1000,4,2,0,70,0,0
72614,-66.6666666666667,4,2,0,70,0,0
72787,-1000,4,2,0,70,0,0
73132,-66.6666666666667,4,2,0,70,0,0
73649,-1000,4,2,0,70,0,0
74166,-100,4,2,0,70,0,0
74856,-1000,4,2,0,70,0,0
75373,-66.6666666666667,4,2,0,70,0,0
75546,-1000,4,2,0,70,0,0
75890,-66.6666666666667,4,2,0,70,0,0
76925,-50,4,2,0,70,0,0
77615,-1000,4,2,0,70,0,0
78132,-66.6666666666667,4,2,0,70,0,0
78304,-1000,4,2,0,70,0,0
78649,-66.6666666666667,4,2,0,70,0,0
79166,-1000,4,2,0,70,0,0
79684,-100,4,2,0,70,0,0
80373,-1000,4,2,0,70,0,0
80891,-66.6666666666667,4,2,0,70,0,0
81063,-1000,4,2,0,70,0,0
81408,-66.6666666666667,4,2,0,70,0,0
81925,-1000,4,2,0,70,0,0
82442,-100,4,2,0,70,0,0
83132,-1000,4,2,0,70,0,0
83649,-66.6666666666667,4,2,0,70,0,0
83822,-1000,4,2,0,70,0,0
84166,-66.6666666666667,4,2,0,70,0,0
84684,-1000,4,2,0,70,0,0
85201,-100,4,2,0,70,0,0
85891,-1000,4,2,0,70,0,0
86408,-66.6666666666667,4,2,0,70,0,0
86580,-1000,4,2,0,70,0,0
86925,-66.6666666666667,4,2,0,70,0,0
87960,-50,4,2,0,70,0,0
88649,-80,4,2,0,70,0,0
90718,-50,4,2,0,70,0,0
91408,-80,4,2,0,70,0,0
93477,-50,4,2,0,70,0,0
94166,-80,4,2,0,70,0,0
96235,-50,4,2,0,70,0,0
96925,-80,4,2,0,70,0,0
98994,-50,4,2,0,70,0,0
99684,-80,4,2,0,70,0,0
101753,-50,4,2,0,70,0,0
102097,-80,4,2,0,70,0,0
104511,-50,4,2,0,70,0,0
105201,-80,4,2,0,70,0,0
107270,-50,4,2,0,70,0,0
107960,-80,4,2,0,70,0,0
110028,-50,4,2,0,70,0,0
110373,-111.111111111111,4,2,0,70,0,0
132442,-83.3333333333333,4,2,0,70,0,0
132615,-83.3333333333333,4,2,0,10,0,0

[Colours]
Combo1 : 70,81,132
Combo2 : 187,198,208
Combo3 : 188,211,191
Combo4 : 255,85,89
Combo5 : 251,255,100

[HitObjects]
256,192,42097,12,0,44080,0:0:0:0:
395,308,44166,6,0,P|466:225|434:170,1,180.000006866455,4|2,0:0|1:2,0:0:0:0:
351,101,44684,1,2,0:0:0:0:
428,164,44856,1,2,0:0:0:0:
253,211,45115,1,2,0:0:0:0:
234,31,45373,2,0,L|243:141,1,90.0000034332277,2|4,0:0|0:3,0:0:0:0:
241,120,45632,1,2,0:0:0:0:
90,225,45891,1,2,1:2:0:0:
176,384,46149,1,2,0:0:0:0:
43,312,46408,5,4,0:3:0:0:
176,295,46580,1,2,1:2:0:0:
310,279,46753,1,2,0:0:0:0:
442,260,46925,1,4,0:3:0:0:
37,26,47270,53,2,1:2:0:0:
123,46,47442,1,2,0:0:0:0:
64,112,47614,1,2,0:0:0:0:
236,220,47873,1,2,0:0:0:0:
302,29,48131,2,0,L|311:138,1,90.0000034332277,2|4,0:0|0:3,0:0:0:0:
309,118,48390,1,2,0:0:0:0:
131,213,48649,1,2,1:2:0:0:
212,29,48907,1,2,0:0:0:0:
354,205,49166,5,4,0:3:0:0:
480,174,49338,1,2,1:2:0:0:
354,205,49511,1,2,0:0:0:0:
480,174,49684,54,0,P|482:246|383:285,1,180.000006866455,4|2,0:3|1:2,0:0:0:0:
281,341,50201,1,2,0:0:0:0:
379,293,50373,1,2,0:0:0:0:
174,223,50632,1,2,0:0:0:0:
18,370,50890,2,0,L|27:260,1,90.0000034332277,2|4,0:0|0:3,0:0:0:0:
25,281,51149,1,2,0:0:0:0:
152,141,51408,1,2,1:2:0:0:
0,33,51666,1,2,0:0:0:0:
84,206,51925,5,4,0:3:0:0:
217,223,52097,1,2,1:2:0:0:
351,239,52270,1,2,0:0:0:0:
483,258,52442,1,4,0:3:0:0:
103,377,52787,53,2,1:2:0:0:
189,357,52959,1,2,0:0:0:0:
130,291,53131,1,2,0:0:0:0:
299,169,53390,1,2,0:0:0:0:
136,23,53649,2,0,L|145:132,1,90.0000034332277,2|4,0:0|0:3,0:0:0:0:
143,112,53908,2,0,L|146:159,1,45.0000017166138,2|0,0:0|0:0,0:0:0:0:
313,30,54166,2,0,L|439:31,1,90.0000034332277,2|0,1:2|0:0,0:2:0:0:
403,31,54425,2,0,L|529:32,1,90.0000034332277,2|0,0:0|0:0,0:2:0:0:
492,31,54683,5,4,0:3:0:0:
435,155,54855,1,2,1:2:0:0:
375,278,55028,1,2,0:0:0:0:
375,278,55115,1,0,0:0:0:0:
375,278,55201,54,0,P|352:209|245:206,1,180.000006866455,4|2,0:0|1:2,0:0:0:0:
167,353,55718,1,2,0:0:0:0:
228,186,55891,2,0,L|243:301,1,90.0000034332277,2|0,1:2|0:0,0:0:0:0:
239,275,56149,2,0,L|150:255,1,90.0000034332277,2|0,0:0|0:0,0:0:0:0:
151,255,56408,1,2,0:0:0:0:
14,186,56580,5,0,1:0:0:0:
14,186,56666,2,0,L|103:165,1,90.0000034332277,2|0,0:2|0:0,0:0:0:0:
101,166,56925,2,0,L|116:51,1,90.0000034332277,2|0,1:2|0:0,0:0:0:0:
112,76,57184,2,0,L|22:55,1,90.0000034332277,2|0,0:2|0:0,0:0:0:0:
24,56,57442,1,2,0:0:0:0:
24,56,57528,1,0,1:0:0:0:
24,56,57615,1,2,1:2:0:0:
208,36,57787,1,2,0:0:0:0:
385,17,57960,54,0,P|463:103|419:159,1,180.000006866455,4|2,0:0|1:2,0:0:0:0:
357,239,58477,1,2,1:2:0:0:
357,239,58563,1,0,1:0:0:0:
357,239,58650,2,0,L|461:223,1,90.0000034332277,2|0,1:2|0:0,0:0:0:0:
445,225,58908,2,0,L|426:350,1,90.0000034332277,2|0,0:0|0:0,0:0:0:0:
431,313,59167,1,2,0:0:0:0:
349,148,59339,5,4,0:2:0:0:
349,148,59425,2,0,L|252:159,1,90.0000034332277,2|0,0:2|0:0,0:0:0:0:
259,158,59684,2,0,L|274:43,1,90.0000034332277,2|0,1:2|0:0,0:0:0:0:
270,68,59943,2,0,L|180:47,1,90.0000034332277,2|0,0:2|0:0,0:0:0:0:
182,48,60201,1,2,0:0:0:0:
182,48,60287,1,0,1:0:0:0:
182,48,60374,1,2,1:2:0:0:
23,96,60546,1,2,1:2:0:0:
23,96,60632,1,0,1:0:0:0:
23,96,60718,53,4,0:0:0:0:
155,162,60891,1,0,1:0:0:0:
16,250,61063,2,0,L|116:234,1,90.0000034332277,2|2,1:2|1:2,0:0:0:0:
324,317,61408,2,0,B|336:273|336:273|299:222,1,90.0000034332277,2|0,1:2|1:0,0:0:0:0:
289,227,61666,2,0,L|301:325,1,90.0000034332277,2|0,0:2|0:0,0:0:0:0:
250,373,61925,1,0,1:0:0:0:
424,267,62097,5,0,1:0:0:0:
424,267,62184,1,2,0:0:0:0:
424,267,62270,1,0,1:0:0:0:
226,173,62442,1,2,1:2:0:0:
402,82,62615,1,0,1:0:0:0:
402,82,62701,2,0,L|277:98,1,90.0000034332277,2|0,0:2|0:0,0:0:0:0:
306,113,62960,2,0,P|326:156|316:209,1,90.0000034332277,2|2,0:2|1:2,0:0:0:0:
134,191,63304,1,2,1:2:0:0:
342,224,63477,6,0,L|271:227,3,53.9999983520508,4|0|0|0,1:2|1:0|1:0|1:0,1:0:0:0:
236,301,63822,2,0,P|213:277|192:224,1,53.9999983520508,2|0,1:2|1:0,1:0:0:0:
118,336,63994,2,0,P|113:307|125:254,1,53.9999983520508,2|0,1:2|1:0,1:0:0:0:
1,203,64166,5,2,1:2:0:0:
1,203,64253,2,0,P|31:216|63:223,1,53.9999983520508,0|0,1:0|1:0,1:0:0:0:
137,103,64425,1,2,1:2:0:0:
137,103,64511,2,0,P|118:113|77:123,1,53.9999983520508,0|0,1:0|1:0,1:0:0:0:
245,12,64684,1,2,1:2:0:0:
245,12,64771,2,0,P|232:42|225:74,1,53.9999983520508,0|0,1:0|1:0,1:0:0:0:
348,150,64942,1,2,1:2:0:0:
348,150,65028,2,0,P|329:105|323:69,1,53.9999983520508,0|0,1:0|1:0,1:0:0:0:
467,8,65201,54,0,P|442:32|390:51,1,71.9999978027344,2|0,1:2|1:0,1:0:0:0:
249,147,65373,2,0,P|245:182|250:218,1,71.9999978027344,2|0,1:2|1:0,1:0:0:0:
506,156,65546,2,0,P|471:146|437:133,1,71.9999978027344,2|0,1:2|1:0,1:0:0:0:
144,211,65718,2,0,P|155:256|177:284,1,71.9999978027344,2|0,1:2|1:0,1:0:0:0:
502,294,65891,6,0,B|477:273|464:239|464:239|433:267|381:289|381:289|272:268,1,215.999993408203,6|2,1:2|0:0,0:0:0:0:
153,71,66235,53,2,0:0:0:0:
163,74,66321,1,2,0:0:0:0:
173,76,66407,1,2,0:0:0:0:
183,78,66494,1,2,0:0:0:0:
228,57,66580,22,0,L|223:26,1,30,4|0,1:2|0:0,0:0:0:0:
418,29,67097,54,0,P|409:69|334:73,1,90.0000034332277,0|0,1:0|0:0,0:0:0:0:
291,135,67270,6,0,L|287:114,1,18,4|0,1:2|0:0,0:0:0:0:
177,218,67615,54,0,P|220:297|297:281,1,180.000006866455,4|0,1:2|0:0,0:0:0:0:
268,212,67873,1,0,1:0:0:0:
195,205,67960,2,0,P|200:250|252:275,1,90.0000034332277,4|0,1:2|0:0,0:0:0:0:
366,224,68132,6,0,L|361:193,1,30,4|0,1:2|0:0,0:0:0:0:
446,264,68649,54,0,P|477:304|461:358,1,60,6|0,1:2|0:0,0:0:0:0:
414,358,68822,2,0,P|391:335|380:304,1,60,2|0,0:2|0:0,0:0:0:0:
431,48,68994,53,2,0:0:0:0:
402,78,69080,1,2,0:0:0:0:
363,93,69166,1,2,0:0:0:0:
321,83,69253,1,2,0:0:0:0:
312,75,69339,22,0,L|317:106,1,30,4|0,1:2|0:0,0:0:0:0:
209,202,69856,54,0,P|181:180|186:126,1,90.0000034332277,0|0,1:0|0:0,0:0:0:0:
227,45,70028,6,0,L|230:63,1,18,4|0,1:2|0:0,0:0:0:0:
54,206,70373,54,0,P|-18:165|6:86,1,180.000006866455,4|0,1:2|0:0,0:0:0:0:
81,73,70632,1,0,1:0:0:0:
0,153,70718,2,0,P|-1:111|38:81,1,90.0000034332277,4|0,1:2|0:0,0:0:0:0:
140,0,70891,6,0,L|145:31,1,30,4|0,1:2|0:0,0:0:0:0:
316,104,71408,54,0,P|347:95|371:74,1,60,6|0,1:2|0:0,0:0:0:0:
270,32,71580,2,0,P|273:65|322:113,1,60,2|0,0:2|0:0,0:0:0:0:
502,156,71753,53,2,0:0:0:0:
496,166,71839,1,2,0:0:0:0:
491,176,71925,1,2,0:0:0:0:
484,186,72011,1,2,0:0:0:0:
477,228,72097,22,0,L|446:239,1,30,4|0,1:2|0:0,0:0:0:0:
309,211,72615,54,0,P|350:235|347:287,1,90.0000034332277,0|0,1:0|0:0,0:0:0:0:
302,334,72787,6,0,L|281:341,1,18,4|0,1:2|0:0,0:0:0:0:
157,221,73132,54,0,P|88:270|116:349,1,180.000006866455,4|0,1:2|0:0,0:0:0:0:
192,316,73391,1,0,1:0:0:0:
191,232,73477,2,0,P|166:193|119:194,1,90.0000034332277,4|0,1:2|0:0,0:0:0:0:
33,176,73649,6,0,L|2:187,1,30,4|0,1:2|0:0,0:0:0:0:
92,9,74166,54,0,P|107:37|109:69,1,60,6|0,1:2|0:0,0:0:0:0:
32,93,74339,2,0,P|15:65|13:32,1,60,2|0,0:2|0:0,0:0:0:0:
243,1,74511,53,2,0:0:0:0:
280,20,74597,1,2,0:0:0:0:
322,22,74684,1,2,0:0:0:0:
361,9,74770,1,2,0:0:0:0:
372,0,74856,22,0,L|376:34,1,30,4|0,1:2|0:0,0:0:0:0:
411,190,75373,54,0,P|409:157|366:124,1,90.0000034332277,0|0,1:0|0:0,0:0:0:0:
285,130,75546,6,0,L|287:151,1,18,4|0,1:2|0:0,0:0:0:0:
203,263,75891,37,4,1:2:0:0:
131,220,75977,2,0,P|220:224|233:314,1,180.000006866455,0|0,0:0|1:0,1:0:0:0:
322,371,76235,2,0,P|280:291|352:235,1,180.000006866455,4|0,1:2|0:0,1:0:0:0:
468,248,76494,2,0,P|378:234|375:144,1,180.000006866455,4|0,1:2|0:0,1:0:0:0:
379,19,76753,1,0,1:0:0:0:
417,86,76839,1,0,1:0:0:0:
391,17,76925,6,0,P|347:79|314:49,1,120,4|0,1:2|0:0,0:0:0:0:
257,140,77097,2,0,P|202:130|204:75,1,120,4|0,1:2|0:0,0:0:0:0:
113,15,77270,53,2,0:0:0:0:
105,23,77356,1,2,0:0:0:0:
96,31,77442,1,2,0:0:0:0:
87,39,77528,1,2,0:0:0:0:
64,68,77615,22,0,L|54:39,1,30,4|0,1:2|0:0,0:0:0:0:
57,218,78132,54,0,P|61:174|97:150,1,90.0000034332277,0|0,1:0|0:0,0:0:0:0:
182,155,78304,6,0,L|187:172,1,18,4|0,1:2|0:0,0:0:0:0:
356,8,78649,54,0,P|276:50|306:133,1,180.000006866455,4|0,1:2|0:0,0:0:0:0:
385,104,78908,1,0,1:0:0:0:
285,85,78994,2,0,P|311:124|352:125,1,90.0000034332277,4|0,1:2|0:0,0:0:0:0:
483,99,79166,6,0,L|473:70,1,30,4|0,1:2|0:0,0:0:0:0:
459,191,79684,54,0,P|450:224|424:253,1,60,6|0,1:2|0:0,0:0:0:0:
348,233,79856,2,0,P|376:242|400:260,1,60,2|0,0:0|0:0,0:0:0:0:
293,317,80028,53,2,0:0:0:0:
250,313,80115,1,2,0:0:0:0:
216,287,80201,1,2,0:0:0:0:
213,245,80287,1,2,0:0:0:0:
205,238,80373,22,0,L|207:209,1,30,4|0,1:2|0:0,0:0:0:0:
48,95,80891,54,0,P|49:49|82:27,1,90.0000034332277,0|0,1:0|0:0,0:0:0:0:
150,70,81063,6,0,L|148:87,1,18,4|0,1:2|0:0,0:0:0:0:
302,167,81408,54,0,P|277:80|345:42,1,180.000006866455,4|0,1:2|0:0,0:0:0:0:
379,147,81666,1,0,1:0:0:0:
302,193,81753,2,0,P|348:192|374:227,1,90.0000034332277,4|0,1:2|0:0,0:0:0:0:
452,265,81925,6,0,L|454:236,1,30,4|0,1:2|0:0,0:0:0:0:
299,278,82442,54,0,P|267:280|218:330,1,60,6|0,1:2|0:0,0:0:0:0:
162,317,82615,2,0,P|188:330|218:331,1,60,2|0,0:2|0:0,0:0:0:0:
74,184,82787,53,2,0:0:0:0:
71,195,82873,1,2,0:0:0:0:
68,206,82960,1,2,0:0:0:0:
64,217,83046,1,2,0:0:0:0:
43,260,83132,22,0,L|70:248,1,30,4|0,1:2|0:0,0:0:0:0:
245,121,83649,54,0,P|244:75|204:52,1,90.0000034332277,0|0,1:0|0:0,0:0:0:0:
123,36,83822,6,0,L|104:43,1,18,4|0,1:2|0:0,0:0:0:0:
160,273,84166,54,0,P|229:287|257:169,1,180.000006866455,4|0,1:2|0:0,0:0:0:0:
197,201,84425,1,0,1:0:0:0:
139,279,84511,2,0,P|173:318|212:313,1,90.0000034332277,4|0,1:2|0:0,0:0:0:0:
312,348,84684,6,0,L|339:336,1,30,4|0,1:2|0:0,0:0:0:0:
474,256,85201,54,0,P|445:250|407:209,1,60,6|0,1:2|0:0,0:0:0:0:
432,146,85373,2,0,P|421:173|421:203,1,60,2|0,0:2|0:0,0:0:0:0:
512,27,85546,53,2,0:0:0:0:
477,50,85632,1,2,0:0:0:0:
435,54,85718,1,2,0:0:0:0:
401,29,85804,1,2,0:0:0:0:
408,20,85891,22,0,L|378:25,1,30,4|0,1:2|0:0,0:0:0:0:
148,128,86408,54,0,P|149:82|182:60,1,90.0000034332277,0|0,1:0|0:0,0:0:0:0:
259,67,86580,6,0,L|276:64,1,18,4|0,1:2|0:0,0:0:0:0:
498,110,86925,37,4,1:2:0:0:
467,208,87011,2,0,P|462:118|373:105,1,180.000006866455,0|0,0:0|1:0,1:0:0:0:
378,270,87270,2,0,P|336:190|408:134,1,180.000006866455,4|0,1:2|0:0,1:0:0:0:
407,366,87528,2,0,P|357:290|275:326,1,180.000006866455,4|0,1:2|0:0,1:0:0:0:
185,341,87787,1,0,1:0:0:0:
254,314,87873,1,0,1:0:0:0:
165,354,87960,6,0,P|106:354|104:295,1,120,4|0,1:2|0:0,0:0:0:0:
32,225,88132,2,0,P|29:170|87:150,1,120,4|0,1:2|0:0,0:0:0:0:
144,61,88304,53,2,0:0:0:0:
155,64,88391,1,2,0:0:0:0:
165,68,88477,1,2,0:0:0:0:
176,72,88563,1,2,0:0:0:0:
196,111,88649,6,0,P|252:105|281:73,1,75,6|0,1:2|0:0,0:0:0:0:
365,12,88822,2,0,P|358:49|372:96,1,75,2|0,0:0|0:0,0:0:0:0:
467,172,88994,2,0,P|432:109|361:112,1,150,2|0,0:0|1:0,0:0:0:0:
374,286,89253,2,0,L|367:212,1,75,0|0,0:2|1:0,0:0:0:0:
290,342,89425,1,0,0:0:0:0:
297,355,89511,2,0,B|280:186,1,150,2|0,0:0|1:0,0:0:0:0:
197,189,89770,2,0,B|212:338,1,150,2|0,0:0|1:0,0:0:0:0:
134,374,90028,2,0,B|127:299,1,75,0|0,1:2|0:0,0:0:0:0:
17,219,90201,1,0,1:0:0:0:
0,227,90287,2,0,P|67:233|108:158,1,150,2|0,0:0|0:0,0:0:0:0:
180,49,90546,2,0,P|146:58|122:126,1,75,2|0,0:0|0:0,0:0:0:0:
0,39,90718,54,0,P|6:109|78:89,1,120,4|0,1:2|0:0,0:0:0:0:
194,186,90891,2,0,P|248:193|267:141,1,120,4|0,1:2|0:0,0:0:0:0:
399,18,91063,5,2,0:0:0:0:
421,13,91149,1,2,0:0:0:0:
432,32,91235,1,2,0:0:0:0:
416,48,91322,1,2,0:0:0:0:
398,39,91408,54,0,P|387:66|409:158,1,75,6|0,1:2|0:0,0:0:0:0:
350,251,91580,2,0,P|387:248|419:230,1,75,2|0,0:0|0:0,0:0:0:0:
301,172,91753,2,0,P|300:108|214:69,1,150,2|0,0:0|1:0,0:0:0:0:
149,16,92012,2,0,B|136:50|136:50|141:88,1,75,0|0,0:2|1:0,0:0:0:0:
0,108,92184,1,0,0:0:0:0:
4,90,92270,2,0,B|46:117|46:117|75:223,1,150,2|0,0:0|1:0,0:0:0:0:
202,182,92529,2,0,B|159:224|159:224|129:346,1,150,2|0,0:0|0:0,0:0:0:0:
39,314,92787,2,0,B|56:345|56:345|55:405,1,75,0|0,1:2|0:0,0:0:0:0:
258,257,92960,1,0,1:0:0:0:
241,266,93046,2,0,B|280:309|280:309|427:278,1,150,2|0,0:0|0:0,0:0:0:0:
447,210,93305,2,0,L|353:189,1,75,2|0,0:0|0:0,0:0:0:0:
316,20,93477,6,0,P|377:64|317:112,1,120,4|0,1:2|0:0,0:0:0:0:
243,175,93650,2,0,P|187:167|183:112,1,120,4|0,1:2|0:0,0:0:0:0:
83,29,93822,53,2,0:0:0:0:
77,39,93908,1,2,0:0:0:0:
71,49,93994,1,2,0:0:0:0:
64,59,94081,1,2,0:0:0:0:
51,112,94166,6,0,P|18:142|-31:150,1,75,6|0,1:2|0:0,0:0:0:0:
77,250,94339,2,0,P|94:199|145:170,1,75,2|0,0:0|0:0,0:0:0:0:
89,349,94511,2,0,P|70:280|0:270,1,150,2|0,0:0|1:0,0:0:0:0:
195,195,94770,2,0,P|219:223|233:258,1,75,0|0,0:2|1:0,0:0:0:0:
204,375,94942,1,0,0:0:0:0:
218,382,95028,2,0,B|247:337|247:337|359:322,1,150,2|0,0:0|1:0,0:0:0:0:
488,231,95287,2,0,B|450:265|450:265|333:234,1,150,2|0,0:0|0:0,0:0:0:0:
369,158,95545,2,0,L|458:143,1,75,0|0,1:2|0:0,0:0:0:0:
295,109,95718,1,0,1:0:0:0:
275,121,95804,2,0,B|304:76|304:76|416:61,1,150,2|0,0:0|0:0,0:0:0:0:
187,90,96063,2,0,L|235:14,1,75,2|0,0:0|0:0,0:0:0:0:
101,108,96235,54,0,P|50:54|99:24,1,120,4|0,1:2|0:0,0:0:0:0:
206,177,96408,2,0,P|200:232|145:238,1,120,4|0,1:2|0:0,0:0:0:0:
0,230,96580,5,2,0:0:0:0:
7,210,96666,1,2,0:0:0:0:
28,210,96752,1,2,0:0:0:0:
35,230,96839,1,2,0:0:0:0:
17,243,96925,54,0,P|35:268|35:335,1,75,6|0,1:2|0:0,0:0:0:0:
111,384,97097,2,0,P|116:348|138:318,1,75,2|0,0:0|0:0,0:0:0:0:
213,187,97270,2,0,P|228:262|299:272,1,150,2|0,0:0|1:0,0:0:0:0:
390,300,97529,2,0,B|372:334|372:334|340:351,1,75,2|0,0:2|1:0,0:0:0:0:
342,191,97701,1,0,0:0:0:0:
351,205,97787,2,0,L|388:40,1,150,2|0,0:0|1:0,0:0:0:0:
237,11,98046,2,0,L|268:176,1,150,2|0,0:0|0:0,0:0:0:0:
195,234,98304,2,0,B|43:202,1,150,0|0,1:2|0:0,0:0:0:0:
0,366,98563,2,0,B|183:329,1,150,2|0,0:2|0:0,0:0:0:0:
310,355,98822,1,2,1:2:0:0:
241,320,98908,1,0,1:0:0:0:
302,361,98994,6,0,P|355:321|315:257,1,120,4|0,1:2|0:0,0:0:0:0:
433,211,99167,2,0,P|441:154|390:135,1,120,4|0,1:2|0:0,0:0:0:0:
301,15,99339,53,2,0:0:0:0:
310,20,99426,1,2,0:0:0:0:
320,25,99512,1,2,0:0:0:0:
331,30,99598,1,2,0:0:0:0:
358,54,99684,6,0,P|307:80|287:129,1,75,6|0,1:2|0:0,0:0:0:0:
205,74,99856,2,0,P|178:62|146:2,1,75,2|0,0:0|0:0,0:0:0:0:
102,166,100028,2,0,P|122:97|192:86,1,150,2|0,0:2|1:0,0:0:0:0:
214,241,100288,2,0,P|209:204|187:174,1,75,0|0,0:2|1:0,0:0:0:0:
81,263,100460,1,0,0:0:0:0:
68,277,100546,2,0,B|107:263|107:263|220:344,1,150,2|0,0:0|1:0,0:0:0:0:
289,375,100805,2,0,B|344:363|344:363|411:225,1,150,2|0,0:0|0:0,0:0:0:0:
465,234,101063,2,0,L|496:165,1,75,0|0,1:2|0:0,0:0:0:0:
393,183,101236,1,0,1:0:0:0:
375,181,101322,2,0,B|320:193|320:193|252:330,1,150,2|0,0:0|0:0,0:0:0:0:
218,203,101581,2,0,L|259:124,1,75,2|0,0:0|0:0,0:0:0:0:
369,17,101753,54,0,P|376:72|325:95,1,120,4|0,1:2|0:0,0:0:0:0:
185,62,101926,2,0,P|183:9|119:5,1,120,4|0,1:2|0:0,0:0:0:0:
26,120,102097,5,2,0:0:0:0:
7,107,102183,1,2,0:0:0:0:
13,86,102269,1,2,0:0:0:0:
35,86,102356,1,2,0:0:0:0:
42,105,102442,54,0,P|52:133|35:198,1,75,6|0,1:2|0:0,0:0:0:0:
183,254,102615,2,0,P|160:224|126:209,1,75,2|0,0:0|0:0,0:0:0:0:
0,364,102788,2,0,P|23:296|93:288,1,150,2|0,0:0|1:0,0:0:0:0:
236,330,103046,2,0,B|202:346|202:346|165:344,1,75,0|0,0:2|1:0,0:0:0:0:
289,254,103218,1,0,0:0:0:0:
303,244,103305,2,0,B|347:283|347:283|313:392,1,150,2|0,0:0|1:0,0:0:0:0:
426,307,103563,2,0,B|439:249|439:249|349:180,1,150,2|0,0:0|0:0,0:0:0:0:
390,110,103822,2,0,B|455:155,1,75,0|0,1:2|0:0,0:0:0:0:
369,25,103995,1,0,1:0:0:0:
386,11,104081,2,0,P|360:84|261:85,1,150,2|0,0:0|0:0,0:0:0:0:
157,18,104340,2,0,P|188:37|208:69,1,75,2|0,0:0|0:0,0:0:0:0:
178,228,104512,6,0,P|176:172|228:153,1,120,4|0,1:2|0:0,0:0:0:0:
338,236,104685,2,0,P|333:292|278:298,1,120,4|0,1:2|0:0,0:0:0:0:
167,356,104857,53,2,0:0:0:0:
156,350,104943,1,2,0:0:0:0:
145,343,105029,1,2,0:0:0:0:
134,336,105116,1,2,0:0:0:0:
106,307,105201,6,0,P|118:240|106:213,1,75,6|0,1:2|0:0,0:0:0:0:
3,130,105373,2,0,P|7:172|22:204,1,75,2|0,0:0|0:0,0:0:0:0:
77,9,105546,2,0,P|14:43|18:115,1,150,2|0,0:0|1:0,0:0:0:0:
184,102,105805,2,0,L|110:117,1,75,0|0,0:2|1:0,0:0:0:0:
201,193,105977,1,0,0:0:0:0:
189,186,106063,2,0,B|338:152,1,150,2|0,0:0|1:0,0:0:0:0:
434,38,106322,2,0,B|285:71,1,150,2|0,0:0|0:0,0:0:0:0:
437,134,106580,2,0,L|518:116,1,75,0|0,1:2|0:0,0:0:0:0:
487,321,106753,1,0,1:0:0:0:
470,331,106839,2,0,P|466:258|359:248,1,150,2|0,0:0|0:0,0:0:0:0:
299,346,107098,2,0,P|324:333|339:291,1,75,2|0,0:0|0:0,0:0:0:0:
235,171,107270,54,0,P|260:219|313:202,1,120,4|0,1:2|0:0,0:0:0:0:
387,21,107443,2,0,P|382:76|327:83,1,120,4|0,1:2|0:0,0:0:0:0:
155,60,107615,5,2,0:0:0:0:
140,42,107701,1,2,0:0:0:0:
151,24,107787,1,2,0:0:0:0:
172,29,107874,1,2,0:0:0:0:
174,49,107960,54,0,P|151:89|143:137,1,75,6|0,1:2|0:0,0:0:0:0:
45,143,108132,2,0,P|67:172|72:208,1,75,2|0,0:0|0:0,0:0:0:0:
0,327,108305,2,0,P|72:283|138:309,1,150,2|0,0:0|1:0,0:0:0:0:
249,354,108563,2,0,P|239:319|218:288,1,75,2|0,0:2|1:0,0:0:0:0:
188,187,108735,1,0,0:0:0:0:
205,193,108822,2,0,B|292:219|292:219|342:165,1,150,2|0,0:0|1:0,0:0:0:0:
183,92,109080,2,0,B|270:118|270:118|320:64,1,150,2|0,0:0|0:0,0:0:0:0:
415,11,109339,2,0,B|383:53|383:53|427:144,1,150,0|0,1:2|0:0,0:0:0:0:
502,196,109597,2,0,B|534:154|534:154|490:63,1,150,2|0,0:2|0:0,0:0:0:0:
243,1,109857,1,2,1:2:0:0:
318,2,109943,1,0,1:2:0:0:
241,13,110029,6,0,P|195:59|242:101,1,120,4|0,1:2|0:0,0:0:0:0:
91,107,110202,2,0,P|137:136|119:188,1,120,4|0,1:2|0:0,0:0:0:0:
73,329,110373,53,2,0:0:0:0:
83,324,110460,1,2,0:0:0:0:
92,319,110546,1,2,0:0:0:0:
101,313,110632,1,2,0:0:0:0:
132,270,110718,38,0,P|213:285|282:244,1,161.999995056153,4|0,1:2|0:0,0:0:0:0:
285,264,111063,2,0,P|284:301|293:336,1,53.9999983520508,2|0,0:0|0:0,0:0:0:0:
241,384,111235,1,2,0:0:0:0:
178,43,111408,2,0,P|232:105|226:162,1,107.999996704102,0|2,1:2|0:0,0:0:0:0:
194,207,111666,1,0,0:0:0:0:
212,203,111753,2,0,P|183:192|148:184,1,53.9999983520508,2|0,0:0|0:0,0:0:0:0:
81,206,111925,1,2,0:0:0:0:
319,157,112097,2,0,P|346:78|416:41,1,161.999995056153,0|0,1:2|0:0,0:0:0:0:
419,53,112442,2,0,P|429:88|448:117,1,53.9999983520508,2|0,0:0|0:0,0:0:0:0:
512,121,112615,1,2,0:0:0:0:
376,233,112787,1,2,1:2:0:0:
219,153,112960,1,0,0:0:0:0:
329,146,113132,5,0,0:0:0:0:
265,254,113304,1,2,0:0:0:0:
338,357,113477,2,0,P|282:306|172:314,1,161.999995056153,0|0,1:0|0:0,0:0:0:0:
186,312,113822,2,0,P|177:289|161:182,1,107.999996704102,2|0,0:0|0:0,0:0:0:0:
85,182,114080,1,0,0:0:0:0:
71,191,114166,2,0,P|51:243|26:332,1,107.999996704102,0|2,1:0|0:0,0:0:0:0:
0,89,114511,1,0,0:0:0:0:
10,95,114597,2,0,P|55:94|142:76,1,107.999996704102,2|0,0:0|0:0,0:0:0:0:
184,30,114856,2,0,P|240:44|295:48,1,107.999996704102,2|0,1:2|0:0,0:0:0:0:
383,28,115115,1,0,0:0:0:0:
392,40,115201,2,0,P|376:84|363:149,1,107.999996704102,2|0,0:0|0:0,0:0:0:0:
497,314,115546,1,0,1:0:0:0:
486,325,115632,2,0,P|476:294|468:197,1,107.999996704102,2|0,1:2|0:0,0:0:0:0:
512,147,115891,53,4,0:0:0:0:
392,347,116063,1,0,0:0:0:0:
209,227,116235,2,0,P|290:212|359:253,1,161.999995056153,0|0,1:2|0:0,0:0:0:0:
362,233,116580,2,0,P|361:196|370:161,1,53.9999983520508,2|0,0:0|0:0,0:0:0:0:
318,113,116752,1,2,0:0:0:0:
189,0,116925,2,0,P|225:73|221:109,1,107.999996704102,0|2,1:2|0:0,0:0:0:0:
144,153,117270,1,0,0:0:0:0:
72,87,117442,1,0,0:0:0:0:
141,172,117615,2,0,P|120:247|147:306,1,107.999996704102,0|2,1:2|0:0,0:0:0:0:
137,285,117873,2,0,P|111:311|96:342,2,53.9999983520508,2|0|0,0:0|0:0|0:0,0:0:0:0:
213,267,118132,1,2,0:0:0:0:
379,330,118304,1,2,1:2:0:0:
441,160,118477,1,0,0:0:0:0:
312,177,118649,5,0,0:0:0:0:
450,254,118821,1,2,0:0:0:0:
318,191,118994,2,0,P|238:205|169:115,1,161.999995056153,0|0,1:0|0:0,0:0:0:0:
110,200,119339,2,0,P|101:177|85:70,1,107.999996704102,2|0,0:0|0:0,0:0:0:0:
139,16,119597,1,0,0:0:0:0:
152,29,119683,2,0,P|201:51|277:74,1,107.999996704102,0|2,1:0|0:0,0:0:0:0:
272,73,119942,2,0,P|303:60|330:39,1,53.9999983520508,2|0,0:0|0:0,0:0:0:0:
386,101,120114,2,0,P|466:126|511:166,1,107.999996704102,2|0,0:0|0:0,0:0:0:0:
454,217,120373,2,0,P|425:223|354:259,1,107.999996704102,2|0,1:2|0:0,0:0:0:0:
280,225,120632,2,0,P|249:264|213:327,1,107.999996704102,2|0,0:0|0:0,0:0:0:0:
133,353,120891,2,0,P|120:262|98:201,1,107.999996704102,2|0,0:0|1:0,0:0:0:0:
0,96,121235,1,2,1:2:0:0:
19,107,121322,1,2,1:2:0:0:
48,96,121408,53,4,0:0:0:0:
187,196,121580,1,0,0:0:0:0:
273,35,121753,2,0,P|354:50|423:9,1,161.999995056153,0|0,1:2|0:0,0:0:0:0:
426,29,122098,2,0,P|425:66|434:101,1,53.9999983520508,2|0,0:0|0:0,0:0:0:0:
382,149,122270,1,2,0:0:0:0:
368,384,122442,2,0,P|314:322|311:267,1,107.999996704102,0|2,1:2|0:0,0:0:0:0:
316,220,122701,1,0,0:0:0:0:
331,221,122788,2,0,P|360:232|395:240,1,53.9999983520508,2|0,0:0|0:0,0:0:0:0:
453,210,122960,1,2,0:0:0:0:
255,137,123132,2,0,P|225:145|183:173,1,53.9999983520508,0|0,1:2|0:0,0:0:0:0:
142,203,123304,2,0,P|165:248|174:324,1,107.999996704102,2|2,0:0|0:0,0:0:0:0:
13,296,123649,1,2,0:0:0:0:
198,283,123822,1,2,1:2:0:0:
167,83,123995,1,0,0:0:0:0:
45,125,124167,5,0,0:0:0:0:
153,206,124339,1,2,0:0:0:0:
276,137,124512,2,0,P|326:131|439:207,1,161.999995056153,0|0,1:0|0:0,0:0:0:0:
413,200,124857,2,0,P|420:253|437:304,1,107.999996704102,2|0,0:0|0:0,0:0:0:0:
381,371,125115,1,0,0:0:0:0:
365,365,125201,2,0,P|333:333|285:240,1,107.999996704102,0|2,1:0|0:0,0:0:0:0:
153,206,125546,1,0,0:0:0:0:
163,199,125632,1,2,0:0:0:0:
276,137,125804,1,0,0:0:0:0:
267,129,125891,1,2,1:2:0:0:
119,59,126063,1,2,0:0:0:0:
131,65,126150,1,0,0:0:0:0:
142,76,126235,1,2,0:0:0:0:
52,208,126408,1,0,0:0:0:0:
182,301,126581,1,0,1:0:0:0:
198,305,126667,2,0,P|229:295|326:287,1,107.999996704102,2|0,1:2|0:0,0:0:0:0:
379,313,126926,53,4,0:0:0:0:
480,136,127098,1,0,0:0:0:0:
292,75,127270,2,0,P|211:90|142:49,1,161.999995056153,0|0,1:2|0:0,0:0:0:0:
139,69,127615,2,0,P|140:106|131:141,1,53.9999983520508,2|0,0:0|0:0,0:0:0:0:
87,181,127787,1,2,0:0:0:0:
251,175,127960,2,0,P|287:248|283:284,1,107.999996704102,0|2,1:2|0:0,0:0:0:0:
328,360,128305,1,0,0:0:0:0:
413,314,128477,1,0,0:0:0:0:
317,373,128650,2,0,P|280:351|173:358,1,107.999996704102,0|2,1:2|0:0,0:0:0:0:
199,344,128908,2,0,P|173:370|158:401,2,53.9999983520508,2|0|0,0:0|0:0|0:0,0:0:0:0:
208,268,129167,1,2,0:0:0:0:
25,335,129339,1,2,1:2:0:0:
13,137,129512,1,0,0:0:0:0:
120,185,129684,5,0,0:0:0:0:
40,319,129856,1,2,0:0:0:0:
131,172,130029,2,0,P|195:168|263:93,1,161.999995056153,0|0,1:0|0:0,0:0:0:0:
282,104,130374,2,0,P|289:157|306:208,1,107.999996704102,2|0,0:0|0:0,0:0:0:0:
254,276,130632,1,0,0:0:0:0:
267,289,130718,2,0,P|316:311|392:334,1,107.999996704102,0|2,1:0|0:0,0:0:0:0:
384,337,130977,2,0,P|415:324|442:303,1,53.9999983520508,2|0,0:0|0:0,0:0:0:0:
500,240,131149,2,0,P|453:212|400:201,1,107.999996704102,2|0,0:0|0:0,0:0:0:0:
386,120,131408,2,0,P|432:93|484:79,1,107.999996704102,2|0,1:2|0:0,0:0:0:0:
368,0,131667,2,0,P|337:39|301:102,1,107.999996704102,2|0,0:0|0:0,0:0:0:0:
288,103,131925,2,0,P|283:56|261:17,1,53.9999983520508,2|0,0:0|0:0,0:0:0:0:
212,0,132097,1,0,1:0:0:0:
228,191,132270,1,2,1:2:0:0:
247,202,132357,1,2,1:2:0:0:
299,199,132442,6,0,P|233:181|173:102,1,143.999995605469,4|0,0:0|0:0,0:0:0:0:
