osu file format v14

[General]
AudioFilename: audio.mp3
AudioLeadIn: 0
PreviewTime: 88563
Countdown: 0
SampleSet: Soft
StackLeniency: 0.7
Mode: 0
LetterboxInBreaks: 0
WidescreenStoryboard: 1

[Editor]
Bookmarks: 44152,66221,77175,88290,97946,99325,110359,120795,121744,132515,143468,154497,198635,242859,264842
DistanceSpacing: 0.2
BeatDivisor: 4
GridSize: 32
TimelineZoom: 0.9999999

[Metadata]
Title:Gravity
TitleUnicode:Gravity
Artist:Lexurus
ArtistUnicode:Lexurus
Creator:Milan-
Version:Easy
Source:
Tags:featured artist dnb drum and bass high tea music kibbleru pishifat pho
BeatmapID:1656878
BeatmapSetID:789529

[Difficulty]
HPDrainRate:2
CircleSize:3
OverallDifficulty:2
ApproachRate:3
SliderMultiplier:0.8
SliderTickRate:1

[Events]
//Background and Video events
0,0,"osu! Spring Fanart 2018 - Evaine.jpg",0,0
//Break Periods
//Storyboard Layer 0 (Background)
//Storyboard Layer 1 (Fail)
//Storyboard Layer 2 (Pass)
//Storyboard Layer 3 (Foreground)
//Storyboard Sound Samples

[TimingPoints]
29,344.827586206897,4,2,0,5,1,0
44166,-100,4,2,0,30,0,0
55201,-100,4,2,0,35,0,0
63477,-100,4,2,0,40,0,0
65201,-100,4,2,0,50,0,0
65891,-100,4,2,0,60,0,0
66580,-100,4,2,0,70,0,0
67097,-100,4,2,0,70,0,0
67270,-100,4,2,0,70,0,0
67615,-100,4,2,0,70,0,0
68132,-100,4,2,0,70,0,0
68649,-100,4,2,0,70,0,0
69339,-100,4,2,0,70,0,0
69856,-100,4,2,0,70,0,0
70028,-100,4,2,0,70,0,0
70373,-100,4,2,0,70,0,0
70891,-100,4,2,0,70,0,0
71408,-100,4,2,0,70,0,0
72097,-100,4,2,0,70,0,0
72614,-100,4,2,0,70,0,0
72787,-100,4,2,0,70,0,0
73132,-100,4,2,0,70,0,0
73649,-100,4,2,0,70,0,0
74166,-100,4,2,0,70,0,0
74856,-100,4,2,0,70,0,0
75373,-100,4,2,0,70,0,0
75546,-100,4,2,0,70,0,0
75890,-100,4,2,0,70,0,0
76925,-100,4,2,0,70,0,0
77615,-100,4,2,0,70,0,0
78132,-100,4,2,0,70,0,0
78304,-100,4,2,0,70,0,0
78649,-100,4,2,0,70,0,0
79166,-100,4,2,0,70,0,0
79684,-100,4,2,0,70,0,0
80373,-100,4,2,0,70,0,0
80891,-100,4,2,0,70,0,0
81063,-100,4,2,0,70,0,0
81408,-100,4,2,0,70,0,0
81925,-100,4,2,0,70,0,0
82442,-100,4,2,0,70,0,0
83132,-100,4,2,0,70,0,0
83649,-100,4,2,0,70,0,0
83822,-100,4,2,0,70,0,0
84166,-100,4,2,0,70,0,0
84684,-100,4,2,0,70,0,0
85201,-100,4,2,0,70,0,0
85891,-100,4,2,0,70,0,0
86408,-100,4,2,0,70,0,0
86580,-100,4,2,0,70,0,0
86925,-100,4,2,0,70,0,0
87960,-100,4,2,0,70,0,0
88649,-100,4,2,0,70,0,0
90718,-100,4,2,0,70,0,0
91408,-100,4,2,0,70,0,0
93477,-100,4,2,0,70,0,0
94166,-100,4,2,0,70,0,0
96235,-100,4,2,0,70,0,0
96925,-100,4,2,0,70,0,0
98994,-100,4,2,0,70,0,0
99684,-100,4,2,0,70,0,0
101753,-100,4,2,0,70,0,0
102097,-100,4,2,0,70,0,0
104511,-100,4,2,0,70,0,0
105201,-100,4,2,0,70,0,0
107270,-100,4,2,0,70,0,0
107960,-100,4,2,0,70,0,0
110028,-100,4,2,0,70,0,0
110373,-100,4,2,0,70,0,0
132442,-100,4,2,0,70,0,0

[Colours]
Combo1 : 70,81,132
Combo2 : 187,198,208
Combo3 : 188,211,191
Combo4 : 255,85,89
Combo5 : 251,255,100

[HitObjects]
0,90,44166,5,4,0:0:0:0:
66,148,44511,2,0,P|124:148|172:60,1,160,2|0,1:2|0:0,0:0:0:0:
243,14,45546,2,0,P|306:110|233:215,1,240,4|2,0:3|1:2,0:0:0:0:
161,212,46925,5,4,0:3:0:0:
177,297,47270,2,0,P|282:348|387:299,1,240,2|4,1:2|0:3,0:0:0:0:
458,245,48649,2,0,P|491:287|494:348,2,80,2|0|2,1:2|0:0|1:2,0:0:0:0:
377,208,49684,53,4,0:3:0:0:
449,158,50028,2,0,P|446:85|302:46,1,240,2|4,1:2|0:3,0:0:0:0:
222,71,51408,2,0,P|172:171|118:162,1,160,2|2,1:2|1:2,0:0:0:0:
55,145,52442,5,4,0:3:0:0:
29,229,52787,2,0,P|62:311|193:336,2,200,2|2|0,1:2|0:0|0:0,0:0:0:0:
55,145,54856,1,2,1:2:0:0:
139,169,55201,54,0,L|331:141,1,160,4|2,0:0|1:2,0:0:0:0:
373,102,56235,1,0,0:0:0:0:
447,149,56580,2,0,B|485:221|485:221|445:311,1,160,0|0,1:0|0:0,0:0:0:0:
401,364,57615,1,2,1:2:0:0:
314,350,57960,6,0,L|122:322,1,160,4|2,0:0|1:2,0:0:0:0:
69,343,58994,1,0,0:0:0:0:
29,264,59339,2,0,B|79:201|79:201|174:211,1,160,4|0,0:2|0:0,0:0:0:0:
246,218,60373,1,2,1:2:0:0:
321,173,60718,54,0,P|338:137|348:68,1,80,4|2,0:0|1:2,0:0:0:0:
279,40,61408,2,0,P|219:46|105:50,1,160,2|0,1:2|1:0,0:0:0:0:
47,101,62442,1,2,1:2:0:0:
128,134,62787,2,0,P|126:171|103:243,1,80,0|2,0:0|1:2,0:0:0:0:
74,290,63477,6,0,B|145:318|186:343|186:343|236:296|296:255|296:255|361:292|430:322,1,400,4|2,1:2|1:2,0:0:0:0:
500,160,65891,38,0,P|496:121|489:44,1,80,6|2,1:2|0:0,0:0:0:0:
412,42,66580,38,0,L|243:88,1,160,4|4,1:2|1:2,0:0:0:0:
195,146,67615,2,0,B|163:100|163:100|186:17,2,120,4|4|6,1:2|1:2|1:2,0:0:0:0:
279,170,68994,1,2,0:0:0:0:
363,145,69339,6,0,L|395:323,1,160,4|4,1:2|1:2,0:0:0:0:
323,358,70373,1,4,1:2:0:0:
193,332,70891,1,4,1:2:0:0:
65,299,71408,2,0,P|59:266|50:216,1,80,6|2,1:2|0:0,0:0:0:0:
92,142,72097,54,0,P|179:173|249:178,1,160,4|4,1:2|1:2,0:0:0:0:
313,121,73132,2,0,B|316:61|316:61|258:-1,2,120,4|4|6,1:2|1:2|1:2,0:0:0:0:
391,161,74511,1,2,0:0:0:0:
317,209,74856,2,0,P|291:272|301:382,1,160,4|4,1:2|1:2,0:0:0:0:
208,382,75891,22,0,B|175:349|128:338|128:338|151:297|173:270|173:270|138:261|103:243|103:243|125:221|145:177,1,320,4|2,1:2|0:0,0:0:0:0:
59,153,77615,54,0,P|53:72|119:37,1,160,4|4,1:2|1:2,0:0:0:0:
196,66,78649,2,0,L|334:46,2,120,4|4|6,1:2|1:2|1:2,0:0:0:0:
175,151,80028,1,2,0:0:0:0:
262,160,80373,54,0,P|376:178|441:204,1,160,4|4,1:2|1:2,0:0:0:0:
457,271,81408,1,4,1:2:0:0:
339,330,81925,1,4,1:2:0:0:
214,372,82442,2,0,P|200:328|187:287,1,80,6|2,1:2|0:0,0:0:0:0:
107,263,83132,6,0,P|126:192|142:101,1,160,4|4,1:2|1:2,0:0:0:0:
97,30,84166,2,0,B|39:35|39:35|-5:95,2,120,4|4|6,1:2|1:2|1:2,0:0:0:0:
185,30,85546,1,2,0:0:0:0:
230,105,85891,2,0,B|276:145|276:145|401:103,1,160,4|4,1:2|1:2,0:0:0:0:
455,133,86925,6,0,B|488:286|379:345|379:345|339:347|312:283,1,320,4|2,1:2|0:0,0:0:0:0:
284,223,88649,38,0,P|241:246|205:362,1,160,6|0,1:2|1:2,0:0:0:0:
118,373,89684,2,0,P|83:296|51:262,1,120,0|0,1:0|1:0,0:0:0:0:
43,139,90718,2,0,P|91:118|138:94,1,80,4|2,1:2|0:0,0:0:0:0:
182,47,91408,6,0,P|251:61|287:63,2,80,6|2|0,1:2|0:0|1:2,0:0:0:0:
182,135,92442,2,0,P|240:206|269:262,1,120,0|0,1:0|1:0,0:0:0:0:
383,255,93477,2,0,P|376:215|369:176,1,80,4|2,1:2|0:0,0:0:0:0:
434,116,94166,54,0,P|405:43|336:7,1,160,6|0,1:2|1:2,0:0:0:0:
257,47,95201,2,0,B|194:39|194:39|148:-7,2,120,0|0|4,1:0|1:0|1:2,0:0:0:0:
307,118,96580,2,0,P|267:144|208:172,1,80,2|6,0:0|1:2,0:0:0:0:
150,148,97270,22,0,B|63:125|0:215|0:215|5:319|146:383|261:268,1,480,2|2,0:0|0:0,0:0:0:0:
294,355,99684,38,0,P|337:332|373:216,1,160,6|0,1:2|1:2,0:0:0:0:
440,172,100718,2,0,P|403:124|381:68,1,120,0|0,1:0|1:0,0:0:0:0:
257,24,101753,2,0,P|209:45|162:69,1,80,4|2,1:2|0:0,0:0:0:0:
109,104,102442,6,0,P|40:90|4:88,2,80,6|2|0,1:2|0:0|1:2,0:0:0:0:
71,183,103477,2,0,P|103:233|143:278,1,120,0|0,1:0|1:0,0:0:0:0:
269,316,104511,2,0,P|261:276|255:237,1,80,4|2,1:2|0:0,0:0:0:0:
211,160,105201,54,0,P|239:87|308:51,1,160,6|0,1:2|1:2,0:0:0:0:
388,90,106235,2,0,B|451:82|451:82|497:36,2,120,0|0|4,1:0|1:0|1:2,0:0:0:0:
332,158,107615,2,0,P|372:184|431:212,1,80,2|6,0:0|1:2,0:0:0:0:
423,283,108304,2,0,P|391:309|363:350,1,80,2|0,0:0|1:2,0:0:0:0:
283,364,108994,22,0,B|266:273|154:282|154:282|79:338|-10:266,1,320,0|2,1:0|0:0,0:0:0:0:
73,217,110718,6,0,P|112:133|73:55,1,160,4|0,1:2|1:2,0:0:0:0:
162,21,111753,2,0,P|205:34|266:51,1,80,2|0,0:0|1:2,0:0:0:0:
268,126,112442,2,0,P|342:113|427:70,1,160,2|0,0:0|0:0,0:0:0:0:
496,116,113477,1,0,1:0:0:0:
460,196,113822,2,0,P|446:248|445:339,2,120,2|2|2,0:0|0:0|1:2,0:0:0:0:
374,176,115201,2,0,P|316:221|231:255,1,160,2|4,0:0|0:0,0:0:0:0:
148,248,116235,1,0,1:2:0:0:
69,208,116580,6,0,P|26:231|0:303,2,120,2|2|0,0:0|0:0|1:2,0:0:0:0:
130,144,117960,2,0,P|144:89|252:28,1,160,0|0,0:0|0:0,0:0:0:0:
312,31,118994,2,0,P|365:92|372:190,2,160,0|0|2,1:0|1:0|1:2,0:0:0:0:
266,106,120718,2,0,B|271:173|271:173|255:202|255:202|263:288,1,160,0|4,0:0|0:0,0:0:0:0:
182,302,121753,54,0,P|143:218|182:140,1,160,0|0,1:2|1:2,0:0:0:0:
156,70,122787,2,0,P|120:62|79:47,1,80,2|0,0:0|1:2,0:0:0:0:
0,86,123477,2,0,P|22:148|52:256,1,160,2|0,0:0|0:0,0:0:0:0:
14,319,124511,1,0,1:0:0:0:
101,310,124856,2,0,P|158:339|216:374,2,120,2|2|2,0:0|0:0|1:2,0:0:0:0:
48,238,126235,2,0,P|122:208|185:160,1,160,2|4,0:0|0:0,0:0:0:0:
229,83,127270,1,0,1:2:0:0:
314,104,127615,6,0,P|357:127|383:199,2,120,2|2|0,0:0|0:0|1:2,0:0:0:0:
295,190,128994,2,0,P|309:245|417:306,1,160,0|0,0:0|0:0,0:0:0:0:
457,248,130028,2,0,P|498:187|506:79,2,160,0|0|2,1:0|1:0|1:2,0:0:0:0:
403,178,131753,6,0,B|408:111|408:111|392:82|392:82|400:-4,1,160,0|4,0:0|0:0,0:0:0:0:
