osu file format v14

[General]
AudioFilename: audio.mp3
AudioLeadIn: 0
PreviewTime: 50713
Countdown: 0
SampleSet: Soft
StackLeniency: 0.4
Mode: 0
LetterboxInBreaks: 0
WidescreenStoryboard: 0

[Editor]
DistanceSpacing: 1
BeatDivisor: 2
GridSize: 32
TimelineZoom: 2.2

[Metadata]
Title:About You (feat. Luna)
TitleUnicode:About You (feat. Luna)
Artist:Lexurus
ArtistUnicode:Lexurus
Creator:Niva
Version:Normal
Source:osu!
Tags:maartje keijzer high tea music static groove featured artist mappers' guild
BeatmapID:1934986
BeatmapSetID:903055

[Difficulty]
HPDrainRate:3.5
CircleSize:3.5
OverallDifficulty:3.5
ApproachRate:5.5
SliderMultiplier:1.4
SliderTickRate:1

[Events]
//Background and Video events
0,0,"undefined.jpg",0,0
//Break Periods
//Storyboard Layer 0 (Background)
//Storyboard Layer 1 (Fail)
//Storyboard Layer 2 (Pass)
//Storyboard Layer 3 (Foreground)
//Storyboard Sound Samples

[TimingPoints]
159,324.324324324324,4,2,77,100,1,0
7942,-153.846153846154,4,2,77,40,0,0
8267,-153.846153846154,4,2,77,42,0,0
8591,-153.846153846154,4,2,77,44,0,0
8915,-153.846153846154,4,2,77,46,0,0
9240,-153.846153846154,4,2,77,48,0,0
9564,-153.846153846154,4,2,77,50,0,0
9888,-153.846153846154,4,2,77,52,0,0
10213,-153.846153846154,4,2,77,55,0,0
10537,-153.846153846154,4,2,77,50,0,0
11510,-153.846153846154,4,2,77,50,0,0
13050,-153.846153846154,4,2,77,20,0,0
13131,-153.846153846154,4,2,77,50,0,0
13942,-153.846153846154,4,2,77,50,0,0
15645,-153.846153846154,4,2,77,20,0,0
15726,-153.846153846154,4,2,77,50,0,0
16537,-153.846153846154,4,2,77,50,0,0
18240,-153.846153846154,4,2,77,20,0,0
18321,-153.846153846154,4,2,77,50,0,0
19456,-153.846153846154,4,2,77,50,0,0
20834,-153.846153846154,4,2,77,20,0,0
20915,-153.846153846154,4,2,77,50,0,0
21888,-153.846153846154,4,2,77,50,0,0
26023,-153.846153846154,4,2,77,20,0,0
26104,-153.846153846154,4,2,77,50,0,0
27077,-153.846153846154,4,2,77,50,0,0
28618,-153.846153846154,4,2,77,20,0,0
28699,-153.846153846154,4,2,77,50,0,0
29672,-153.846153846154,4,2,77,50,0,0
31375,-153.846153846154,4,2,77,30,0,0
36158,-153.846153846154,4,2,78,40,0,0
41672,-153.846153846154,4,2,78,50,0,0
44267,-153.846153846154,4,2,78,50,0,0
46861,-153.846153846154,4,2,78,50,0,0
50104,-153.846153846154,4,2,78,45,0,0
50429,-153.846153846154,4,2,78,40,0,0
50753,-181.818181818182,4,2,78,35,0,0
51077,-153.846153846154,4,2,78,40,0,0
51321,-153.846153846154,4,2,78,45,0,0
51564,-153.846153846154,4,2,78,50,0,0
52050,-133.333333333333,4,2,79,70,0,1
52699,-133.333333333333,4,2,79,70,0,1
53672,-133.333333333333,4,2,79,70,0,1
55294,-133.333333333333,4,2,79,70,0,1
56267,-133.333333333333,4,2,79,70,0,1
57888,-133.333333333333,4,2,79,70,0,1
58861,-133.333333333333,4,2,79,70,0,1
59834,-133.333333333333,4,2,79,70,0,1
63077,-133.333333333333,4,2,79,70,0,1
64050,-133.333333333333,4,2,79,70,0,1
65672,-133.333333333333,4,2,79,70,0,1
66645,-133.333333333333,4,2,79,70,0,1
68267,-133.333333333333,4,2,79,70,0,1
69240,-133.333333333333,4,2,79,70,0,1
70213,-133.333333333333,4,2,79,70,0,1
71834,-133.333333333333,4,2,79,70,0,0
72726,-133.333333333333,4,2,79,20,0,0
72807,-133.333333333333,4,2,79,70,0,1
73456,-133.333333333333,4,2,79,70,0,1
74429,-133.333333333333,4,2,79,70,0,1
76050,-133.333333333333,4,2,79,70,0,1
77023,-133.333333333333,4,2,79,70,0,1
77915,-133.333333333333,4,2,79,20,0,1
77996,-133.333333333333,4,2,79,70,0,1
78645,-133.333333333333,4,2,79,70,0,1
79618,-133.333333333333,4,2,79,70,0,1
83104,-133.333333333333,4,2,79,20,0,1
83186,-133.333333333333,4,2,79,70,0,1
83834,-133.333333333333,4,2,79,70,0,1
84807,-133.333333333333,4,2,79,70,0,1
86429,-133.333333333333,4,2,79,70,0,1
87402,-133.333333333333,4,2,79,70,0,1
88294,-133.333333333333,4,2,79,20,0,1
88375,-133.333333333333,4,2,79,70,0,1
89023,-133.333333333333,4,2,79,70,0,1
89996,-133.333333333333,4,2,79,70,0,1
92104,-133.333333333333,4,2,79,70,0,1
92429,-133.333333333333,4,2,79,70,0,1
92591,-133.333333333333,4,2,79,63,0,1
92753,-133.333333333333,4,2,79,63,0,1
93077,-133.333333333333,4,2,79,56,0,1
93402,-133.333333333333,4,2,79,50,0,1
93564,-153.846153846154,4,2,77,50,0,0
94375,-153.846153846154,4,2,77,50,0,0
96077,-153.846153846154,4,2,77,20,0,0
96158,-153.846153846154,4,2,77,50,0,0
97131,-153.846153846154,4,2,77,50,0,0
98672,-153.846153846154,4,2,77,20,0,0
98753,-153.846153846154,4,2,77,50,0,0
99564,-153.846153846154,4,2,77,50,0,0
101267,-153.846153846154,4,2,77,20,0,0
101348,-153.846153846154,4,2,77,50,0,0
102240,-153.846153846154,4,2,77,50,0,0
103861,-153.846153846154,4,2,77,20,0,0
103942,-153.846153846154,4,2,77,50,0,0
105240,-153.846153846154,4,2,77,50,0,0
109050,-153.846153846154,4,2,77,20,0,0
109131,-153.846153846154,4,2,77,50,0,0
110267,-153.846153846154,4,2,77,50,0,0
111645,-153.846153846154,4,2,77,20,0,0
111726,-153.846153846154,4,2,77,50,0,0
112861,-153.846153846154,4,2,77,50,0,0
114402,-153.846153846154,4,2,77,30,0,0
119186,-153.846153846154,4,2,78,40,0,0
124699,-153.846153846154,4,2,78,50,0,0
127294,-153.846153846154,4,2,78,50,0,0
129888,-153.846153846154,4,2,78,50,0,0
133131,-153.846153846154,4,2,78,45,0,0
133456,-153.846153846154,4,2,78,40,0,0
133780,-181.818181818182,4,2,78,35,0,0
134104,-153.846153846154,4,2,78,40,0,0
134348,-153.846153846154,4,2,78,45,0,0
134591,-153.846153846154,4,2,78,50,0,0
135077,-133.333333333333,4,2,79,70,0,1
135726,-133.333333333333,4,2,79,70,0,1
136699,-133.333333333333,4,2,79,70,0,1
138321,-133.333333333333,4,2,79,70,0,1
139294,-133.333333333333,4,2,79,70,0,1
140915,-133.333333333333,4,2,79,70,0,1
141888,-133.333333333333,4,2,79,70,0,1
146104,-133.333333333333,4,2,79,70,0,1
147077,-133.333333333333,4,2,79,70,0,1
148699,-133.333333333333,4,2,79,70,0,1
149672,-133.333333333333,4,2,79,70,0,1
151294,-133.333333333333,4,2,79,70,0,1
152267,-133.333333333333,4,2,79,70,0,1
154861,-133.333333333333,4,2,79,70,0,0
155753,-133.333333333333,4,2,79,20,0,0
155834,-133.333333333333,4,2,79,70,0,1
156483,-133.333333333333,4,2,79,70,0,1
157456,-133.333333333333,4,2,79,70,0,1
159077,-133.333333333333,4,2,79,70,0,1
160050,-133.333333333333,4,2,79,70,0,1
160942,-133.333333333333,4,2,79,20,0,1
161023,-133.333333333333,4,2,79,70,0,1
161672,-133.333333333333,4,2,79,70,0,1
162645,-133.333333333333,4,2,79,70,0,1
166131,-133.333333333333,4,2,79,20,0,1
166213,-133.333333333333,4,2,79,70,0,1
166861,-133.333333333333,4,2,79,70,0,1
167834,-133.333333333333,4,2,79,70,0,1
169456,-133.333333333333,4,2,79,70,0,1
170429,-133.333333333333,4,2,79,70,0,1
171321,-133.333333333333,4,2,79,20,0,1
171402,-133.333333333333,4,2,79,70,0,1
172050,-133.333333333333,4,2,79,70,0,1
173023,-133.333333333333,4,2,79,70,0,1
175131,-133.333333333333,4,2,79,70,0,1
175618,-133.333333333333,4,2,79,63,0,1
176104,-133.333333333333,4,2,79,56,0,1
176591,-133.333333333333,4,2,79,50,0,0

[Colours]
Combo1 : 255,253,174
Combo2 : 151,255,255
Combo3 : 43,253,190

[HitObjects]
256,192,7942,12,2,9564,0:0:0:0:
50,230,10537,6,0,P|105:297|198:283,1,181.999991668702,4|8,1:2|0:0,0:0:0:0:
290,308,11510,2,0,P|335:308|381:308,1,90.9999958343508,2|2,0:0|0:0,0:0:0:0:
471,350,12158,1,2,1:2:0:0:
464,249,12483,2,0,L|483:198,2,45.4999979171754,10|2|2,0:0|0:0|0:0,0:0:0:0:
467,349,13131,6,0,P|412:279|314:270,1,181.999991668702,0|8,1:2|0:0,0:0:0:0:
274,179,14104,2,0,P|277:131|281:71,1,90.9999958343508,2|2,0:0|0:0,0:0:0:0:
183,60,14753,1,2,1:2:0:0:
87,88,15077,2,0,L|80:28,2,45.4999979171754,10|2|2,0:0|0:0|0:0,0:0:0:0:
40,179,15726,6,0,P|65:260|155:274,1,181.999991668702,0|8,1:2|0:0,0:0:0:0:
247,248,16699,2,0,P|296:248|352:248,1,90.9999958343508,2|2,0:0|0:0,0:0:0:0:
399,168,17348,1,2,1:2:0:0:
463,91,17672,2,0,L|458:37,2,45.4999979171754,10|2|2,0:0|0:0|0:0,0:0:0:0:
363,78,18321,6,0,B|307:78|307:78|274:87|274:87|241:78|241:78|181:78,1,181.999991668702,0|8,1:2|0:0,0:0:0:0:
99,202,19456,1,0,1:2:0:0:
99,202,19618,2,0,P|103:246|108:298,1,90.9999958343508,2|2,0:0|1:2,0:0:0:0:
200,331,20267,2,0,L|198:388,2,45.4999979171754,10|2|2,0:0|0:0|0:0,0:0:0:0:
294,297,20915,6,0,B|341:312|384:296|384:296|426:283|475:296,1,181.999991668702,0|8,1:2|0:0,0:0:0:0:
511,150,22050,1,0,1:2:0:0:
511,150,22213,2,0,P|508:106|504:51,1,90.9999958343508,2|0,0:0|1:2,0:0:0:0:
512,10,22699,2,0,P|459:41|377:34,1,136.499993751526,2|2,0:0|0:0,0:0:0:0:
333,123,23510,5,0,1:2:0:0:
333,123,23672,2,0,P|336:168|339:227,1,90.9999958343508,2|0,0:0|0:0,0:0:0:0:
317,259,24158,2,0,P|348:328|417:343,1,136.499993751526,10|0,0:0|1:2,0:0:0:0:
507,238,25131,1,2,1:2:0:0:
484,140,25456,2,0,L|524:102,2,45.4999979171754,10|2|2,0:0|0:0|0:0,0:0:0:0:
411,208,26104,6,0,B|354:204|354:204|288:222|288:222|232:217,1,181.999991668702,0|8,1:2|0:0,0:0:0:0:
92,271,27240,2,0,P|114:209|82:146,1,136.499993751526,0|2,1:2|1:2,0:0:0:0:
163,86,28050,2,0,L|130:45,2,45.4999979171754,10|0|2,0:0|0:0|0:0,0:0:0:0:
246,29,28699,6,0,B|305:29|305:29|362:48|362:48|426:48,1,181.999991668702,0|8,1:2|0:0,0:0:0:0:
508,172,29834,1,2,1:2:0:0:
508,172,29996,2,0,P|474:235|402:232,2,136.499993751526,2|2|2,0:0|0:0|0:0,0:0:0:0:
501,71,31294,5,6,0:0:0:0:
256,192,31375,12,2,33888,0:0:0:0:
437,143,36158,5,2,0:0:0:0:
470,237,36483,2,0,P|435:323|330:339,1,181.999991668702,2|2,0:0|0:0,0:0:0:0:
257,323,37456,1,0,0:0:0:0:
257,323,37618,2,0,B|221:345|221:345|169:345|169:345|124:368,1,136.499993751526,2|0,0:0|0:0,0:0:0:0:
42,184,38753,5,2,0:0:0:0:
99,102,39077,2,0,P|181:135|268:108,1,181.999991668702,2|2,0:0|0:0,0:0:0:0:
365,128,40050,1,0,0:0:0:0:
365,128,40213,2,0,P|362:84|359:26,2,90.9999958343508,2|2|2,0:0|0:0|0:0,0:0:0:0:
322,218,41186,1,0,0:0:0:0:
322,218,41348,1,2,0:0:0:0:
283,310,41672,6,0,B|334:307|334:307|370:324|370:324|423:322,2,136.499993751526,10|8|8,0:0|0:0|0:0,0:0:0:0:
191,350,42969,2,0,P|126:362|65:328,1,136.499993751526,8|8,0:0|0:0,0:0:0:0:
8,190,43942,2,0,L|17:133,1,45.4999979171754,8|8,0:0|0:0,0:0:0:0:
55,114,44267,6,0,P|18:65|29:-22,2,136.499993751526,8|8|8,0:0|0:0|0:0,0:0:0:0:
73,212,45564,2,0,P|135:184|209:188,1,136.499993751526,8|8,0:0|0:0,0:0:0:0:
312,84,46537,2,0,L|377:84,1,45.4999979171754,10|8,0:0|0:0,0:0:0:0:
398,55,46861,6,0,P|444:65|487:55,1,90.9999958343508,10|10,0:0|0:0,0:0:0:0:
479,155,47510,2,0,P|483:201|506:239,1,90.9999958343508,10|8,0:0|0:0,0:0:0:0:
408,262,48158,2,0,P|364:280|335:314,1,90.9999958343508,8|8,0:0|0:0,0:0:0:0:
284,229,48807,2,0,P|252:193|211:176,1,90.9999958343508,8|10,0:0|0:0,0:0:0:0:
251,84,49456,6,0,L|303:84,2,45.4999979171754,10|8|10,0:0|0:0|0:0,0:0:0:0:
156,50,50104,2,0,L|155:1,2,45.4999979171754,8|8|10,0:0|0:0|0:0,0:0:0:0:
62,87,50753,6,0,P|16:166|61:251,1,192.500005874634,4|2,3:3|0:3,0:0:0:0:
206,332,52050,6,0,B|261:328|261:328|307:346|307:346|361:342,1,157.500006008148,6|0,1:2|0:0,0:0:0:0:
405,368,52699,2,0,P|459:369|498:335,1,105.000004005432,10|0,0:0|0:0,0:0:0:0:
510,286,53186,1,2,0:0:0:0:
486,183,53510,1,0,0:0:0:0:
486,183,53672,2,0,P|484:104|481:15,1,157.500006008148,2|2,1:2|1:2,0:0:0:0:
335,84,54645,6,0,B|283:84|283:84|256:92|256:92|230:84|230:84|174:84,1,157.500006008148,2|0,1:2|0:0,0:0:0:0:
138,51,55294,2,0,P|137:110|104:145,1,105.000004005432,10|0,0:0|0:0,0:0:0:0:
60,164,55780,1,2,0:0:0:0:
38,266,56104,1,0,0:0:0:0:
38,266,56267,2,0,P|113:276|181:327,1,157.500006008148,2|2,1:2|1:2,0:0:0:0:
323,383,57240,6,0,P|317:309|310:211,1,157.500006008148,2|0,1:2|0:0,0:0:0:0:
297,175,57888,2,0,P|347:204|401:202,1,105.000004005432,10|0,0:0|0:0,0:0:0:0:
442,186,58375,1,2,0:0:0:0:
488,91,58699,1,0,0:0:0:0:
488,91,58861,2,0,B|448:68|448:68|389:68|389:68|344:40,1,157.500006008148,2|0,1:2|1:2,0:0:0:0:
304,6,59510,1,2,0:0:0:0:
202,32,59834,6,0,P|163:91|75:93,1,157.500006008148,2|0,1:2|0:0,0:0:0:0:
30,82,60483,2,0,P|97:143|111:211,2,157.500006008148,10|2|2,0:0|1:2|1:2,0:0:0:0:
99,3,61780,1,8,0:0:0:0:
99,3,61942,2,0,P|152:3|226:3,1,105.000004005432,2|0,0:2|0:0,0:0:0:0:
239,41,62429,6,0,B|291:37|291:37|341:54|341:54|394:49,1,157.500006008148,6|0,1:2|0:0,0:0:0:0:
441,29,63077,2,0,P|417:84|423:133,1,105.000004005432,10|0,0:0|0:0,0:0:0:0:
442,175,63564,1,2,0:0:0:0:
478,273,63888,1,0,0:0:0:0:
478,273,64050,2,0,P|435:339|356:323,1,157.500006008148,2|2,1:2|1:2,0:0:0:0:
210,362,65023,6,0,P|130:362|47:362,1,157.500006008148,2|0,1:2|0:0,0:0:0:0:
2,379,65672,2,0,P|31:338|31:285,1,105.000004005432,10|0,0:0|0:0,0:0:0:0:
10,236,66158,1,2,0:0:0:0:
78,155,66483,1,0,0:0:0:0:
78,155,66645,2,0,P|131:208|210:211,1,157.500006008148,2|2,1:2|1:2,0:0:0:0:
204,368,67618,6,0,P|296:335|364:342,1,157.500006008148,2|0,1:2|0:0,0:0:0:0:
404,356,68267,2,0,P|379:306|392:250,1,105.000004005432,10|0,0:0|0:0,0:0:0:0:
408,211,68753,1,2,0:0:0:0:
467,124,69077,1,0,0:0:0:0:
467,124,69240,2,0,B|416:127|416:127|367:103|367:103|314:106,1,157.500006008148,2|0,1:2|1:2,0:0:0:0:
263,111,69888,1,2,0:0:0:0:
169,158,70213,6,0,B|148:196|130:228|130:228|150:256|175:291,1,157.500006008148,2|0,1:2|0:0,0:0:0:0:
212,328,70861,2,0,P|132:304|41:314,1,157.500006008148,10|2,0:0|1:2,0:0:0:0:
0,167,71834,1,0,1:2:0:0:
0,167,71996,2,0,P|1:114|3:57,1,105.000004005432,2|0,0:0|0:0,0:0:0:0:
5,9,72483,1,2,0:0:0:0:
105,39,72807,6,0,B|145:52|183:38|183:38|222:27|263:38,1,157.500006008148,4|0,1:2|0:0,0:0:0:0:
308,16,73456,2,0,L|314:77,1,52.5000020027161,10|2,0:0|0:0,0:0:0:0:
416,86,73942,2,0,L|422:151,1,52.5000020027161,0|2,0:0|0:0,0:0:0:0:
511,191,74429,2,0,P|480:267|392:270,1,157.500006008148,2|2,1:2|1:2,0:0:0:0:
280,192,75402,6,0,B|234:192|234:192|203:198|203:198|173:192|173:192|120:192,1,157.500006008148,2|0,1:2|0:0,0:0:0:0:
72,182,76050,2,0,L|81:259,1,52.5000020027161,10|2,0:0|0:0,0:0:0:0:
29,327,76537,2,0,L|84:348,1,52.5000020027161,0|2,0:0|0:0,0:0:0:0:
177,384,77023,1,0,1:2:0:0:
177,384,77186,2,0,P|226:366|290:366,1,105.000004005432,2|0,0:0|1:2,0:0:0:0:
329,375,77672,1,2,0:0:0:0:
405,302,77996,6,0,P|436:229|403:163,1,157.500006008148,2|0,1:2|0:0,0:0:0:0:
413,111,78645,2,0,L|354:113,1,52.5000020027161,10|2,0:0|0:0,0:0:0:0:
258,87,79131,2,0,L|199:89,1,52.5000020027161,0|2,0:0|0:0,0:0:0:0:
102,65,79618,2,0,P|25:71|10:148,1,157.500006008148,2|0,1:2|1:2,0:0:0:0:
31,185,80267,1,2,0:0:0:0:
32,289,80591,6,0,P|96:260|185:266,1,157.500006008148,2|0,1:2|0:0,0:0:0:0:
231,282,81240,2,0,P|177:223|172:122,1,157.500006008148,10|2,0:0|1:2,0:0:0:0:
283,43,82213,1,0,1:2:0:0:
283,43,82375,2,0,P|335:41|394:38,1,105.000004005432,2|0,0:0|0:0,0:0:0:0:
440,36,82861,1,2,0:0:0:0:
510,113,83186,6,0,B|516:154|500:188|500:188|482:226|490:268,1,157.500006008148,6|0,1:2|0:0,0:0:0:0:
512,314,83834,2,0,P|485:316|455:327,1,52.5000020027161,10|2,0:0|0:0,0:0:0:0:
381,255,84321,2,0,P|363:275|349:304,1,52.5000020027161,0|2,0:0|0:0,0:0:0:0:
253,262,84807,2,0,B|132:264|132:264|148:258|166:248,1,157.500006008148,2|2,1:2|1:2,0:0:0:0:
294,164,85780,6,0,P|347:220|350:297,1,157.500006008148,2|0,1:2|0:0,0:0:0:0:
338,348,86429,2,0,L|390:345,1,52.5000020027161,10|2,0:0|0:0,0:0:0:0:
460,266,86915,2,0,L|525:263,1,52.5000020027161,0|2,0:0|0:0,0:0:0:0:
481,163,87402,1,0,1:2:0:0:
481,163,87564,2,0,P|479:111|476:50,1,105.000004005432,2|0,0:0|1:2,0:0:0:0:
474,5,88050,1,2,0:0:0:0:
374,43,88375,6,0,P|294:60|228:29,1,157.500006008148,2|0,1:2|0:0,0:0:0:0:
179,8,89023,2,0,P|174:36|173:60,1,52.5000020027161,10|2,0:0|0:0,0:0:0:0:
126,154,89510,2,0,P|130:182|132:206,1,52.5000020027161,0|2,0:0|0:0,0:0:0:0:
96,305,89996,2,0,B|150:301|150:301|198:318|198:318|255:313,1,157.500006008148,2|0,1:2|1:2,0:0:0:0:
289,348,90645,1,2,0:0:0:0:
379,294,90969,6,0,P|410:222|375:158,1,157.500006008148,2|0,1:2|0:0,0:0:0:0:
326,134,91618,2,0,P|410:134|470:95,2,157.500006008148,10|2|2,0:0|1:2|1:2,0:0:0:0:
224,104,92915,1,8,0:0:0:0:
224,104,93077,2,0,P|174:104|115:104,1,105.000004005432,2|0,0:0|0:0,0:0:0:0:
75,79,93564,5,0,1:2:0:0:
219,283,94375,5,0,0:0:0:0:
219,283,94537,2,0,P|170:283|117:283,1,90.9999958343508,2|2,0:0|0:0,0:0:0:0:
81,194,95186,1,2,0:0:0:0:
37,103,95510,2,0,L|40:51,2,45.4999979171754,2|2|2,0:0|0:0|0:0,0:0:0:0:
134,80,96158,6,0,B|199:80|199:80|248:99|248:99|315:99,1,181.999991668702,0|8,1:2|0:0,0:0:0:0:
407,66,97131,2,0,P|413:111|419:159,1,90.9999958343508,2|2,0:0|0:0,0:0:0:0:
488,228,97780,1,2,1:2:0:0:
442,316,98104,2,0,L|447:361,2,45.4999979171754,10|2|2,0:0|0:0|0:0,0:0:0:0:
344,293,98753,6,0,B|300:309|255:294|255:294|210:278|166:293,1,181.999991668702,0|8,1:2|0:0,0:0:0:0:
128,199,99726,2,0,P|175:194|228:188,1,90.9999958343508,2|2,0:0|0:0,0:0:0:0:
298,128,100375,1,2,1:2:0:0:
377,67,100699,2,0,L|430:62,2,45.4999979171754,10|2|2,0:0|0:0|0:0,0:0:0:0:
287,21,101348,6,0,P|200:44|113:19,1,181.999991668702,0|8,1:2|0:0,0:0:0:0:
25,67,102321,1,2,0:0:0:0:
64,158,102645,2,0,P|102:238|80:325,1,181.999991668702,2|10,0:0|0:0,0:0:0:0:
163,379,103618,1,2,0:0:0:0:
243,319,103942,6,0,B|292:316|292:316|332:328|332:328|379:325,2,136.499993751526,0|2|0,1:2|0:0|0:0,0:0:0:0:
178,242,105240,2,0,P|173:195|168:140,1,90.9999958343508,2|0,0:0|1:2,0:0:0:0:
148,105,105726,2,0,P|212:126|278:107,1,136.499993751526,2|2,0:0|0:0,0:0:0:0:
369,71,106537,5,0,1:2:0:0:
369,71,106699,2,0,P|415:71|466:71,1,90.9999958343508,2|0,0:0|0:0,0:0:0:0:
508,59,107186,2,0,P|512:131|465:175,1,136.499993751526,8|0,0:0|1:2,0:0:0:0:
461,273,107996,1,0,0:0:0:0:
461,273,108158,1,2,1:2:0:0:
453,372,108483,2,0,L|502:366,2,45.4999979171754,10|2|2,0:0|0:0|0:0,0:0:0:0:
358,339,109131,6,0,B|317:361|317:361|236:361|236:361|184:385,1,181.999991668702,0|8,1:2|0:0,0:0:0:0:
59,302,110267,2,0,P|30:240|56:182,1,136.499993751526,0|2,1:2|1:2,0:0:0:0:
117,102,111077,2,0,L|117:45,2,45.4999979171754,10|0|2,0:0|0:0|0:0,0:0:0:0:
213,129,111726,6,0,B|268:129|268:129|302:141|302:141|337:129|337:129|399:129,1,181.999991668702,0|8,1:2|0:0,0:0:0:0:
424,275,112861,1,2,1:2:0:0:
424,275,113023,2,0,P|470:226|539:206,2,136.499993751526,2|2|2,0:0|0:0|0:0,0:0:0:0:
406,374,114321,5,6,0:0:0:0:
256,192,114402,12,2,116915,0:0:0:0:
256,322,119186,5,2,0:0:0:0:
160,293,119510,2,0,P|100:234|133:117,1,181.999991668702,2|2,0:0|0:0,0:0:0:0:
167,61,120483,1,0,0:0:0:0:
167,61,120645,2,0,B|213:61|213:61|255:76|255:76|304:77,1,136.499993751526,2|0,0:0|0:0,0:0:0:0:
387,257,121780,5,2,0:0:0:0:
480,292,122104,2,0,P|476:200|473:83,1,181.999991668702,2|2,0:0|0:0,0:0:0:0:
376,82,123077,1,0,0:0:0:0:
376,82,123240,2,0,P|374:38|373:-11,2,90.9999958343508,2|2|2,0:0|0:0|0:0,0:0:0:0:
279,110,124213,1,0,0:0:0:0:
279,110,124375,1,2,0:0:0:0:
182,82,124699,6,0,P|114:98|45:78,2,136.499993751526,10|8|8,0:0|0:0|0:0,0:0:0:0:
277,51,125996,2,0,B|318:70|318:70|364:70|364:70|407:86,1,136.499993751526,8|8,0:0|0:0,0:0:0:0:
441,231,126969,2,0,L|413:278,1,45.4999979171754,8|8,0:0|0:0,0:0:0:0:
394,314,127294,6,0,P|461:284|526:286,2,136.499993751526,8|8|8,0:0|0:0|0:0,0:0:0:0:
304,267,128591,2,0,B|259:267|259:267|235:273|235:273|215:267|215:267|166:267,1,136.499993751526,8|8,0:0|0:0,0:0:0:0:
92,137,129564,2,0,L|87:80,1,45.4999979171754,10|10,0:0|0:0,0:0:0:0:
76,43,129888,6,0,P|122:51|173:42,1,90.9999958343508,10|10,0:0|0:0,0:0:0:0:
259,79,130537,2,0,P|305:71|356:80,1,90.9999958343508,10|8,0:0|0:0,0:0:0:0:
438,33,131186,2,0,P|450:79|438:124,1,90.9999958343508,8|8,0:0|0:0,0:0:0:0:
483,210,131834,2,0,P|471:256|483:301,1,90.9999958343508,8|10,0:0|0:0,0:0:0:0:
383,319,132483,6,0,L|373:271,2,45.4999979171754,10|8|10,0:0|0:0|0:0,0:0:0:0:
285,339,133131,2,0,L|275:291,2,45.4999979171754,8|8|10,0:0|0:0|0:0,0:0:0:0:
186,357,133780,6,0,B|50:359|50:359|81:348|109:331,1,192.500005874634,4|2,3:0|0:3,0:0:0:0:
212,223,135077,6,0,P|265:283|341:297,1,157.500006008148,6|0,1:2|0:0,0:0:0:0:
360,345,135726,2,0,P|407:320|460:319,1,105.000004005432,10|0,0:0|0:0,0:0:0:0:
509,328,136213,1,2,0:0:0:0:
489,224,136537,1,0,0:0:0:0:
489,224,136699,2,0,B|505:188|523:156|523:156|501:117|484:81,1,157.500006008148,2|2,1:2|1:2,0:0:0:0:
350,2,137672,6,0,P|288:47|204:38,1,157.500006008148,2|0,1:2|0:0,0:0:0:0:
158,30,138321,2,0,P|189:74|199:135,1,105.000004005432,10|0,0:0|0:0,0:0:0:0:
193,175,138807,1,2,0:0:0:0:
152,271,139131,1,0,0:0:0:0:
152,271,139294,2,0,P|89:318|-9:318,1,157.500006008148,2|2,1:2|1:2,0:0:0:0:
35,166,140267,6,0,P|114:170|199:175,1,157.500006008148,2|0,1:2|0:0,0:0:0:0:
219,219,140915,2,0,P|258:182|311:171,1,105.000004005432,10|0,0:0|0:0,0:0:0:0:
358,178,141402,1,2,0:0:0:0:
455,139,141726,1,0,0:0:0:0:
455,139,141888,2,0,P|466:245|476:342,1,157.500006008148,2|0,1:2|1:2,0:0:0:0:
477,348,142537,1,2,0:0:0:0:
375,373,142861,6,0,B|332:373|332:373|298:384|298:384|259:373|259:373|191:373,1,157.500006008148,2|0,1:2|0:0,0:0:0:0:
165,384,143510,2,0,P|222:335|247:242,2,157.500006008148,10|2|2,0:0|1:2|1:2,0:0:0:0:
71,335,144807,1,8,0:0:0:0:
71,335,144969,2,0,B|52:287|52:287|74:237,1,105.000004005432,2|0,0:0|0:0,0:0:0:0:
60,187,145456,6,0,P|134:211|210:189,1,157.500006008148,6|0,1:2|0:0,0:0:0:0:
240,231,146104,2,0,P|290:211|345:213,1,105.000004005432,10|0,0:0|0:0,0:0:0:0:
391,226,146591,1,2,0:0:0:0:
471,159,146915,1,0,0:0:0:0:
471,159,147077,2,0,P|479:86|408:26,1,157.500006008148,2|2,1:2|1:2,0:0:0:0:
279,93,148050,6,0,B|235:98|202:82|202:82|168:66|124:73,1,157.500006008148,2|0,1:2|0:0,0:0:0:0:
88,34,148699,2,0,P|82:94|38:135,1,105.000004005432,10|0,0:0|0:0,0:0:0:0:
5,148,149186,1,2,0:0:0:0:
24,250,149510,1,0,0:0:0:0:
24,250,149672,2,0,P|98:246|194:240,1,157.500006008148,2|2,1:2|1:2,0:0:0:0:
321,312,150645,6,0,P|317:238|311:141,1,157.500006008148,2|0,1:2|0:0,0:0:0:0:
268,124,151294,2,0,P|322:114|354:76,1,105.000004005432,10|0,0:0|0:0,0:0:0:0:
361,25,151780,1,2,0:0:0:0:
464,44,152104,1,0,0:0:0:0:
464,44,152267,2,0,B|490:73|517:100|517:100|505:140|494:184,1,157.500006008148,2|0,1:2|1:2,0:0:0:0:
483,228,152915,1,2,0:0:0:0:
486,333,153240,6,0,P|411:305|332:314,1,157.500006008148,2|0,1:2|0:0,0:0:0:0:
339,260,153888,2,0,P|275:297|190:288,1,157.500006008148,10|2,0:0|1:2,0:0:0:0:
48,351,154861,1,0,1:2:0:0:
48,351,155023,2,0,P|44:302|39:241,1,105.000004005432,2|0,0:0|0:0,0:0:0:0:
36,193,155510,1,2,0:0:0:0:
23,88,155834,6,0,P|91:118|177:103,1,157.500006008148,6|0,1:2|0:0,0:0:0:0:
215,134,156483,2,0,L|272:132,1,52.5000020027161,10|2,0:0|0:0,0:0:0:0:
366,97,156969,2,0,L|370:168,1,52.5000020027161,0|2,0:0|0:0,0:0:0:0:
422,240,157456,2,0,P|397:320|305:340,1,157.500006008148,2|2,1:2|1:2,0:0:0:0:
187,286,158429,6,0,B|151:298|111:286|111:286|68:273|30:283,1,157.500006008148,2|0,1:2|0:0,0:0:0:0:
1,239,159077,2,0,L|-6:183,1,52.5000020027161,10|2,0:0|0:0,0:0:0:0:
99,187,159564,2,0,L|93:126,1,52.5000020027161,0|2,0:0|0:0,0:0:0:0:
198,141,160050,1,0,1:2:0:0:
198,141,160213,2,0,P|253:141|327:141,1,105.000004005432,2|0,0:0|1:2,0:0:0:0:
346,112,160699,1,2,0:0:0:0:
432,171,161023,6,0,P|507:148|523:75,1,157.500006008148,2|0,1:2|0:0,0:0:0:0:
512,26,161672,2,0,L|460:26,1,52.5000020027161,10|2,0:0|0:0,0:0:0:0:
357,52,162158,2,0,L|305:52,1,52.5000020027161,0|2,0:0|0:0,0:0:0:0:
203,26,162645,2,0,P|126:26|43:26,1,157.500006008148,2|0,1:2|1:2,0:0:0:0:
0,52,163294,1,2,0:0:0:0:
64,134,163618,6,0,P|33:209|66:274,1,157.500006008148,2|0,1:2|0:0,0:0:0:0:
49,323,164267,2,0,P|118:290|200:299,1,157.500006008148,10|2,0:0|1:2,0:0:0:0:
345,244,165240,1,0,1:2:0:0:
345,244,165402,2,0,B|398:257|398:257|448:246,1,105.000004005432,2|0,0:0|0:0,0:0:0:0:
498,233,165888,1,2,0:0:0:0:
510,128,166213,6,0,P|523:65|452:14,1,157.500006008148,6|0,1:2|0:0,0:0:0:0:
406,32,166861,2,0,L|346:31,1,52.5000020027161,10|2,0:0|0:0,0:0:0:0:
251,55,167348,2,0,L|252:-5,1,52.5000020027161,0|2,0:0|0:0,0:0:0:0:
150,28,167834,2,0,P|71:27|-8:26,1,157.500006008148,2|2,1:2|1:2,0:0:0:0:
24,180,168807,6,0,P|103:181|182:182,1,157.500006008148,2|0,1:2|0:0,0:0:0:0:
231,166,169456,2,0,P|228:200|240:237,1,52.5000020027161,10|2,0:0|0:0,0:0:0:0:
268,316,169942,2,0,P|289:342|324:359,1,52.5000020027161,0|2,0:0|0:0,0:0:0:0:
406,381,170429,1,0,1:2:0:0:
406,381,170591,2,0,P|457:382|508:361,1,105.000004005432,2|0,0:0|1:2,0:0:0:0:
509,309,171077,1,2,0:0:0:0:
511,203,171402,6,0,B|467:184|467:184|410:184|410:184|365:155,1,157.500006008148,2|0,1:2|0:0,0:0:0:0:
318,131,172050,2,0,L|313:193,1,52.5000020027161,10|2,0:0|0:0,0:0:0:0:
305,288,172537,2,0,L|300:350,1,52.5000020027161,0|2,0:0|0:0,0:0:0:0:
199,369,173023,2,0,P|124:380|59:329,1,157.500006008148,2|0,1:2|1:2,0:0:0:0:
43,284,173672,1,2,0:0:0:0:
105,199,173996,6,0,B|157:199|157:199|196:220|196:220|259:220,1,157.500006008148,2|0,1:2|0:0,0:0:0:0:
293,258,174645,2,0,P|306:178|374:130,2,157.500006008148,10|2|2,0:0|1:2|1:2,0:0:0:0:
242,350,175942,1,8,0:0:0:0:
242,350,176104,2,0,P|187:346|135:342,1,105.000004005432,2|0,0:2|0:0,0:0:0:0:
84,337,176591,5,2,0:0:0:0:
